Subcategories

Percy Faith & His Orchestra - Bouquet (1959)

Posted By: Designol
Percy Faith & His Orchestra - Bouquet (1959)

Percy Faith & His Orchestra - Bouquet (1959)
EAC | APE | Image (Cue&Log) ~ 226 Mb (incl 5%) | Mp3 (CBR320/Stereo) ~ 107 Mb (incl 5%) | Scans ~ 184 Mb
Genre: Easy Listening, Traditional Pop | Label: Sony/CBS | # 32DP 429 | Time: 00:44:38

Icy strings swoop and sway in an ocean wave of sound on Percy Faith's Bouquet, one of this talented conductor/arranger's most popular albums. Piano chords swell and xylophones delicately plink in the distance, but Faith's arrangements are really all about the massed strings: the melodies, the counter-melodies, the gorgeous undulation of violins (32 of them!). If you have a good stereo system, find a CD or clean vinyl copy of Bouquet and turn up the volume – immerse yourself in the glorious flux and reflux of pure sound. This is one of the most beautiful and distinctive mood music albums ever made, and if hearing it does not give you a new appreciation for the genre, then there is no hope for you. Highly recommended.

Review by Greg Adams, Allmusic.com
Percy Faith & His Orchestra - Bouquet (1959)



Tracklist:

01. Bouquet 03:22
02. Tenderly 03:43
03. Laura 04:02
04. The Song From Moulin Rouge 03:52
05. Beyond The Sea 04:47
06. Autumn Leaves 03:23
07. Speak Low 03:42
08. Solitude 04:17
09. Deep Purple 03:59
10. Intermezzo 03:38
11. Ebb Tide 03:06
12. Fascination 02:47


Exact Audio Copy V0.99 prebeta 5 from 4. May 2009

Отчёт EAC об извлечении, выполненном 11. января 2012, 2:50

Percy Faith & His Orchestra / Bouquet

Дисковод: PLEXTOR CD-R PX-W5224A Adapter: 0 ID: 0

Режим чтения : Достоверность
Использование точного потока : Да
Отключение кэша аудио : Да
Использование указателей C2 : Нет

Коррекция смещения при чтении : 30
Способность читать области Lead-in и Lead-out : Нет
Заполнение пропущенных сэмплов тишиной : Да
Удаление блоков с тишиной в начале и конце : Нет
При вычислениях CRC использовались нулевые сэмплы : Да
Интерфейс : Встроенный Win32-интерфейс для Win NT/2000

Выходной формат : Monkey's Audio Lossless Encoder v3.99 DLL
Формат сэмплов : High Lossless Compression


TOC извлечённого CD

Трек | Старт | Длительность | Начальный сектор | Конечный сектор
––––––––––––––––––––––––––––––––––-
1 | 0:00.00 | 3:22.00 | 0 | 15149
2 | 3:22.00 | 3:43.00 | 15150 | 31874
3 | 7:05.00 | 4:02.00 | 31875 | 50024
4 | 11:07.00 | 3:52.00 | 50025 | 67424
5 | 14:59.00 | 4:47.00 | 67425 | 88949
6 | 19:46.00 | 3:23.00 | 88950 | 104174
7 | 23:09.00 | 3:42.00 | 104175 | 120824
8 | 26:51.00 | 4:17.00 | 120825 | 140099
9 | 31:08.00 | 3:59.00 | 140100 | 158024
10 | 35:07.00 | 3:38.00 | 158025 | 174374
11 | 38:45.00 | 3:06.00 | 174375 | 188324
12 | 41:51.00 | 2:47.02 | 188325 | 200851


Характеристики диапазона извлечения и сообщения об ошибках

Выбранный диапазон

Имя файла D:\Releases\PercyFaith&HisOrchestra_Discography (РЕЗЕРВ)\PercyFaith&HisOrchestra_1959_Bouquet\PercyFaith&HisOrchestra_1959_Bouquet.ape

Пиковый уровень 84.7 %
Качество диапазона 100.0 %
CRC теста A0A2A8DF
CRC копии A0A2A8DF
Копирование… OK

Ошибок не произошло


AccurateRip: сводка

Трек 1 нет в базе данных
Трек 2 нет в базе данных
Трек 3 нет в базе данных
Трек 4 нет в базе данных
Трек 5 нет в базе данных
Трек 6 нет в базе данных
Трек 7 нет в базе данных
Трек 8 нет в базе данных
Трек 9 нет в базе данных
Трек 10 нет в базе данных
Трек 11 нет в базе данных
Трек 12 нет в базе данных

Ни одного трека нет в базе AccurateRip

Конец отчёта

foobar2000 1.2.1 / Dynamic Range Meter 1.1.1
log date: 2013-02-13 17:12:30

––––––––––––––––––––––––––––––––––––––––
Analyzed: Percy Faith & His Orchestra / Bouquet
––––––––––––––––––––––––––––––––––––––––

DR Peak RMS Duration Track
––––––––––––––––––––––––––––––––––––––––
DR10 -3.49 dB -17.79 dB 3:22 01-Bouquet
DR11 -2.29 dB -17.07 dB 3:43 02-Tenderly
DR11 -2.03 dB -17.76 dB 4:02 03-Laura
DR11 -1.80 dB -17.08 dB 3:52 04-The Song From Moulin Rouge
DR11 -2.69 dB -18.24 dB 4:47 05-Beyond The Sea
DR11 -1.44 dB -18.06 dB 3:23 06-Autumn Leaves
DR12 -2.33 dB -17.63 dB 3:42 07-Speak Low
DR11 -2.22 dB -18.84 dB 4:17 08-Solitude
DR12 -2.29 dB -19.19 dB 3:59 09-Deep Purple
DR11 -2.98 dB -18.84 dB 3:38 10-Intermezzo
DR11 -2.60 dB -18.47 dB 3:06 11-Ebb Tide
DR11 -3.09 dB -18.24 dB 2:47 12-Fascination
––––––––––––––––––––––––––––––––––––––––

Number of tracks: 12
Official DR value: DR11

Samplerate: 44100 Hz
Channels: 2
Bits per sample: 16
Bitrate: 677 kbps
Codec: Monkey's Audio
================================================================================

Percy Faith & His Orchestra - Bouquet (1959)

Percy Faith & His Orchestra - Bouquet (1959)

All thanks to original releaser - BelOleg

More interesting music in My Blog