Tags
Language
Tags
June 2024
Su Mo Tu We Th Fr Sa
26 27 28 29 30 31 1
2 3 4 5 6 7 8
9 10 11 12 13 14 15
16 17 18 19 20 21 22
23 24 25 26 27 28 29
30 1 2 3 4 5 6

Percy Faith and his Orchestra - Delicado (1953) & Amour, Amor, Amore (1955) [Reissue 1999]

Posted By: gribovar
Percy Faith and his Orchestra - Delicado (1953) & Amour, Amor, Amore (1955) [Reissue 1999]

Percy Faith and his Orchestra - Delicado (1953) & Amour, Amor, Amore (1955) [Reissue 1999]
EAC Rip | FLAC (image+.cue+log) - 413 MB | MP3 CBR 320 kbps (LAME 3.93) - 168 MB | Covers - 50 MB
Genre: Easy Listening, Instrumental Pop | RAR 3% Rec. | Label: Collectables Records/Sony Music (COL CD 6085, A 30910)

"Delicado" (1953) presents love songs from South America, "Amour, Amor, Amore" (1955) presents love songs from the Continent, and together they prove that Percy Faith's music is romantic in any language!
Percy Faith was one of the most popular easy listening recording artists of the 1950s and '60s. Not only did he have a number of hit albums and singles under his own name, but Faith was responsible for arranging hits by Tony Bennett, Doris Day, Johnny Mathis, and Burl Ives, among others, as the musical director for Columbia Records in the '50s.
Tracklist:

Delicado (1953):
01. Delicado
02. Gaviotta (A Peruvian Waltz)
03. Jungle Fantasy
04. Caribbean Night (Noche Caribe)
05. Wow! Wow! Wow!
06. Oye Negra
07. Jamaican Rhumba
08. The Minute Samba
09. Ching Ching-A-Ling
10. Funny Fellow (Bicharada)
11. Cu-Tu-Gu-Ru (Jack! Jack! Jack!)
12. Enlloro (Voodoo Moon)

Amour, Amor, Amore (1955):
13. If Hearts Could Talk (Theme Of "Abdullah, The Great")
14. Valencia
15. Non Dimenticar (Don’t Forget)
16. One Night Of Love
17. Petite (Mon Petit Monde A Moi)
18. The Loveliest Night Of The Year
19. All My Love
20. Dream, Dream, Dream
21. Amorada (Brasileirinho)
22. Baubles, Bangles And Beads
23. Valse Huguette
24. My Shawl

Total time: 01:11:21

Exact Audio Copy V1.3 from 2. September 2016

EAC extraction logfile from 7. May 2018, 11:23

Percy Faith / Delicado / Amour, Amor, Amore

Used drive : hp DVD A DH16AAL Adapter: 1 ID: 0

Read mode : Secure
Utilize accurate stream : Yes
Defeat audio cache : Yes
Make use of C2 pointers : No

Read offset correction : 6
Overread into Lead-In and Lead-Out : No
Fill up missing offset samples with silence : Yes
Delete leading and trailing silent blocks : No
Null samples used in CRC calculations : Yes
Used interface : Native Win32 interface for Win NT & 2000

Used output format : Internal WAV Routines
Sample format : 44.100 Hz; 16 Bit; Stereo


TOC of the extracted CD

Track | Start | Length | Start sector | End sector
––––––––––––––––––––––––––––-
1 | 0:00.00 | 2:55.70 | 0 | 13194
2 | 2:55.70 | 2:39.62 | 13195 | 25181
3 | 5:35.57 | 3:15.43 | 25182 | 39849
4 | 8:51.25 | 3:06.62 | 39850 | 53861
5 | 11:58.12 | 2:09.45 | 53862 | 63581
6 | 14:07.57 | 2:16.08 | 63582 | 73789
7 | 16:23.65 | 3:11.15 | 73790 | 88129
8 | 19:35.05 | 3:10.17 | 88130 | 102396
9 | 22:45.22 | 1:57.43 | 102397 | 111214
10 | 24:42.65 | 2:06.12 | 111215 | 120676
11 | 26:49.02 | 2:58.73 | 120677 | 134099
12 | 29:48.00 | 3:00.00 | 134100 | 147599
13 | 32:48.00 | 3:28.62 | 147600 | 163261
14 | 36:16.62 | 2:09.58 | 163262 | 172994
15 | 38:26.45 | 3:06.17 | 172995 | 186961
16 | 41:32.62 | 3:43.05 | 186962 | 203691
17 | 45:15.67 | 3:08.35 | 203692 | 217826
18 | 48:24.27 | 2:58.48 | 217827 | 231224
19 | 51:23.00 | 3:10.65 | 231225 | 245539
20 | 54:33.65 | 3:03.20 | 245540 | 259284
21 | 57:37.10 | 2:48.17 | 259285 | 271901
22 | 60:25.27 | 3:22.10 | 271902 | 287061
23 | 63:47.37 | 3:15.00 | 287062 | 301686
24 | 67:02.37 | 4:18.03 | 301687 | 321039


Range status and errors

Selected range

Filename C:\Music\Percy Faith\Delicado & Amour, Amor, Amore\Percy Faith - Delicado & Amour, Amor, Amore.wav

Peak level 82.7 %
Extraction speed 6.5 X
Range quality 100.0 %
Test CRC 80A2B25E
Copy CRC 80A2B25E
Copy OK

No errors occurred


AccurateRip summary

Track 1 cannot be verified as accurate (confidence 3) [CD6E4424], AccurateRip returned [D5BBDA3C] (AR v2)
Track 2 cannot be verified as accurate (confidence 3) [6570E67E], AccurateRip returned [2426F080] (AR v2)
Track 3 cannot be verified as accurate (confidence 3) [8749EDA8], AccurateRip returned [0A870FA0] (AR v2)
Track 4 cannot be verified as accurate (confidence 3) [1E9AFCDB], AccurateRip returned [BFA3DAF3] (AR v2)
Track 5 cannot be verified as accurate (confidence 3) [9752CA24], AccurateRip returned [9950681A] (AR v2)
Track 6 cannot be verified as accurate (confidence 3) [365BE2DB], AccurateRip returned [C1AC928A] (AR v2)
Track 7 cannot be verified as accurate (confidence 3) [E6770452], AccurateRip returned [EF49BB9A] (AR v2)
Track 8 cannot be verified as accurate (confidence 3) [A90F95C1], AccurateRip returned [A30ACAC1] (AR v2)
Track 9 cannot be verified as accurate (confidence 3) [EFDC6A89], AccurateRip returned [831ABF3C] (AR v2)
Track 10 cannot be verified as accurate (confidence 3) [17D096A3], AccurateRip returned [26241488] (AR v2)
Track 11 cannot be verified as accurate (confidence 3) [6179D395], AccurateRip returned [920EE40E] (AR v2)
Track 12 cannot be verified as accurate (confidence 3) [FA637664], AccurateRip returned [24DFEAB1] (AR v2)
Track 13 cannot be verified as accurate (confidence 3) [D926F675], AccurateRip returned [5AB56ED6] (AR v2)
Track 14 cannot be verified as accurate (confidence 3) [0ED9DC7F], AccurateRip returned [B4032D80] (AR v2)
Track 15 cannot be verified as accurate (confidence 3) [C45917DA], AccurateRip returned [D0CDEDE1] (AR v2)
Track 16 cannot be verified as accurate (confidence 3) [C40302E3], AccurateRip returned [E1A756BC] (AR v2)
Track 17 cannot be verified as accurate (confidence 3) [4078A763], AccurateRip returned [B651E0AE] (AR v2)
Track 18 cannot be verified as accurate (confidence 3) [0D80B162], AccurateRip returned [FB245DD0] (AR v2)
Track 19 cannot be verified as accurate (confidence 3) [AC5C6030], AccurateRip returned [0ED81875] (AR v2)
Track 20 cannot be verified as accurate (confidence 3) [F1C552BE], AccurateRip returned [BAA900AD] (AR v2)
Track 21 cannot be verified as accurate (confidence 3) [5D1D08A5], AccurateRip returned [9FB0B953] (AR v2)
Track 22 cannot be verified as accurate (confidence 3) [D714B365], AccurateRip returned [C3412CA2] (AR v2)
Track 23 cannot be verified as accurate (confidence 3) [2DD8D38C], AccurateRip returned [3C9F15A1] (AR v2)
Track 24 cannot be verified as accurate (confidence 3) [CE77A296], AccurateRip returned [CD7E30AF] (AR v2)

No tracks could be verified as accurate
You may have a different pressing from the one(s) in the database

End of status report

–– CUETools DB Plugin V2.1.6

[CTDB TOCID: BMZ4wZeltD5xoObYyZNcztLDOTY-] found
Submit result:
Track | CTDB Status
1 | (4/4) Accurately ripped
2 | (4/4) Accurately ripped
3 | (4/4) Accurately ripped
4 | (4/4) Accurately ripped
5 | (4/4) Accurately ripped
6 | (4/4) Accurately ripped
7 | (4/4) Accurately ripped
8 | (4/4) Accurately ripped
9 | (4/4) Accurately ripped
10 | (4/4) Accurately ripped
11 | (4/4) Accurately ripped
12 | (4/4) Accurately ripped
13 | (4/4) Accurately ripped
14 | (4/4) Accurately ripped
15 | (4/4) Accurately ripped
16 | (4/4) Accurately ripped
17 | (4/4) Accurately ripped
18 | (4/4) Accurately ripped
19 | (4/4) Accurately ripped
20 | (4/4) Accurately ripped
21 | (4/4) Accurately ripped
22 | (4/4) Accurately ripped
23 | (4/4) Accurately ripped
24 | (4/4) Accurately ripped


==== Log checksum ED43B1146DFA5A21C82FA681CB517E5F3565775B2F5ACC45629E29B64AB31269 ====

[CUETools log; Date: 20.06.2022 18:45:15; Version: 2.1.4]
[CTDB TOCID: BMZ4wZeltD5xoObYyZNcztLDOTY-] found.
Track | CTDB Status
1 | (7/7) Accurately ripped
2 | (7/7) Accurately ripped
3 | (7/7) Accurately ripped
4 | (7/7) Accurately ripped
5 | (7/7) Accurately ripped
6 | (7/7) Accurately ripped
7 | (7/7) Accurately ripped
8 | (7/7) Accurately ripped
9 | (7/7) Accurately ripped
10 | (7/7) Accurately ripped
11 | (7/7) Accurately ripped
12 | (7/7) Accurately ripped
13 | (7/7) Accurately ripped
14 | (7/7) Accurately ripped
15 | (7/7) Accurately ripped
16 | (7/7) Accurately ripped
17 | (7/7) Accurately ripped
18 | (7/7) Accurately ripped
19 | (7/7) Accurately ripped
20 | (7/7) Accurately ripped
21 | (7/7) Accurately ripped
22 | (7/7) Accurately ripped
23 | (7/7) Accurately ripped
24 | (7/7) Accurately ripped
[AccurateRip ID: 003a889b-03fc7b7c-7710b818] found.
Track [ CRC | V2 ] Status
01 [6172342d|cd6e4424] (0+2/6) Accurately ripped
02 [9188fa2e|6570e67e] (0+2/6) Accurately ripped
03 [65e64aef|8749eda8] (0+2/6) Accurately ripped
04 [9b7faf0d|1e9afcdb] (0+2/6) Accurately ripped
05 [0472f803|9752ca24] (0+2/6) Accurately ripped
06 [7f2ffbab|365be2db] (0+2/6) Accurately ripped
07 [e0827145|e6770452] (0+2/6) Accurately ripped
08 [c23db863|a90f95c1] (0+2/6) Accurately ripped
09 [1786803e|efdc6a89] (0+2/6) Accurately ripped
10 [13c1f6aa|17d096a3] (0+2/6) Accurately ripped
11 [de830290|6179d395] (0+2/6) Accurately ripped
12 [47268df5|fa637664] (0+2/6) Accurately ripped
13 [7b2930eb|d926f675] (0+2/6) Accurately ripped
14 [f9e3d4a8|0ed9dc7f] (0+2/6) Accurately ripped
15 [b94924e3|c45917da] (0+2/6) Accurately ripped
16 [4dc63ccf|c40302e3] (0+2/6) Accurately ripped
17 [4ff0d2ba|4078a763] (0+2/6) Accurately ripped
18 [f774810a|0d80b162] (0+2/6) Accurately ripped
19 [6126878a|ac5c6030] (0+2/6) Accurately ripped
20 [f536a8d5|f1c552be] (0+2/6) Accurately ripped
21 [30053736|5d1d08a5] (0+2/6) Accurately ripped
22 [09a38dcf|d714b365] (0+2/6) Accurately ripped
23 [c072d7bc|2dd8d38c] (0+2/6) Accurately ripped
24 [558dc0b2|ce77a296] (0+2/6) Accurately ripped
Offsetted by 18:
01 [67110e75] (0/6) No match (V2 was not tested)
02 [4cf9a0bd] (0/6) No match (V2 was not tested)
03 [e62bc356] (0/6) No match (V2 was not tested)
04 [3b2f8356] (0/6) No match (V2 was not tested)
05 [05d6ad5f] (0/6) No match (V2 was not tested)
06 [0db12f06] (0/6) No match (V2 was not tested)
07 [e9f2e869] (0/6) No match (V2 was not tested)
08 [be506862] (0/6) No match (V2 was not tested)
09 [a903e86a] (0/6) No match (V2 was not tested)
10 [2181831b] (0/6) No match (V2 was not tested)
11 [1283c40d] (0/6) No match (V2 was not tested)
12 [75e04d28] (0/6) No match (V2 was not tested)
13 [fe6ea39a] (0/6) No match (V2 was not tested)
14 [9cc6d92d] (0/6) No match (V2 was not tested)
15 [c1780629] (0/6) No match (V2 was not tested)
16 [6de415c7] (0/6) No match (V2 was not tested)
17 [c9e93323] (0/6) No match (V2 was not tested)
18 [e955a483] (0/6) No match (V2 was not tested)
19 [c5c66428] (0/6) No match (V2 was not tested)
20 [ba6a6caa] (0/6) No match (V2 was not tested)
21 [707a7096] (0/6) No match (V2 was not tested)
22 [f570f89e] (0/6) No match (V2 was not tested)
23 [cf6f1867] (0/6) No match (V2 was not tested)
24 [5ad207b3] (0/6) No match (V2 was not tested)

Track Peak [ CRC32 ] [W/O NULL] [ LOG ]
– 82,7 [80A2B25E] [0A74958C] CRC32
01 67,8 [FF53A0FC] [1C4B09A8]
02 63,7 [094097C8] [E7D813E0]
03 59,5 [7DFB3DB7] [C20FB0AF]
04 63,1 [3B80CDFA] [2074BF23]
05 55,2 [FE450502] [D4C96A34]
06 64,2 [28C977F6] [CD6EB81C]
07 62,6 [3AE5BA97] [D1199FC3]
08 68,0 [E47A581A] [39914030]
09 82,7 [8A821554] [AEF8989C]
10 54,2 [B042DC97] [2729B52F]
11 64,9 [78A4DDFD] [4F922DCF]
12 70,7 [0B004047] [B4F0DD80]
13 57,6 [F6CE32D0] [6C450E7C]
14 72,6 [7B24135B] [AAA3DAC4]
15 65,3 [84DB0C3C] [8E93424C]
16 70,3 [5B5571F5] [EDEC8070]
17 70,4 [A2445ED1] [B5368071]
18 71,5 [AF3E23DD] [CC7AB764]
19 61,8 [C547061D] [20E9C731]
20 61,5 [321EE204] [C81C6A01]
21 69,9 [F0726657] [A3CFA9AC]
22 69,8 [F6AA5BC1] [241FA22B]
23 68,6 [0F5A2E3C] [F8D861DB]
24 68,3 [C3BD6EC4] [A38613BF]

Thanks to 4sure

See also: