Tags
Language
Tags

Peter Gabriel - Peter Gabriel (1982)

Posted By: v3122
Peter Gabriel - Peter Gabriel (1982)

Peter Gabriel - Peter Gabriel (1982)
EAC | Flac(Image) + Cue + Log & MP3 CBR 320Kbps
1987 | Virgin/Charisma, PGCD 4, 00777 7 86370 2 8 | UK | ~ 199 or 109 Mb | Artwork -> 40 Mb
Progressive Rock

Security – which was titled Peter Gabriel everywhere outside of the U.S. – continues where the third Gabriel album left off, sharing some of the same dense production and sense of cohesion, yet lightening the atmosphere and expanding the sonic palette somewhat. The gloom that permeates the third album has been alleviated and while this is still decidedly somber and serious music, it has a brighter feel, partially derived from Gabriel's dabbling in African and Latin rhythms. These are generally used as tonal coloring, enhancing the synthesizers that form the basic musical bed of the record, since much of this is mood music (for want of a better word). Security flows easily and enticingly, with certain songs – the eerie "San Jacinto," "I Have the Touch," "Shock the Monkey" – arising from the wash of sound. That's not to say that the rest of the album is bland easy listening – it's designed this way, to have certain songs deliver greater impact than the rest. As such, it demands close attention to appreciate tone poems like "The Family and the Fishing Net," "Lay Your Hands on Me," and "Wallflower" – and not all of them reward such intensive listening. Even with its faults, Security remains a powerful listen, one of the better records in Gabriel's catalog, proving that he is becoming a master of tone, style, and substance, and how each part of the record enhances the other.

by Stephen Thomas Erlewine, allmusic
Peter Gabriel - Peter Gabriel (1982):

Peter Gabriel - Peter Gabriel (1982)

Tracklist:

1. The rhythm of the heat 5:18
2. San Jacinto 6:29
3. I have the touch 4:36
4. The family and the fishing net 7:03
5. Shock the monkey 5:29
6. Lay your hands on me 6:12
7. Wallflower 6:35
8. Kiss of life 4:19

Exact Audio Copy V1.0 beta 3 from 29. August 2011

EAC extraction logfile from 15. February 2013, 1:07

Peter Gabriel / Peter Gabriel (PGCD 4) [Swindon]

Used drive : HL-DT-STDVDRAM GE20NU11 Adapter: 0 ID: 1

Read mode : Secure
Utilize accurate stream : Yes
Defeat audio cache : Yes
Make use of C2 pointers : No

Read offset correction : 667
Overread into Lead-In and Lead-Out : No
Fill up missing offset samples with silence : Yes
Delete leading and trailing silent blocks : No
Null samples used in CRC calculations : Yes
Used interface : Native Win32 interface for Win NT & 2000

Used output format : User Defined Encoder
Selected bitrate : 896 kBit/s
Quality : High
Add ID3 tag : No
Command line compressor : C:\Program Files\EAC 3\Exact Audio Copy\Flac\flac.exe
Additional command line options : -V -8 %source%


TOC of the extracted CD

Track | Start | Length | Start sector | End sector
––––––––––––––––––––––––––––-
1 | 0:00.00 | 5:18.70 | 0 | 23919
2 | 5:18.70 | 6:29.47 | 23920 | 53141
3 | 11:48.42 | 4:36.45 | 53142 | 73886
4 | 16:25.12 | 7:03.50 | 73887 | 105661
5 | 23:28.62 | 5:29.58 | 105662 | 130394
6 | 28:58.45 | 6:12.35 | 130395 | 158329
7 | 35:11.05 | 6:35.30 | 158330 | 187984
8 | 41:46.35 | 4:19.37 | 187985 | 207446


Range status and errors

Selected range

Filename C:\OdW\(1982) Peter Gabriel (PGCD 4) [Swindon]\Peter Gabriel - Peter Gabriel (PGCD 4) [Swindon].wav

Peak level 97.7 %
Extraction speed 1.7 X
Range quality 100.0 %
Test CRC 28CF6A66
Copy CRC 28CF6A66
Copy OK

No errors occurred


AccurateRip summary

Track 1 accurately ripped (confidence 6) [99895035] (AR v2)
Track 2 accurately ripped (confidence 6) [5FF588A4] (AR v2)
Track 3 accurately ripped (confidence 6) [00A103F1] (AR v2)
Track 4 accurately ripped (confidence 6) [0F930E70] (AR v2)
Track 5 accurately ripped (confidence 6) [2DE6DE31] (AR v2)
Track 6 accurately ripped (confidence 6) [A242288C] (AR v2)
Track 7 accurately ripped (confidence 6) [A4216864] (AR v2)
Track 8 accurately ripped (confidence 6) [00BDEB73] (AR v2)

All tracks accurately ripped

End of status report

==== Log checksum 3C7776027631D54DD0C9197825766AF9F718C2E0ECC64293A850BDDBA0FF9159 ====


[CUETools log; Date: 19.03.2013 13:24:36; Version: 2.1.4]
[CTDB TOCID: Yyl.rTG.e0nOqXexMp8JA8bGILE-] found.
Track | CTDB Status
1 | (30/31) Accurately ripped
2 | (30/31) Accurately ripped
3 | (31/31) Accurately ripped
4 | (30/31) Accurately ripped
5 | (30/31) Accurately ripped
6 | (28/31) Accurately ripped
7 | (27/31) Accurately ripped
8 | (27/31) Accurately ripped
[AccurateRip ID: 000e5ae0-006004e4-4f0acd08] found.
Track [ CRC | V2 ] Status
01 [f22fede8|99895035] (026+006/147) Accurately ripped
02 [91145b40|5ff588a4] (026+006/147) Accurately ripped
03 [92b22190|00a103f1] (026+006/148) Accurately ripped
04 [53518148|0f930e70] (026+006/146) Accurately ripped
05 [12a021b1|2de6de31] (026+006/147) Accurately ripped
06 [f67d52cd|a242288c] (026+006/145) Accurately ripped
07 [ddc5ab3a|a4216864] (026+006/143) Accurately ripped
08 [fa717bb3|00bdeb73] (026+006/146) Accurately ripped
Offsetted by -920:
01 [6be1f570] (006/147) Accurately ripped
02 [b0aff3b0] (006/147) Accurately ripped
03 [1e6363b8] (006/148) Accurately ripped
04 [def706f8] (006/146) Accurately ripped
05 [7a3e8151] (006/147) Accurately ripped
06 [72946c4d] (006/145) Accurately ripped
07 [e44864a2] (006/143) Accurately ripped
08 [fe6b52d3] (006/146) Accurately ripped
Offsetted by -111:
01 [b52edead] (017/147) Accurately ripped
02 [0defc166] (017/147) Accurately ripped
03 [ded1d039] (017/148) Accurately ripped
04 [d6cf7e36] (016/146) Accurately ripped
05 [29fac0b5] (017/147) Accurately ripped
06 [1fe565bd] (017/145) Accurately ripped
07 [084bfaeb] (016/143) Accurately ripped
08 [42286467] (017/146) Accurately ripped
Offsetted by 154:
01 [7bde5f4a] (054/147) Accurately ripped
02 [2ff66a5c] (054/147) Accurately ripped
03 [7530d79a] (054/148) Accurately ripped
04 [39b777b4] (054/146) Accurately ripped
05 [5316df99] (054/147) Accurately ripped
06 [0b75012d] (053/145) Accurately ripped
07 [03a38b14] (053/143) Accurately ripped
08 [b0511f7b] (054/146) Accurately ripped
Offsetted by 1631:
01 [0d15fbd3] (021/147) Accurately ripped
02 [0c85ccba] (021/147) Accurately ripped
03 [da35ef57] (022/148) Accurately ripped
04 [15a0a77a] (021/146) Accurately ripped
05 [ebe6ce6d] (021/147) Accurately ripped
06 [bd4820dd] (020/145) Accurately ripped
07 [9d5c3f79] (019/143) Accurately ripped
08 [696093bf] (020/146) Accurately ripped
Offsetted by 1915:
01 [e9bebf9f] (003/147) Accurately ripped
02 [34da3862] (003/147) Accurately ripped
03 [7f3a3513] (003/148) Accurately ripped
04 [3634cb02] (003/146) Accurately ripped
05 [ee6b57dd] (003/147) Accurately ripped
06 [0bd85f1d] (003/145) Accurately ripped
07 [6ed42c15] (003/143) Accurately ripped
08 [29d1c86f] (003/146) Accurately ripped

Track Peak [ CRC32 ] [W/O NULL] [ LOG ]
– 97,7 [28CF6A66] [92B15AA0] CRC32
01 97,7 [A99B68C7] [5A8B1155]
02 53,8 [FA8419BB] [585F94E3]
03 71,0 [5BE3D68E] [7439BDDC]
04 67,9 [2A5A22C4] [D3F11693]
05 90,7 [7689BBBA] [5C1D9D44]
06 85,6 [B034B6E2] [288B2F09]
07 60,8 [7631B787] [0D0341DA]
08 91,3 [5CFCCC85] [D58A41B1]


Peter Gabriel - Peter Gabriel (1982)

All thanks go to the original releaser

Peter Gabriel in my Blog

Download Peter Gabriel - Peter Gabriel (1982):