Tags
Language
Tags

Peter Mulvey - Rapture (1995)

Posted By: popsakov
Peter Mulvey - Rapture (1995)

Peter Mulvey - Rapture (1995)
EAC Rip | FLAC (Tracks) + Cue + m3u + Log ~ 313 Mb | MP3 CBR320 ~ 123 Mb
Full Scans ~ 57 Mb | 00:50:53 | RAR 5% Recovery
Contemporary Folk, Folk Rock, Singer-Songwriter | Eastern Front Records #EFR 109

"I want a deep, resonant, effortless voice," Peter Mulvey confesses in one of the tracks on this ambitious folk album. "A big voice – bigger than me." Throughout his semi-major-label debut, Mulvey affects a deep, gruff, bluesy vocal style which is, indeed, bigger than him, calling to mind the Rockwellian image of a small child wearing a suit three times his size. For all of its appealing melodies and accomplished acoustic guitar work, the album is full of that sort of overambition. But overambition is always preferable to underambition, and at times it make this record more interesting. Rapture is speckled with drippingly earnest spoken word pieces (including the previously quoted "The Voice," which concludes with the lines "with this voice I would cry freedom and then I would speak peace"). There's even a "radio play for voice and guitar," which manages to be more intriguing than pretentious. As a guitarist, Mulvey more than compensates for his lack of grace as a vocalist. He strums and plucks his acoustic guitars with an impressive funkiness, detuning his lower strings to depths usually reserved for the standup bass. At the end of the album, Mulvey includes a solo acoustic cover of the Waterboys' "Whole of the Moon," recorded live in a Boston subway. His passion and commitment are endearing, as he continues playing even after the noisy train disinterestedly rolls away. Mulvey is a talented performer, reaching with all his strength for greatness. Because he hasn't grasped it yet, he appears to be overreaching, but it can be pretty entertaining watching him try.

~ Darryl Cater, All Music

***************

Track List:

01. Rapture [4:41]
02. On the Way Up [3:39]
03. Question Mark [3:29]
04. Smell the Future [3:26]
05. The Voice [1:01]
06. So Much More [3:12]
07. If Love Is Not Enough [4:40]
08. The Whole of the Moon [4:30]
09. Half the Time [3:33]
10. Black Rabbit [3:03]
11. Black Snow [2:29]
12. Dog Talk [1:10]
13. The Dream [2:43]
14. The Whole of the Moon [live subway recording] [9:24]

Exact Audio Copy V1.6 from 23. October 2020

EAC extraction logfile from 18. November 2021, 17:54

Peter Mulvey / Rapture

Used drive : ASUS BW-12D1S-U Adapter: 1 ID: 0

Read mode : Secure
Utilize accurate stream : Yes
Defeat audio cache : Yes
Make use of C2 pointers : No

Read offset correction : 667
Overread into Lead-In and Lead-Out : No
Fill up missing offset samples with silence : Yes
Delete leading and trailing silent blocks : No
Null samples used in CRC calculations : Yes
Used interface : Native Win32 interface for Win NT & 2000
Gap handling : Appended to previous track

Used output format : User Defined Encoder
Selected bitrate : 1024 kBit/s
Quality : High
Add ID3 tag : No
Command line compressor : C:\Program Files (x86)\Exact Audio Copy\FLAC\FLAC.EXE
Additional command line options : -V -8 -T "Date=%year%" -T "Genre=%genre%" %source%


TOC of the extracted CD

Track | Start | Length | Start sector | End sector
––––––––––––––––––––––––––––-
1 | 0:00.00 | 4:42.05 | 0 | 21154
2 | 4:42.05 | 3:39.55 | 21155 | 37634
3 | 8:21.60 | 3:29.58 | 37635 | 53367
4 | 11:51.43 | 3:25.20 | 53368 | 68762
5 | 15:16.63 | 1:00.47 | 68763 | 73309
6 | 16:17.35 | 3:12.33 | 73310 | 87742
7 | 19:29.68 | 4:41.20 | 87743 | 108837
8 | 24:11.13 | 4:32.22 | 108838 | 129259
9 | 28:43.35 | 3:32.18 | 129260 | 145177
10 | 32:15.53 | 3:03.72 | 145178 | 158974
11 | 35:19.50 | 2:30.53 | 158975 | 170277
12 | 37:50.28 | 1:09.55 | 170278 | 175507
13 | 39:00.08 | 2:42.35 | 175508 | 187692
14 | 41:42.43 | 9:23.20 | 187693 | 229937


Track 1

Filename E:\Torrents of Autumn\Mulvey, Peter [1995] Rapture\01. Rapture.wav

Pre-gap length 0:00:02.00

Peak level 98.7 %
Extraction speed 5.0 X
Track quality 100.0 %
Test CRC BA0E071F
Copy CRC BA0E071F
Copy OK

Track 2

Filename E:\Torrents of Autumn\Mulvey, Peter [1995] Rapture\02. On the Way Up.wav

Pre-gap length 0:00:01.45

Peak level 92.5 %
Extraction speed 4.5 X
Track quality 99.9 %
Test CRC 4CC90031
Copy CRC 4CC90031
Copy OK

Track 3

Filename E:\Torrents of Autumn\Mulvey, Peter [1995] Rapture\03. Question Mark.wav

Pre-gap length 0:00:01.27

Peak level 100.0 %
Extraction speed 5.3 X
Track quality 100.0 %
Test CRC 9EA78906
Copy CRC 9EA78906
Copy OK

Track 4

Filename E:\Torrents of Autumn\Mulvey, Peter [1995] Rapture\04. Smell the Future.wav

Pre-gap length 0:00:01.43

Peak level 98.7 %
Extraction speed 5.5 X
Track quality 100.0 %
Test CRC 6DFB316C
Copy CRC 6DFB316C
Copy OK

Track 5

Filename E:\Torrents of Autumn\Mulvey, Peter [1995] Rapture\05. The Voice.wav

Peak level 98.5 %
Extraction speed 4.0 X
Track quality 100.0 %
Test CRC 7ABDC32D
Copy CRC 7ABDC32D
Copy OK

Track 6

Filename E:\Torrents of Autumn\Mulvey, Peter [1995] Rapture\06. So Much More.wav

Peak level 86.9 %
Extraction speed 5.7 X
Track quality 100.0 %
Test CRC 5DF8EC21
Copy CRC 5DF8EC21
Copy OK

Track 7

Filename E:\Torrents of Autumn\Mulvey, Peter [1995] Rapture\07. If Love Is Not Enough.wav

Pre-gap length 0:00:01.25

Peak level 98.7 %
Extraction speed 6.1 X
Track quality 100.0 %
Test CRC 8C979D8A
Copy CRC 8C979D8A
Copy OK

Track 8

Filename E:\Torrents of Autumn\Mulvey, Peter [1995] Rapture\08. The Whole of the Moon.wav

Pre-gap length 0:00:02.13

Peak level 92.2 %
Extraction speed 6.4 X
Track quality 100.0 %
Test CRC 5829B42C
Copy CRC 5829B42C
Copy OK

Track 9

Filename E:\Torrents of Autumn\Mulvey, Peter [1995] Rapture\09. Half the Time.wav

Pre-gap length 0:00:02.47

Peak level 98.7 %
Extraction speed 6.4 X
Track quality 100.0 %
Test CRC 4586ADAA
Copy CRC 4586ADAA
Copy OK

Track 10

Filename E:\Torrents of Autumn\Mulvey, Peter [1995] Rapture\10. Black Rabbit.wav

Peak level 52.5 %
Extraction speed 6.3 X
Track quality 100.0 %
Test CRC 2ACF3C54
Copy CRC 2ACF3C54
Copy OK

Track 11

Filename E:\Torrents of Autumn\Mulvey, Peter [1995] Rapture\11. Black Snow.wav

Pre-gap length 0:00:01.00

Peak level 98.6 %
Extraction speed 5.1 X
Track quality 99.9 %
Test CRC A36BC6BE
Copy CRC A36BC6BE
Copy OK

Track 12

Filename E:\Torrents of Autumn\Mulvey, Peter [1995] Rapture\12. Dog Talk.wav

Pre-gap length 0:00:01.60

Peak level 56.8 %
Extraction speed 3.7 X
Track quality 99.8 %
Test CRC 59925ECD
Copy CRC 59925ECD
Copy OK

Track 13

Filename E:\Torrents of Autumn\Mulvey, Peter [1995] Rapture\13. The Dream.wav

Peak level 94.1 %
Extraction speed 6.3 X
Track quality 100.0 %
Test CRC BE6220BE
Copy CRC BE6220BE
Copy OK

Track 14

Filename E:\Torrents of Autumn\Mulvey, Peter [1995] Rapture\14. The Whole of the Moon [live subway recording].wav

Peak level 89.7 %
Extraction speed 7.6 X
Track quality 100.0 %
Test CRC C497A532
Copy CRC C497A532
Copy OK

No errors occurred

End of status report

–– CUETools DB Plugin V2.1.6

[CTDB TOCID: PnisBNaqQMG2Aij2qHZIxdSFs7c-] found
Submit result: PnisBNaqQMG2Aij2qHZIxdSFs7c- has been confirmed
Track | CTDB Status
1 | (9/9) Accurately ripped
2 | (9/9) Accurately ripped
3 | (9/9) Accurately ripped
4 | (9/9) Accurately ripped
5 | (9/9) Accurately ripped
6 | (9/9) Accurately ripped
7 | (9/9) Accurately ripped
8 | (9/9) Accurately ripped
9 | (9/9) Accurately ripped
10 | (8/9) Accurately ripped
11 | (9/9) Accurately ripped
12 | (9/9) Accurately ripped
13 | (9/9) Accurately ripped
14 | (8/9) Accurately ripped


==== Log checksum ACD85F6CB0A43F31C65501CEF607FA065F3242996E091FDA28EBFD54175BB566 ====

Peter Mulvey - Rapture (1995)


All thanks go to DoobieBro

>>> My Blog <<<

DOWNLOAD: