Tags
Language
Tags

Peter Neumann, Kolner Kammerchor, Collegium Cartusianum - Handel: Brockes-Passion, HWV 48 (2010)

Posted By: ArlegZ
Peter Neumann, Kolner Kammerchor, Collegium Cartusianum - Handel: Brockes-Passion, HWV 48 (2010)

Peter Neumann, Kölner Kammerchor, Collegium Cartusianum - Handel: Brockes-Passion, HWV 48 (2010)
EAC | FLAC | Image (Cue & Log) ~ 707 Mb | Total time: 78:25+74:58 | Scans included
Classical | Label: Carus | # CARUS83428 | Recorded: 2009

Barthold Heinrich Brockes’ text for the passion oratorio, later named after him, is among the best-known Passion librettos of the early 18th century. This version is the first recording on CD of the work based on the copy made by J S Bach himself. It is distinguished from the better-known version by a different text for the opening chorus.
Peter Neumann strikes a powerful blow for some reassessment of Handel's version. He is assisted above all by Markus Brutscher's Evangelist which has urgency, cogency and clarity in equal measure. Markus Flaig's Jesus is also effective as is the relatively modest contribution by the Cologne Chamber Choir. –BBC Music Magazine

Performer:
Nele Gramß - Tochter Zion
Johanna Winkel - Gläubige Seele
Markus Brutscher - Evangelist
Markus Flaig - Jesus
Elvira Bill - Maria
Jan Thomer - Judas
James Oxley - Petrus
Michael Dahmen - Bass
Kölner Kammerchor
Collegium Cartusianum
Conductor - Peter Neumann

Track List:
CD1:
01. Sinfonia
02. Chor: Kommet, ihr verworfnen Sünder
03. Rezitativ (Evangelist): Als Jesus nun zu Tische saß
04. Accompagnato (Jesus): Das ist mein Leib
05. Arie (Tochter Zion): Der Gott, dem alle
06. Rezitativ (Evangelist, Jesus): Und bald hernach
07. Arie (Tochter Zion): Gott selbst, der Brunnquell
08. Choral: Ach, wie hungert mein Gemüte
09. Rezitativ (Evangelist, Jesus): Drauf sagten sie
10. Chor: Wir alle wollen eh' erblassen
11. Rezitativ (Jesus): Es ist gewiss
12. Arie (Jesus): Weil ich den Hirten
13. Rezitativ (Petrus, Jesus): Aufs wenigste
14. Arie (Jesus): Mein Vater, schau wie ich
15. Rezitativ (Jesus): Mich drückt der Sünden
16. Arie (Jesus): Ist's möglich, dass dein Zorn
17. Arioso (Tochter Zion): Sünder, schaut mit Furcht
18. Rezitativ (Evangelist): Die Pein vermehrte sich
19. Arie (Tochter Zion): Brich, mein Herz
20. Rezitativ (Evangelist): Ein Engel aber kam
21. Arioso (Evangelist, Petrus): Erwachet doch!
22. Rezitativ (Evangelist): Und eh' die Rede
23. Chor: Greift zu, schlgt tot
24. Rezitativ (Evangelist, Judas): Und der Verräter
25. Chor: Er soll uns nicht entlaufen
26. Rezitativ (Judas, Jesus): Nimm, Rabbi
27. Arie (Petrus): Gift und Glut, Strahl und Flut
28. Rezitativ (Jesus): Steck nur das Schwert
29. Chor: O weh, sie binden ihn
30. Rezitativ (Petrus): Wo flieht ihr hin?
31. Arie (Petrus): Nehmt mich mit
32. Rezitativ (Evangelist, Jesus): Und Jesus ward
33. Arie (Tochter Zion): Was Bärentatzen
34. Rezitativ (Evangelist, Petrus): Dies sahe Petrus
35. Arioso (Petrus): Ich will versinken
36. Rezitativ (Evangelist, Petrus): Drauf krähete der Hahn
37. Arie (Petrus): Heul, du Schaum
38. Rezitativ (Petrus): Doch wie will ich verzweifelnd
39. Arie (Petrus): Schau, ich fall' in stenger Buße
40. Choral: Ach, Gott und Herr
41. Rezitativ (Evangelist, Jesus): Als Jesus nun
42. Arie (Gläubige Seele): Erwäg, ergrimmte
43. Rezitativ (Evangelist, Tochter Zion): Die Nacht
44. Arie (Tochter Zion): Meine Laster sind die Stricke
45. Rezitativ (Judas): O was hab' ich
46. Arie (Judas): Lasst die Tat nicht ungerochen
47. Rezitativ (Judas): Unsäglich ist mein Schmerz
48. Arie (Tochter Zion): Die ihr Gottes Gnad'
49. Rezitativ (Evangelist, Jesus): Wie nun Pilatus
50. Chor - Rezitativ (Evangelist, Pilatus): Bestrafe diesen
51. Duett (Tochter Zion, Jesus): Sprichst du denn
CD2:
01. Rezitativ (Evangelist, Pilatus): Pilatus wunderte sich
02. Rezitativ (Evangelist): Wie er nun sah
03. Rezitativ (Tochter Zion): Besinne dich, Pilatus
04. Rezitativ (Evangelist): Drauf zerretten
05. Arioso (Gläubige Seele): Ich seh' an einen Stein
06. Rezitativ (Gläubige Seele): Drum, Seele, schau
07. Arie (Gläubige Seele): Dem Himmel gleich
08. Rezitativ (Evangelist): Wie nun das Blut als Strome
09. Arie (Tochter Zion): Die Rosen krönen
10. Rezitativ (Tochter Zion): Verwegner Dorn
11. Arie (Tochter Zion): Lass doch
12. Rezitativ (Tochter Zion): Die zarten Schläfen
13. Arie (Tochter Zion): Jesu! Dich mit unsern Seelen
14. Rezitativ (Evangelist, Chor): Drauf beugten sie
15. Rezitativ (Evangelist, Tochter Zion): Ja, scheueten
16. Rezitativ (Evangelist): Worauf sie mit dem Rohr
17. Rezitativ (Tochter Zion): Bestürzte Sünder
18. Arie (Tochter Zion): Heil der Welt
19. Rezitativ (Evangelist): Wie man ih nun genug
20. Arie (Tochter Zion, Chor): Eilt, ihr angefochtnen
21. Rezitativ (Maria): Ach Gott, mein Sohn
22. Duett (Maria, Jesus): Soll mein Kind
23. Rezitativ (Evangelist, Tochter Zion): Und er trug
24. Arie (Tochter Zion): Es scheint
25. Rezitativ (Evangelist): Wie sie nun an die Stätte
26. Arie (Gläubige Seele): Hier erstarrt mein Herz
27. Rezitativ (Gläubige Seele): O Anblick
28. Choral: O Menschenkind, nur deine Sünd'
29. Rezitativ (Evangelist, Chor): Sobald er nun gekreuzigt
30. Rezitativ (Evangelist): Und eine dicke Finsternis
31. Arie (Gläubige Seele): Was Wunder
32. Rezitativ (Evangelist): Dies war zur neunten Stun'
33. Arioso (Gläubige Seele): Mein Heiland
34. Rezitativ (Evangelist): Drauf lief ein Kriegsknecht
35. Terzett (Gläubige Seele, Tochter Zion, Evangelist): O Donnerwort!
36. Rezitativ (Gläubige Seele, Evangelist): O selig
37. Arie (Tochter Zion): Sind meiner Seelen
38. Rezitativ (Tochter Zion, Evangelist): O Großmut!
39. Arie (Gläubige Seele): Brich, brüllender Abgrund
40. Rezitativ (Gläubige Seele): Ja, ja, es brüllet schln
41. Arie (Gläubige Seele): Wie kommtґs
42. Accompagnato (Gläubige Seele): Bei Jesus' Tod
43. Choral: Mein' Sünd' mich werden kränken
44. Arie (Tochter Zion, Evangelist): Wisch ab der Tränen
45. Choral: Ich bin ein Glied an deinem Leib


Exact Audio Copy V1.6 from 23. October 2020

EAC extraction logfile from 27. July 2021, 20:39

Peter Neumann, Collegium Cartusianum, Kölner Kammerchor / Handel - Brockes-Passion CD1

Used drive : PIONEER DVD-RW DVR-218L Adapter: 1 ID: 0

Read mode : Secure
Utilize accurate stream : Yes
Defeat audio cache : Yes
Make use of C2 pointers : No

Read offset correction : 6
Overread into Lead-In and Lead-Out : No
Fill up missing offset samples with silence : Yes
Delete leading and trailing silent blocks : No
Null samples used in CRC calculations : Yes
Used interface : Native Win32 interface for Win NT & 2000

Used output format : User Defined Encoder
Selected bitrate : 128 kBit/s
Quality : High
Add ID3 tag : No
Command line compressor : C:\Program Files\Exact Audio Copy\Flac\flac.exe
Additional command line options : -V -8 -T "Date=%year%" -T "Genre=%genre%" %source%


TOC of the extracted CD

Track | Start | Length | Start sector | End sector
––––––––––––––––––––––––––––-
1 | 0:00.00 | 2:44.58 | 0 | 12357
2 | 2:44.58 | 3:21.64 | 12358 | 27496
3 | 6:06.47 | 0:34.50 | 27497 | 30096
4 | 6:41.22 | 1:02.22 | 30097 | 34768
5 | 7:43.44 | 2:03.70 | 34769 | 44063
6 | 9:47.39 | 1:20.59 | 44064 | 50122
7 | 11:08.23 | 2:06.38 | 50123 | 59610
8 | 13:14.61 | 2:05.64 | 59611 | 69049
9 | 15:20.50 | 0:34.21 | 69050 | 71620
10 | 15:54.71 | 1:32.11 | 71621 | 78531
11 | 17:27.07 | 0:08.45 | 78532 | 79176
12 | 17:35.52 | 1:13.48 | 79177 | 84699
13 | 18:49.25 | 1:05.19 | 84700 | 89593
14 | 19:54.44 | 1:33.55 | 89594 | 96623
15 | 21:28.24 | 0:54.10 | 96624 | 100683
16 | 22:22.34 | 1:34.49 | 100684 | 107782
17 | 23:57.08 | 1:33.59 | 107783 | 114816
18 | 25:30.67 | 1:04.54 | 114817 | 119670
19 | 26:35.46 | 5:26.72 | 119671 | 144192
20 | 32:02.43 | 0:31.47 | 144193 | 146564
21 | 32:34.15 | 1:51.72 | 146565 | 154961
22 | 34:26.12 | 0:11.18 | 154962 | 155804
23 | 34:37.30 | 1:00.28 | 155805 | 160332
24 | 35:37.58 | 0:21.33 | 160333 | 161940
25 | 35:59.16 | 0:25.49 | 161941 | 163864
26 | 36:24.65 | 0:15.05 | 163865 | 164994
27 | 36:39.70 | 1:39.62 | 164995 | 172481
28 | 38:19.57 | 1:21.72 | 172482 | 178628
29 | 39:41.54 | 0:42.11 | 178629 | 181789
30 | 40:23.65 | 0:38.50 | 181790 | 184689
31 | 41:02.40 | 4:21.36 | 184690 | 204300
32 | 45:24.01 | 1:17.08 | 204301 | 210083
33 | 46:41.09 | 3:12.04 | 210084 | 224487
34 | 49:53.13 | 1:13.63 | 224488 | 230025
35 | 51:07.01 | 0:44.06 | 230026 | 233331
36 | 51:51.07 | 1:26.57 | 233332 | 239838
37 | 53:17.64 | 2:42.54 | 239839 | 252042
38 | 56:00.43 | 0:30.19 | 252043 | 254311
39 | 56:30.62 | 2:32.65 | 254312 | 265776
40 | 59:03.52 | 1:14.74 | 265777 | 271400
41 | 60:18.51 | 1:17.58 | 271401 | 277233
42 | 61:36.34 | 4:12.44 | 277234 | 296177
43 | 65:49.03 | 1:17.40 | 296178 | 301992
44 | 67:06.43 | 2:19.55 | 301993 | 312472
45 | 69:26.23 | 0:34.34 | 312473 | 315056
46 | 70:00.57 | 2:04.60 | 315057 | 324416
47 | 72:05.42 | 1:05.71 | 324417 | 329362
48 | 73:11.38 | 1:58.71 | 329363 | 338283
49 | 75:10.34 | 0:18.06 | 338284 | 339639
50 | 75:28.40 | 0:37.06 | 339640 | 342420
51 | 76:05.46 | 2:18.07 | 342421 | 352777


Range status and errors

Selected range

Filename C:\ArlegZ\Handel - Brockes-Passion - Peter Neumann CD1.wav

Peak level 100.0 %
Extraction speed 2.1 X
Range quality 100.0 %
Test CRC 6EC1A95D
Copy CRC 6EC1A95D
Copy OK

No errors occurred


AccurateRip summary

Track 1 accurately ripped (confidence 11) [8FD805B2] (AR v2)
Track 2 accurately ripped (confidence 12) [31A3DF2C] (AR v2)
Track 3 accurately ripped (confidence 10) [B148DBE4] (AR v2)
Track 4 accurately ripped (confidence 11) [8BC22480] (AR v2)
Track 5 accurately ripped (confidence 12) [ECB8DB8F] (AR v2)
Track 6 accurately ripped (confidence 10) [5992A57B] (AR v2)
Track 7 accurately ripped (confidence 11) [AAC5CAEE] (AR v2)
Track 8 accurately ripped (confidence 12) [5950C0AF] (AR v2)
Track 9 accurately ripped (confidence 12) [6A5D6389] (AR v2)
Track 10 accurately ripped (confidence 11) [CF0521C0] (AR v2)
Track 11 accurately ripped (confidence 11) [FEF7C859] (AR v2)
Track 12 accurately ripped (confidence 11) [45E936A8] (AR v2)
Track 13 accurately ripped (confidence 12) [83319A2E] (AR v2)
Track 14 accurately ripped (confidence 12) [385C2756] (AR v2)
Track 15 accurately ripped (confidence 12) [087CF60C] (AR v2)
Track 16 accurately ripped (confidence 13) [7FA3D963] (AR v2)
Track 17 accurately ripped (confidence 12) [251E7269] (AR v2)
Track 18 accurately ripped (confidence 11) [15C295C3] (AR v2)
Track 19 accurately ripped (confidence 12) [C2A19724] (AR v2)
Track 20 accurately ripped (confidence 12) [23C6F104] (AR v2)
Track 21 accurately ripped (confidence 11) [761BCC19] (AR v2)
Track 22 accurately ripped (confidence 12) [78C34CCD] (AR v2)
Track 23 accurately ripped (confidence 13) [3F2E1B15] (AR v2)
Track 24 accurately ripped (confidence 11) [4518B583] (AR v2)
Track 25 accurately ripped (confidence 12) [1FDC7214] (AR v2)
Track 26 accurately ripped (confidence 12) [328243CA] (AR v2)
Track 27 accurately ripped (confidence 11) [6CF393E7] (AR v2)
Track 28 accurately ripped (confidence 11) [86EDACB1] (AR v2)
Track 29 accurately ripped (confidence 13) [C4DF951E] (AR v2)
Track 30 accurately ripped (confidence 11) [2B0E3425] (AR v2)
Track 31 accurately ripped (confidence 12) [C4EC1C92] (AR v2)
Track 32 accurately ripped (confidence 11) [4E1D5924] (AR v2)
Track 33 accurately ripped (confidence 12) [12FB3CA1] (AR v2)
Track 34 accurately ripped (confidence 12) [53EBE764] (AR v2)
Track 35 accurately ripped (confidence 13) [5BB80577] (AR v2)
Track 36 accurately ripped (confidence 12) [9C036B47] (AR v2)
Track 37 accurately ripped (confidence 12) [8E689F2F] (AR v2)
Track 38 accurately ripped (confidence 11) [080D34D0] (AR v2)
Track 39 accurately ripped (confidence 12) [1C98E697] (AR v2)
Track 40 accurately ripped (confidence 12) [E092DC3A] (AR v2)
Track 41 accurately ripped (confidence 12) [0787BE8E] (AR v2)
Track 42 accurately ripped (confidence 12) [63853D00] (AR v2)
Track 43 accurately ripped (confidence 11) [BF8877DF] (AR v2)
Track 44 accurately ripped (confidence 12) [990B9D1E] (AR v2)
Track 45 accurately ripped (confidence 11) [17B03519] (AR v2)
Track 46 accurately ripped (confidence 12) [69F4352D] (AR v2)
Track 47 accurately ripped (confidence 12) [4A822A19] (AR v2)
Track 48 accurately ripped (confidence 11) [907A8E42] (AR v2)
Track 49 accurately ripped (confidence 12) [143648D5] (AR v2)
Track 50 accurately ripped (confidence 11) [D530BE5C] (AR v2)
Track 51 accurately ripped (confidence 12) [8A177736] (AR v2)

All tracks accurately ripped

End of status report

–– CUETools DB Plugin V2.1.6

[CTDB TOCID: dyBaHf1s1YNnKnxjDNu87GPr14M-] found
Submit result: dyBaHf1s1YNnKnxjDNu87GPr14M- has been confirmed
Track | CTDB Status
1 | (33/33) Accurately ripped
2 | (33/33) Accurately ripped
3 | (33/33) Accurately ripped
4 | (33/33) Accurately ripped
5 | (33/33) Accurately ripped
6 | (33/33) Accurately ripped
7 | (33/33) Accurately ripped
8 | (33/33) Accurately ripped
9 | (33/33) Accurately ripped
10 | (33/33) Accurately ripped
11 | (33/33) Accurately ripped
12 | (33/33) Accurately ripped
13 | (33/33) Accurately ripped
14 | (33/33) Accurately ripped
15 | (33/33) Accurately ripped
16 | (33/33) Accurately ripped
17 | (33/33) Accurately ripped
18 | (33/33) Accurately ripped
19 | (33/33) Accurately ripped
20 | (33/33) Accurately ripped
21 | (33/33) Accurately ripped
22 | (33/33) Accurately ripped
23 | (33/33) Accurately ripped
24 | (33/33) Accurately ripped
25 | (33/33) Accurately ripped
26 | (33/33) Accurately ripped
27 | (33/33) Accurately ripped
28 | (33/33) Accurately ripped
29 | (33/33) Accurately ripped
30 | (33/33) Accurately ripped
31 | (33/33) Accurately ripped
32 | (33/33) Accurately ripped
33 | (33/33) Accurately ripped
34 | (33/33) Accurately ripped
35 | (33/33) Accurately ripped
36 | (33/33) Accurately ripped
37 | (33/33) Accurately ripped
38 | (33/33) Accurately ripped
39 | (33/33) Accurately ripped
40 | (33/33) Accurately ripped
41 | (33/33) Accurately ripped
42 | (33/33) Accurately ripped
43 | (33/33) Accurately ripped
44 | (33/33) Accurately ripped
45 | (33/33) Accurately ripped
46 | (33/33) Accurately ripped
47 | (33/33) Accurately ripped
48 | (33/33) Accurately ripped
49 | (33/33) Accurately ripped
50 | (33/33) Accurately ripped
51 | (33/33) Accurately ripped


==== Log checksum 57600A771FA8186388B67AB0AF9DC292587F25E39DE4983436B0C27FB23F79B0 ====


Exact Audio Copy V1.6 from 23. October 2020

EAC extraction logfile from 27. July 2021, 22:25

Peter Neumann, Collegium Cartusianum, Kölner Kammerchor / Handel - Brockes-Passion CD2

Used drive : PIONEER DVD-RW DVR-218L Adapter: 1 ID: 0

Read mode : Secure
Utilize accurate stream : Yes
Defeat audio cache : Yes
Make use of C2 pointers : No

Read offset correction : 6
Overread into Lead-In and Lead-Out : No
Fill up missing offset samples with silence : Yes
Delete leading and trailing silent blocks : No
Null samples used in CRC calculations : Yes
Used interface : Native Win32 interface for Win NT & 2000

Used output format : User Defined Encoder
Selected bitrate : 128 kBit/s
Quality : High
Add ID3 tag : No
Command line compressor : C:\Program Files\Exact Audio Copy\Flac\flac.exe
Additional command line options : -V -8 -T "Date=%year%" -T "Genre=%genre%" %source%


TOC of the extracted CD

Track | Start | Length | Start sector | End sector
––––––––––––––––––––––––––––-
1 | 0:00.00 | 1:20.55 | 0 | 6054
2 | 1:20.55 | 0:13.09 | 6055 | 7038
3 | 1:33.64 | 1:49.14 | 7039 | 15227
4 | 3:23.03 | 0:25.54 | 15228 | 17156
5 | 3:48.57 | 1:26.62 | 17157 | 23668
6 | 5:15.44 | 2:06.38 | 23669 | 33156
7 | 7:22.07 | 3:29.16 | 33157 | 48847
8 | 10:51.23 | 0:27.39 | 48848 | 50911
9 | 11:18.62 | 2:01.45 | 50912 | 60031
10 | 13:20.32 | 1:01.04 | 60032 | 64610
11 | 14:21.36 | 3:25.09 | 64611 | 79994
12 | 17:46.45 | 0:49.10 | 79995 | 83679
13 | 18:35.55 | 2:03.30 | 83680 | 92934
14 | 20:39.10 | 0:58.27 | 92935 | 97311
15 | 21:37.37 | 1:49.35 | 97312 | 105521
16 | 23:26.72 | 0:10.59 | 105522 | 106330
17 | 23:37.56 | 1:03.52 | 106331 | 111107
18 | 24:41.33 | 3:47.61 | 111108 | 128193
19 | 28:29.19 | 0:30.66 | 128194 | 130509
20 | 29:00.10 | 2:03.57 | 130510 | 139791
21 | 31:03.67 | 1:23.50 | 139792 | 146066
22 | 32:27.42 | 2:19.50 | 146067 | 156541
23 | 34:47.17 | 0:46.04 | 156542 | 159995
24 | 35:33.21 | 1:56.16 | 159996 | 168711
25 | 37:29.37 | 0:24.47 | 168712 | 170558
26 | 37:54.09 | 1:17.04 | 170559 | 176337
27 | 39:11.13 | 1:27.68 | 176338 | 182930
28 | 40:39.06 | 0:49.40 | 182931 | 186645
29 | 41:28.46 | 0:59.59 | 186646 | 191129
30 | 42:28.30 | 0:22.35 | 191130 | 192814
31 | 42:50.65 | 2:31.47 | 192815 | 204186
32 | 45:22.37 | 1:16.70 | 204187 | 209956
33 | 46:39.32 | 1:57.15 | 209957 | 218746
34 | 48:36.47 | 0:33.19 | 218747 | 221240
35 | 49:09.66 | 4:00.17 | 221241 | 239257
36 | 53:10.08 | 0:34.41 | 239258 | 241848
37 | 53:44.49 | 3:12.09 | 241849 | 256257
38 | 56:56.58 | 0:24.33 | 256258 | 258090
39 | 57:21.16 | 3:05.57 | 258091 | 272022
40 | 60:26.73 | 1:22.32 | 272023 | 278204
41 | 61:49.30 | 1:57.45 | 278205 | 287024
42 | 63:47.00 | 1:40.47 | 287025 | 294571
43 | 65:27.47 | 1:11.50 | 294572 | 299946
44 | 66:39.22 | 6:40.31 | 299947 | 329977
45 | 73:19.53 | 1:36.35 | 329978 | 337212


Range status and errors

Selected range

Filename C:\ArlegZ\Handel - Brockes-Passion - Peter Neumann CD2.wav

Peak level 98.1 %
Extraction speed 2.0 X
Range quality 100.0 %
Test CRC 1954AF43
Copy CRC 1954AF43
Copy OK

No errors occurred


AccurateRip summary

Track 1 accurately ripped (confidence 11) [00A37915] (AR v2)
Track 2 accurately ripped (confidence 12) [1A5A836B] (AR v2)
Track 3 accurately ripped (confidence 11) [AC0BE581] (AR v2)
Track 4 accurately ripped (confidence 12) [BFBA19FC] (AR v2)
Track 5 accurately ripped (confidence 13) [A05B56B0] (AR v2)
Track 6 accurately ripped (confidence 12) [97E409A1] (AR v2)
Track 7 accurately ripped (confidence 12) [57B48013] (AR v2)
Track 8 accurately ripped (confidence 12) [2E02C8B3] (AR v2)
Track 9 accurately ripped (confidence 11) [8FF57F63] (AR v2)
Track 10 accurately ripped (confidence 11) [240729CF] (AR v2)
Track 11 accurately ripped (confidence 12) [5E9F96D8] (AR v2)
Track 12 accurately ripped (confidence 11) [588486A0] (AR v2)
Track 13 accurately ripped (confidence 12) [3CD513F4] (AR v2)
Track 14 accurately ripped (confidence 12) [39615EBD] (AR v2)
Track 15 accurately ripped (confidence 11) [A621AB42] (AR v2)
Track 16 accurately ripped (confidence 12) [C1FE8974] (AR v2)
Track 17 accurately ripped (confidence 11) [FB806DFA] (AR v2)
Track 18 accurately ripped (confidence 13) [9ECB99C7] (AR v2)
Track 19 accurately ripped (confidence 12) [117766CE] (AR v2)
Track 20 accurately ripped (confidence 13) [6F34519B] (AR v2)
Track 21 accurately ripped (confidence 12) [2C1CFA98] (AR v2)
Track 22 accurately ripped (confidence 13) [7766952F] (AR v2)
Track 23 accurately ripped (confidence 11) [A75038F2] (AR v2)
Track 24 accurately ripped (confidence 13) [6A29CF98] (AR v2)
Track 25 accurately ripped (confidence 12) [DCA26480] (AR v2)
Track 26 accurately ripped (confidence 12) [4C8AFA91] (AR v2)
Track 27 accurately ripped (confidence 11) [95DFED14] (AR v2)
Track 28 accurately ripped (confidence 11) [D1A988A3] (AR v2)
Track 29 accurately ripped (confidence 12) [474C0610] (AR v2)
Track 30 accurately ripped (confidence 11) [E97980A4] (AR v2)
Track 31 accurately ripped (confidence 12) [381FD844] (AR v2)
Track 32 accurately ripped (confidence 12) [2EA0A82E] (AR v2)
Track 33 accurately ripped (confidence 11) [3B60BB3C] (AR v2)
Track 34 accurately ripped (confidence 11) [151AF892] (AR v2)
Track 35 accurately ripped (confidence 12) [C531C292] (AR v2)
Track 36 accurately ripped (confidence 12) [B492FB8A] (AR v2)
Track 37 accurately ripped (confidence 11) [EAB706BA] (AR v2)
Track 38 accurately ripped (confidence 11) [A5738464] (AR v2)
Track 39 accurately ripped (confidence 11) [E26FEE03] (AR v2)
Track 40 accurately ripped (confidence 11) [53522246] (AR v2)
Track 41 accurately ripped (confidence 11) [7CC03878] (AR v2)
Track 42 accurately ripped (confidence 12) [D7C507B3] (AR v2)
Track 43 accurately ripped (confidence 12) [3978C8B6] (AR v2)
Track 44 accurately ripped (confidence 12) [E2DF796E] (AR v2)
Track 45 accurately ripped (confidence 12) [7C5069CC] (AR v2)

All tracks accurately ripped

End of status report

–– CUETools DB Plugin V2.1.6

[CTDB TOCID: hlLDRQPpEOfWmBcsONAV0vK6Q90-] found
Submit result: hlLDRQPpEOfWmBcsONAV0vK6Q90- has been confirmed
Track | CTDB Status
1 | (37/37) Accurately ripped
2 | (37/37) Accurately ripped
3 | (37/37) Accurately ripped
4 | (37/37) Accurately ripped
5 | (37/37) Accurately ripped
6 | (37/37) Accurately ripped
7 | (37/37) Accurately ripped
8 | (37/37) Accurately ripped
9 | (37/37) Accurately ripped
10 | (37/37) Accurately ripped
11 | (37/37) Accurately ripped
12 | (37/37) Accurately ripped
13 | (37/37) Accurately ripped
14 | (37/37) Accurately ripped
15 | (37/37) Accurately ripped
16 | (37/37) Accurately ripped
17 | (37/37) Accurately ripped
18 | (37/37) Accurately ripped
19 | (37/37) Accurately ripped
20 | (37/37) Accurately ripped
21 | (37/37) Accurately ripped
22 | (37/37) Accurately ripped
23 | (37/37) Accurately ripped
24 | (37/37) Accurately ripped
25 | (37/37) Accurately ripped
26 | (37/37) Accurately ripped
27 | (37/37) Accurately ripped
28 | (37/37) Accurately ripped
29 | (37/37) Accurately ripped
30 | (37/37) Accurately ripped
31 | (37/37) Accurately ripped
32 | (37/37) Accurately ripped
33 | (37/37) Accurately ripped
34 | (37/37) Accurately ripped
35 | (37/37) Accurately ripped
36 | (37/37) Accurately ripped
37 | (37/37) Accurately ripped
38 | (37/37) Accurately ripped
39 | (37/37) Accurately ripped
40 | (37/37) Accurately ripped
41 | (37/37) Accurately ripped
42 | (37/37) Accurately ripped
43 | (37/37) Accurately ripped
44 | (37/37) Accurately ripped
45 | (37/37) Accurately ripped


==== Log checksum 3FF4A85818617BFD764011C28CE12C8071D1353F0EED118092E0C85CC3AB8705 ====

Peter Neumann, Kolner Kammerchor, Collegium Cartusianum - Handel: Brockes-Passion, HWV 48 (2010)