Subcategories
Tags
Language
Tags

Peter Storr - Callanetics (2006)

Posted By: gribovar
Peter Storr - Callanetics (2006)

Peter Storr - Callanetics (2006)
EAC Rip | FLAC (tracks+.cue+log) - 337 MB | MP3 CBR 320 kbps (LAME 3.93) - 157 MB | Covers - 116 MB
Genre: New Age | RAR 3% Rec. | Label: DA Music (CD 873065-2)

Callanetics is a series of unique, mild, isotonic exercises involving constant repetitive contractions using a very small range of motion. The exercised are extremely beneficial to shape, tighten and tone all the large muscle groups producing visible results. Callanetics will let you experience a new awereness of muscle function and control. However Callanetics is not just about improving your body shape, toning and losing weight, it is also about positive thinking and feeling good. The music for Callatetics must be gentle and spiritually uplifting, and the soft melodic orchestrations in this album have been carefully designed to do just that. A wonderful ambient mixture of inspring melodies and gentle arrangements, featuring strings, bells, chimes, piano, guitar and flute, that will complement every Callatetics and/or Pilates, Tai Chi session.
Tracklist:
01. Den Geist beruhigen / Calming the mind
02. Aufsteigen / Rise
03. Reine Körperkontrolle / Pure body control
04. Gischt / Spindrift
05. Licht atmen / Breathing light
06. Himmlisch / Heavenly

Total time: 01:06:48

Exact Audio Copy V1.3 from 2. September 2016

EAC extraction logfile from 5. July 2018, 13:48

Peter Storr / Callanetics

Used drive : ASUS DRW-24F1ST a Adapter: 1 ID: 0

Read mode : Secure
Utilize accurate stream : Yes
Defeat audio cache : Yes
Make use of C2 pointers : No

Read offset correction : 6
Overread into Lead-In and Lead-Out : No
Fill up missing offset samples with silence : Yes
Delete leading and trailing silent blocks : No
Null samples used in CRC calculations : Yes
Used interface : Native Win32 interface for Win NT & 2000
Gap handling : Appended to previous track

Used output format : User Defined Encoder
Selected bitrate : 896 kBit/s
Quality : High
Add ID3 tag : No
Command line compressor : C:\Program Files (x86)\Exact Audio Copy\Flac\flac.exe
Additional command line options : -8 -V -T "COMMENT=ripped by DrStandBy special for new-team.org" -T "ARTIST=%artist%" -T "TITLE=%title%" -T "ALBUM=%albumtitle%" -T "DATE=%year%" -T "TRACKNUMBER=%tracknr%" -T "GENRE=%genre%" %source%


TOC of the extracted CD

Track | Start | Length | Start sector | End sector
––––––––––––––––––––––––––––-
1 | 0:00.00 | 10:27.28 | 0 | 47052
2 | 10:27.28 | 7:02.72 | 47053 | 78774
3 | 17:30.25 | 13:41.65 | 78775 | 140414
4 | 31:12.15 | 12:32.27 | 140415 | 196841
5 | 43:44.42 | 12:59.72 | 196842 | 255338
6 | 56:44.39 | 10:03.69 | 255339 | 300632


Track 1

Filename I:\2006 - Peter Storr - Callanetics (CD 873065-2)\01. Peter Storr - Den Geist beruhigen , Calming the mind.wav

Pre-gap length 0:00:02.00

Peak level 66.6 %
Extraction speed 2.2 X
Track quality 100.0 %
Test CRC 43AFBAE9
Copy CRC 43AFBAE9
Cannot be verified as accurate (confidence 1) [78FB2218], AccurateRip returned [02601548] (AR v2)
Copy OK

Track 2

Filename I:\2006 - Peter Storr - Callanetics (CD 873065-2)\02. Peter Storr - Aufsteigen , Rise.wav

Pre-gap length 0:00:02.00

Peak level 61.4 %
Extraction speed 2.2 X
Track quality 99.9 %
Test CRC 332280B9
Copy CRC 332280B9
Cannot be verified as accurate (confidence 1) [CC32418C], AccurateRip returned [9D177254] (AR v2)
Copy OK

Track 3

Filename I:\2006 - Peter Storr - Callanetics (CD 873065-2)\03. Peter Storr - Reine Körperkontrolle , Pure body control.wav

Pre-gap length 0:00:02.00

Peak level 68.4 %
Extraction speed 3.0 X
Track quality 100.0 %
Test CRC 11660EFF
Copy CRC 11660EFF
Cannot be verified as accurate (confidence 1) [C846E4A8], AccurateRip returned [52AC5378] (AR v2)
Copy OK

Track 4

Filename I:\2006 - Peter Storr - Callanetics (CD 873065-2)\04. Peter Storr - Gischt , Spindrift.wav

Pre-gap length 0:00:02.00

Peak level 53.6 %
Extraction speed 3.5 X
Track quality 100.0 %
Test CRC F4B86EAB
Copy CRC F4B86EAB
Cannot be verified as accurate (confidence 1) [3E9DBBA2], AccurateRip returned [B27F44B9] (AR v2)
Copy OK

Track 5

Filename I:\2006 - Peter Storr - Callanetics (CD 873065-2)\05. Peter Storr - Licht atmen , Breathing light.wav

Pre-gap length 0:00:02.00

Peak level 66.8 %
Extraction speed 3.8 X
Track quality 100.0 %
Test CRC 378AA3E7
Copy CRC 378AA3E7
Cannot be verified as accurate (confidence 1) [28F35A55], AccurateRip returned [9F136245] (AR v2)
Copy OK

Track 6

Filename I:\2006 - Peter Storr - Callanetics (CD 873065-2)\06. Peter Storr - Himmlisch , Heavenly.wav

Pre-gap length 0:00:02.00

Peak level 68.7 %
Extraction speed 3.5 X
Track quality 99.9 %
Test CRC B77F0B61
Copy CRC B77F0B61
Cannot be verified as accurate (confidence 1) [F2945781], AccurateRip returned [56CBCC4E] (AR v2)
Copy OK


No tracks could be verified as accurate
You may have a different pressing from the one(s) in the database

No errors occurred

End of status report

–– CUETools DB Plugin V2.1.6

[CTDB TOCID: SjtrIQQXsKgmAf8y_FnDN3yAnZs-] found
Submit result: SjtrIQQXsKgmAf8y_FnDN3yAnZs- has been confirmed
Track | CTDB Status
1 | (1/1) Accurately ripped
2 | (1/1) Accurately ripped
3 | (1/1) Accurately ripped
4 | (1/1) Accurately ripped
5 | (1/1) Accurately ripped
6 | (1/1) Accurately ripped


==== Log checksum 453E21BDD951F20C4D6AE1EAE0989BEC04FCBC1BA796B9952739877B600A5B12 ====

[CUETools log; Date: 13.07.2018 10:10:59; Version: 2.1.4]
[CTDB TOCID: SjtrIQQXsKgmAf8y_FnDN3yAnZs-] found.
Track | CTDB Status
1 | (2/2) Accurately ripped
2 | (2/2) Accurately ripped
3 | (2/2) Accurately ripped
4 | (2/2) Accurately ripped
5 | (2/2) Accurately ripped
6 | (2/2) Accurately ripped
[AccurateRip ID: 000f8cb1-00541e3f-4c0fa806] found.
Track [ CRC | V2 ] Status
01 [083986c8|78fb2218] (0+0/1) No match
02 [f8275e7c|cc32418c] (0+0/1) No match
03 [8b739fb0|c846e4a8] (0+0/1) No match
04 [dc2f4631|3e9dbba2] (0+0/1) No match
05 [fc2784fd|28f35a55] (0+0/1) No match
06 [c7cc61d3|f2945781] (0+0/1) No match
Offsetted by -828:
01 [02601548] (1/1) Accurately ripped
02 [9d177254] (1/1) Accurately ripped
03 [52ac5378] (1/1) Accurately ripped
04 [b27f44b9] (1/1) Accurately ripped
05 [9f136245] (1/1) Accurately ripped
06 [56cbcc4e] (1/1) Accurately ripped

Track Peak [ CRC32 ] [W/O NULL] [ LOG ]
– 68,7 [744AA60A] [81420CC0]
01 66,6 [43AFBAE9] [5882F593] CRC32
02 61,4 [332280B9] [25317A32] CRC32
03 68,4 [11660EFF] [B98ACC11] CRC32
04 53,6 [F4B86EAB] [756AB4D6] CRC32
05 66,8 [378AA3E7] [BC11B427] CRC32
06 68,7 [B77F0B61] [10C799DB] CRC32

Thanks to DrStandBy