Tags
Language
Tags
February 2023
Su Mo Tu We Th Fr Sa
29 30 31 1 2 3 4
5 6 7 8 9 10 11
12 13 14 15 16 17 18
19 20 21 22 23 24 25
26 27 28 1 2 3 4

Phil Guy - Breaking Out On Top (1995)

Posted By: popsakov
Phil Guy - Breaking Out On Top (1995)

Phil Guy - Breaking Out On Top (1995)
EAC Rip | FLAC (Tracks) + Cue + m3u + Log ~ 494 Mb | MP3 CBR320 ~ 199 Mb
Full Scans | 01:11:32 | RAR 5% Recovery
Modern Electric Blues, Chicago Blues | JSP Records #JSPCD 260 | Unofficial Release

Phil Guy didn't eclipse his older brother Buddy's status as a blues superstar, and in reality, Phil's funky brand of blues was not captured correctly for posterity. But he remained an active attraction on the Chicago circuit, following in his sibling's footsteps and patiently waiting for his own star to rise up until his death. Like his sibling, Phil Guy played with harpist Raful Neal (for a decade) before leaving the Baton Rouge scene for Chicago in 1969. There he played with his brother's high-energy organization as well as behind harpist Junior Wells (Phil handled guitar duties with Sammy Lawhorn on Wells' underrated mid-'70s Delmark album On Tap). Phil Guy cut albums of his own for JSP; they were generally lacking in originality if not spirit. Phil Guy lost his battle with liver and kidney cancer in August of 2008.

~ Bill Dahl, All Music

***************

Track List:

01. Gambler [5:07]
02. Quicksand [3:58]
03. Texas Flood [7:02]
04. Tina Nu [7:13]
05. Where Can I Go [6:32]
06. Professor's Boogie [7:02]
07. Good Thing [6:44]
08. Stone Crazy [5:24]
09. Breaking Out On Top [7:23]
10. Blues With A Feeling [6:20]
11. Winehead [3:48]
12. Garbage Man Blues [4:33]

Personnel:
Phil Guy - Guitar, Vocals
Bass – Fred Barnes (tracks: 4 to 8), Kevin Hill (tracks: 1, 2, 3), J. W. Williams (tracks:9 - 12)
Drums – Michael Scott (tracks: 4 to 8), Tim Franks (tracks: 1, 2, 3), Ray Allison (tracks:9 - 12)
Guest [Special Guest], Guitar – Buddy Guy (tracks: 9, 10)
Guest [Special Guest], Piano, Keyboards – Professor Eddie Lusk (tracks: 4 to 12)
Guitar – Anthony Palmer (tracks: 4 to 8), Norman Beaker (tracks: 1, 2, 3), Doug Williams (tracks:9 - 12)
Piano, Keyboards – Dave Bainbridge (tracks: 1, 2, 3)
Saxophone – Lenn (tracks: 1, 2, 3)

Exact Audio Copy V1.1 from 23. June 2015

EAC extraction logfile from 18. June 2019, 16:07

Phil Guy / Breaking Out On Top

Used drive : Optiarc DVD RW AD-7283S Adapter: 1 ID: 0

Read mode : Secure
Utilize accurate stream : Yes
Defeat audio cache : Yes
Make use of C2 pointers : No

Read offset correction : 48
Overread into Lead-In and Lead-Out : No
Fill up missing offset samples with silence : Yes
Delete leading and trailing silent blocks : No
Null samples used in CRC calculations : Yes
Used interface : Native Win32 interface for Win NT & 2000
Gap handling : Appended to previous track

Used output format : User Defined Encoder
Selected bitrate : 128 kBit/s
Quality : High
Add ID3 tag : No
Command line compressor : C:\Program Files (x86)\Exact Audio Copy\Flac\flac.exe
Additional command line options : -V -8 -T "Genre=%genre%" -T "Artist=%artist%" -T "Title=%title%" -T "Album=%albumtitle%" -T "Date=%year%" -T "Tracknumber=%tracknr%" -T "Comment=%comment%" %source%


TOC of the extracted CD

Track | Start | Length | Start sector | End sector
––––––––––––––––––––––––––––-
1 | 0:00.00 | 5:09.22 | 0 | 23196
2 | 5:09.22 | 4:00.58 | 23197 | 41254
3 | 9:10.05 | 7:04.50 | 41255 | 73104
4 | 16:14.55 | 7:15.67 | 73105 | 105796
5 | 23:30.47 | 6:35.05 | 105797 | 135426
6 | 30:05.52 | 7:04.53 | 135427 | 167279
7 | 37:10.30 | 6:46.67 | 167280 | 197796
8 | 43:57.22 | 5:26.45 | 197797 | 222291
9 | 49:23.67 | 7:25.25 | 222292 | 255691
10 | 56:49.17 | 6:21.10 | 255692 | 284276
11 | 63:10.27 | 3:49.40 | 284277 | 301491
12 | 66:59.67 | 4:32.70 | 301492 | 321961


Track 1

Filename L:\alexbras\1995 Phil Guy - Breaking Out On Top (JSPCD 260)\01 Gambler.wav

Pre-gap length 0:00:02.00

Peak level 89.7 %
Extraction speed 2.5 X
Track quality 100.0 %
Test CRC 8F9566FD
Copy CRC 8F9566FD
Accurately ripped (confidence 1) [A69CE5AD] (AR v1)
Copy OK

Track 2

Filename L:\alexbras\1995 Phil Guy - Breaking Out On Top (JSPCD 260)\02 Quicksand.wav

Pre-gap length 0:00:02.70

Peak level 94.2 %
Extraction speed 2.8 X
Track quality 100.0 %
Test CRC 39B5EF41
Copy CRC 39B5EF41
Accurately ripped (confidence 1) [50357AAC] (AR v1)
Copy OK

Track 3

Filename L:\alexbras\1995 Phil Guy - Breaking Out On Top (JSPCD 260)\03 Texas Flood.wav

Pre-gap length 0:00:02.73

Peak level 93.4 %
Extraction speed 3.2 X
Track quality 100.0 %
Test CRC 8D624754
Copy CRC 8D624754
Accurately ripped (confidence 1) [83F50562] (AR v1)
Copy OK

Track 4

Filename L:\alexbras\1995 Phil Guy - Breaking Out On Top (JSPCD 260)\04 Tina Nu.wav

Pre-gap length 0:00:02.63

Peak level 88.1 %
Extraction speed 3.4 X
Track quality 99.9 %
Test CRC BB32E62E
Copy CRC BB32E62E
Accurately ripped (confidence 1) [6CFB6437] (AR v1)
Copy OK

Track 5

Filename L:\alexbras\1995 Phil Guy - Breaking Out On Top (JSPCD 260)\05 Where Can I Go.wav

Pre-gap length 0:00:03.15

Peak level 87.0 %
Extraction speed 3.6 X
Track quality 99.9 %
Test CRC EE3F1C5F
Copy CRC EE3F1C5F
Accurately ripped (confidence 1) [CAC85700] (AR v1)
Copy OK

Track 6

Filename L:\alexbras\1995 Phil Guy - Breaking Out On Top (JSPCD 260)\06 Professor's Boogie.wav

Pre-gap length 0:00:03.05

Peak level 84.1 %
Extraction speed 4.2 X
Track quality 100.0 %
Test CRC 78F6D37E
Copy CRC 78F6D37E
Accurately ripped (confidence 1) [21A0747A] (AR v1)
Copy OK

Track 7

Filename L:\alexbras\1995 Phil Guy - Breaking Out On Top (JSPCD 260)\07 Good Thing.wav

Pre-gap length 0:00:03.03

Peak level 89.1 %
Extraction speed 4.5 X
Track quality 100.0 %
Test CRC 34842282
Copy CRC 34842282
Accurately ripped (confidence 1) [F52584A4] (AR v1)
Copy OK

Track 8

Filename L:\alexbras\1995 Phil Guy - Breaking Out On Top (JSPCD 260)\08 Stone Crazy.wav

Pre-gap length 0:00:02.67

Peak level 89.1 %
Extraction speed 4.6 X
Track quality 100.0 %
Test CRC 21515E6A
Copy CRC 21515E6A
Accurately ripped (confidence 1) [FD59D4B8] (AR v1)
Copy OK

Track 9

Filename L:\alexbras\1995 Phil Guy - Breaking Out On Top (JSPCD 260)\09 Breaking Out On Top.wav

Pre-gap length 0:00:03.07

Peak level 87.3 %
Extraction speed 5.0 X
Track quality 100.0 %
Test CRC 693A2B56
Copy CRC 693A2B56
Accurately ripped (confidence 1) [E17B8D93] (AR v1)
Copy OK

Track 10

Filename L:\alexbras\1995 Phil Guy - Breaking Out On Top (JSPCD 260)\10 Blues With A Feeling.wav

Pre-gap length 0:00:02.70

Peak level 85.1 %
Extraction speed 4.7 X
Track quality 99.9 %
Test CRC 9086C6E5
Copy CRC 9086C6E5
Accurately ripped (confidence 1) [0A596A03] (AR v1)
Copy OK

Track 11

Filename L:\alexbras\1995 Phil Guy - Breaking Out On Top (JSPCD 260)\11 Winehead.wav

Pre-gap length 0:00:01.70

Peak level 94.0 %
Extraction speed 5.0 X
Track quality 100.0 %
Test CRC F9F4C3DF
Copy CRC F9F4C3DF
Accurately ripped (confidence 1) [46A01A23] (AR v1)
Copy OK

Track 12

Filename L:\alexbras\1995 Phil Guy - Breaking Out On Top (JSPCD 260)\12 Garbage Man Blues.wav

Pre-gap length 0:00:01.60

Peak level 82.2 %
Extraction speed 5.2 X
Track quality 100.0 %
Test CRC 571C131C
Copy CRC 571C131C
Accurately ripped (confidence 1) [D2983D34] (AR v1)
Copy OK


All tracks accurately ripped

No errors occurred

End of status report

==== Log checksum C3D146900DD27D7D8A50B262F469165D0CF68C2291AD10B0FB4E658193FAB1F1 ====

Phil Guy - Breaking Out On Top (1995)


All thanks go to alex1248

>>> My Blog <<<

DOWNLOAD: