Subcategories
Tags
Language
Tags

Philip Glass - A Descent into the Maelstrom (2002)

Posted By: Designol
Philip Glass - A Descent into the Maelstrom (2002)

Philip Glass - A Descent into the Maelström (2002)
The Philip Glass Ensemble; Michael Riesman, musical director

EAC | FLAC | Tracks (Cue&Log) ~ 383 Mb | Mp3 (CBR320) ~ 152 Mb | Scans included
Minimalism, Modern Ballet | Label: Orange Mountain Music | # OMM 0005 | 01:05:09

In continuing with their ongoing program of releasing vital recordings from the archive of Philip Glass recorded material, Orange Mountain Music is pleased to release "A Descent into the Maelström". In 1986 Mr. Glass was commissioned to create and bring a piece to the Adelaide Festival of Arts in Adelaide, Australia. He chose to write a piece based on the Edgar Allan Poe short story "A Descent into the Maelström" and invited collaborators dancer/choreographer Molissa Fenley, set designer Eamon D’Arcy and theatre director Mathew McGuire to participate. They transformed Edgar Allan Poe's vertiginous short story of being swept into a huge and terrible whirlpool by a raging hurricane that "the oldest seaman in Norway never experienced" into a Musical/Dance/Theatre extravganza.

This compelling, propulsive piece of music premiered in March, 1986 at the Adelaide Festival of Arts and was only performed by the Philip Glass Ensemble during the week of the festival in Australia. Consequently, it has had very little exposure to Philip Glass' audience. In the spring of 1986 after the Ensemble returned to New York it was discovered that the 24 track live recordings that were made of the performances were distorted, noisy and mostly unusable. At that point PGE musical director, Michael Riesman, Kurt Munkacsi and the Ensemble members set about replacing their parts on the recording. The newly recorded tracks had to be kept in sync with the live recording because the resulting mix would be used for a television broadcast of the performances. The finished recording is a studio/live hybrid. It is very similar to the mix that was made in 1986 for the video, but we've remixed the material taking advantage of the digital recording technology that is available today! .

This little known recording of this powerful piece of classic Glass music was made when the Philip Glass Ensemble was at one of its peaks. It was also done in possibly one of the best settings for Philip Glass and his musicians– musical theatre.

Philip Glass - A Descent into the Maelstrom (2002)



Philip Glass - A Descent into the Maelstrom (2002)



The Philip Glass Ensemble:
Philip Glass, keyboards
Michael Riesman, musical director and keyboards
Martin Goldray, keyboards
Dora Orbenstein, vocals
Jon Gibson, saxophones and flute
Jack Kripl, flute and bass clarniet
Richard Peck, saxophones
Kurt Munkasci, bouse mixer
Dan Dryden, monitor mixer

Tracklist:

01. Vertigo (2:10)
02. He is Coerced to Look (2:08)
03. Engagement (8:40)
04. The Naming (0:54)
05. Tranquility (6:05)
06. The Beggin (1:08)
07. The Strategem (3:48)
08. On My Watch and Caught (2:10)
09. The Hurricane and Recognition of Death (2:56)
10. The Entrance of the Moon (3:03)
11. The Sighting (2:42)
12. They Enter the Stream (1:16)
13. Abandonment (4:16)
14. The Brother Becomes a Maniac (2:30)
15. The First Mad Rush (2:15)
16. Second Perception of Light Moon. Mist. and Rainbow (6:19)
17. The Maelstrom (8:44)
18. Hour of the Slack and Escape (4:05)


Exact Audio Copy V0.99 prebeta 5 from 4. May 2009

EAC extraction logfile from 6. December 2010, 12:09

Philip Glass / A Descent into the Maelstrom

Used drive : Optiarc DVD RW AD-7241S Adapter: 0 ID: 1

Read mode : Secure
Utilize accurate stream : Yes
Defeat audio cache : Yes
Make use of C2 pointers : No

Read offset correction : 48
Overread into Lead-In and Lead-Out : No
Fill up missing offset samples with silence : Yes
Delete leading and trailing silent blocks : No
Null samples used in CRC calculations : Yes
Used interface : Native Win32 interface for Win NT & 2000
Gap handling : Appended to previous track

Used output format : User Defined Encoder
Selected bitrate : 1024 kBit/s
Quality : High
Add ID3 tag : No
Command line compressor : C:\Program Files (x86)\Exact Audio Copy\Flac\flac.exe
Additional command line options : -V -8 -T "artist=%a" -T "title=%t" -T "album=%g" -T "date=%y" -T "tracknumber=%n" -T "genre=%m" %s


TOC of the extracted CD

Track | Start | Length | Start sector | End sector
––––––––––––––––––––––––––––-
1 | 0:00.00 | 2:09.65 | 0 | 9739
2 | 2:09.65 | 2:08.14 | 9740 | 19353
3 | 4:18.04 | 8:39.72 | 19354 | 58350
4 | 12:58.01 | 0:54.30 | 58351 | 62430
5 | 13:52.31 | 6:04.44 | 62431 | 89774
6 | 19:57.00 | 1:08.25 | 89775 | 94899
7 | 21:05.25 | 3:47.40 | 94900 | 111964
8 | 24:52.65 | 2:10.32 | 111965 | 121746
9 | 27:03.22 | 2:55.73 | 121747 | 134944
10 | 29:59.20 | 3:03.36 | 134945 | 148705
11 | 33:02.56 | 2:42.22 | 148706 | 160877
12 | 35:45.03 | 1:15.64 | 160878 | 166566
13 | 37:00.67 | 4:15.40 | 166567 | 185731
14 | 41:16.32 | 2:30.14 | 185732 | 196995
15 | 43:46.46 | 2:14.51 | 196996 | 207096
16 | 46:01.22 | 6:19.08 | 207097 | 235529
17 | 52:20.30 | 8:44.08 | 235530 | 274837
18 | 61:04.38 | 4:04.44 | 274838 | 293181


Track 1

Filename F:\EACrips\Philip Glass\A Descent into the Maelstrom (FLAC-EAC)\Philip Glass-A Descent into the Maelstrom-01-Vertigo.wav

Pre-gap length 0:00:02.00

Peak level 63.3 %
Track quality 100.0 %
Test CRC 71AD17D4
Copy CRC 71AD17D4
Accurately ripped (confidence 6) [9BD2B57F]
Copy OK

Track 2

Filename F:\EACrips\Philip Glass\A Descent into the Maelstrom (FLAC-EAC)\Philip Glass-A Descent into the Maelstrom-02-He is Coerced to Look.wav

Peak level 34.1 %
Track quality 99.9 %
Test CRC BBD927CD
Copy CRC BBD927CD
Accurately ripped (confidence 6) [7C391833]
Copy OK

Track 3

Filename F:\EACrips\Philip Glass\A Descent into the Maelstrom (FLAC-EAC)\Philip Glass-A Descent into the Maelstrom-03-Engagement.wav

Peak level 77.7 %
Track quality 100.0 %
Test CRC 4CA884BB
Copy CRC 4CA884BB
Accurately ripped (confidence 6) [8E9C0ADB]
Copy OK

Track 4

Filename F:\EACrips\Philip Glass\A Descent into the Maelstrom (FLAC-EAC)\Philip Glass-A Descent into the Maelstrom-04-The Naming.wav

Peak level 31.4 %
Track quality 100.0 %
Test CRC CBC24B41
Copy CRC CBC24B41
Accurately ripped (confidence 6) [78BFD5E1]
Copy OK

Track 5

Filename F:\EACrips\Philip Glass\A Descent into the Maelstrom (FLAC-EAC)\Philip Glass-A Descent into the Maelstrom-05-Tranquility.wav

Peak level 42.9 %
Track quality 99.9 %
Test CRC DF10B9B8
Copy CRC DF10B9B8
Accurately ripped (confidence 6) [A6F0E34E]
Copy OK

Track 6

Filename F:\EACrips\Philip Glass\A Descent into the Maelstrom (FLAC-EAC)\Philip Glass-A Descent into the Maelstrom-06-The Beggin.wav

Peak level 28.9 %
Track quality 100.0 %
Test CRC 5E1258D7
Copy CRC 5E1258D7
Accurately ripped (confidence 6) [828971C4]
Copy OK

Track 7

Filename F:\EACrips\Philip Glass\A Descent into the Maelstrom (FLAC-EAC)\Philip Glass-A Descent into the Maelstrom-07-The Strategem.wav

Peak level 54.5 %
Track quality 100.0 %
Test CRC 53A488A8
Copy CRC 53A488A8
Accurately ripped (confidence 6) [7BB36F21]
Copy OK

Track 8

Filename F:\EACrips\Philip Glass\A Descent into the Maelstrom (FLAC-EAC)\Philip Glass-A Descent into the Maelstrom-08-On My Watch and Caught.wav

Peak level 56.7 %
Track quality 100.0 %
Test CRC C21CF2B3
Copy CRC C21CF2B3
Accurately ripped (confidence 6) [0BC896F4]
Copy OK

Track 9

Filename F:\EACrips\Philip Glass\A Descent into the Maelstrom (FLAC-EAC)\Philip Glass-A Descent into the Maelstrom-09-The Hurricane and Recognition of Death.wav

Peak level 77.9 %
Track quality 99.9 %
Test CRC B9C16839
Copy CRC B9C16839
Accurately ripped (confidence 6) [DEB2B443]
Copy OK

Track 10

Filename F:\EACrips\Philip Glass\A Descent into the Maelstrom (FLAC-EAC)\Philip Glass-A Descent into the Maelstrom-10-The Entrance of the Moon.wav

Peak level 79.9 %
Track quality 100.0 %
Test CRC 4A6F501A
Copy CRC 4A6F501A
Accurately ripped (confidence 6) [728A7A93]
Copy OK

Track 11

Filename F:\EACrips\Philip Glass\A Descent into the Maelstrom (FLAC-EAC)\Philip Glass-A Descent into the Maelstrom-11-The Sighting.wav

Peak level 65.4 %
Track quality 100.0 %
Test CRC 07860684
Copy CRC 07860684
Accurately ripped (confidence 6) [9D669DB4]
Copy OK

Track 12

Filename F:\EACrips\Philip Glass\A Descent into the Maelstrom (FLAC-EAC)\Philip Glass-A Descent into the Maelstrom-12-They Enter the Stream.wav

Peak level 64.6 %
Track quality 100.0 %
Test CRC F7C8A49A
Copy CRC F7C8A49A
Accurately ripped (confidence 6) [3BA77ED0]
Copy OK

Track 13

Filename F:\EACrips\Philip Glass\A Descent into the Maelstrom (FLAC-EAC)\Philip Glass-A Descent into the Maelstrom-13-Abandonment.wav

Peak level 50.5 %
Track quality 100.0 %
Test CRC E013B332
Copy CRC E013B332
Accurately ripped (confidence 6) [88578AFD]
Copy OK

Track 14

Filename F:\EACrips\Philip Glass\A Descent into the Maelstrom (FLAC-EAC)\Philip Glass-A Descent into the Maelstrom-14-The Brother Becomes a Maniac.wav

Peak level 69.6 %
Track quality 100.0 %
Test CRC B064E2BC
Copy CRC B064E2BC
Accurately ripped (confidence 6) [5D93008F]
Copy OK

Track 15

Filename F:\EACrips\Philip Glass\A Descent into the Maelstrom (FLAC-EAC)\Philip Glass-A Descent into the Maelstrom-15-The First Mad Rush.wav

Peak level 76.8 %
Track quality 100.0 %
Test CRC 618B2698
Copy CRC 618B2698
Accurately ripped (confidence 6) [F7DD0055]
Copy OK

Track 16

Filename F:\EACrips\Philip Glass\A Descent into the Maelstrom (FLAC-EAC)\Philip Glass-A Descent into the Maelstrom-16-Second Perception of Light Moon. Mist. and Rainbow.wav

Peak level 67.1 %
Track quality 100.0 %
Test CRC A82D8D3A
Copy CRC A82D8D3A
Accurately ripped (confidence 6) [04CB102E]
Copy OK

Track 17

Filename F:\EACrips\Philip Glass\A Descent into the Maelstrom (FLAC-EAC)\Philip Glass-A Descent into the Maelstrom-17-The Maelstrom.wav

Peak level 86.1 %
Track quality 100.0 %
Test CRC 558B21A4
Copy CRC 558B21A4
Accurately ripped (confidence 6) [B16FEE33]
Copy OK

Track 18

Filename F:\EACrips\Philip Glass\A Descent into the Maelstrom (FLAC-EAC)\Philip Glass-A Descent into the Maelstrom-18-Hour of the Slack and Escape.wav

Peak level 52.3 %
Track quality 100.0 %
Test CRC 94BF89CD
Copy CRC 94BF89CD
Accurately ripped (confidence 6) [5C4861EF]
Copy OK


All tracks accurately ripped

No errors occurred

End of status report

[CUETools log; Date: 31.01.2017 19:42:49; Version: 2.1.4]
[CTDB TOCID: .PlVgDDwFpdhmtsSMmQPLCzTOUs-] found.
Track | CTDB Status
1 | (14/14) Accurately ripped
2 | (14/14) Accurately ripped
3 | (14/14) Accurately ripped
4 | (14/14) Accurately ripped
5 | (14/14) Accurately ripped
6 | (14/14) Accurately ripped
7 | (14/14) Accurately ripped
8 | (14/14) Accurately ripped
9 | (14/14) Accurately ripped
10 | (14/14) Accurately ripped
11 | (14/14) Accurately ripped
12 | (14/14) Accurately ripped
13 | (14/14) Accurately ripped
14 | (14/14) Accurately ripped
15 | (14/14) Accurately ripped
16 | (14/14) Accurately ripped
17 | (14/14) Accurately ripped
18 | (14/14) Accurately ripped
[AccurateRip ID: 002741be-020b350e-000f4512] found.
Track [ CRC | V2 ] Status
01 [9bd2b57f|f53ab3b4] (07+05/12) Accurately ripped
02 [7c391833|4f908dce] (07+05/12) Accurately ripped
03 [8e9c0adb|f5917b6b] (07+05/12) Accurately ripped
04 [78bfd5e1|c477a5a5] (07+05/12) Accurately ripped
05 [a6f0e34e|11c6a046] (07+05/12) Accurately ripped
06 [828971c4|41dd5709] (07+05/12) Accurately ripped
07 [7bb36f21|4919f3db] (07+05/12) Accurately ripped
08 [0bc896f4|e8af0dc3] (07+05/12) Accurately ripped
09 [deb2b443|9128a4e8] (07+05/12) Accurately ripped
10 [728a7a93|f167c4d6] (07+05/12) Accurately ripped
11 [9d669db4|f767d47f] (07+05/12) Accurately ripped
12 [3ba77ed0|679fbf11] (07+05/12) Accurately ripped
13 [88578afd|8ef8e7a6] (07+05/12) Accurately ripped
14 [5d93008f|0c33e61e] (07+05/12) Accurately ripped
15 [f7dd0055|c3de45ac] (07+05/12) Accurately ripped
16 [04cb102e|afc1cac3] (07+05/12) Accurately ripped
17 [b16fee33|213605c2] (07+05/12) Accurately ripped
18 [5c4861ef|b512f85b] (07+05/12) Accurately ripped

Track Peak [ CRC32 ] [W/O NULL] [ LOG ]
– 86,1 [E3759B05] [C8A25E1B]
01 63,3 [71AD17D4] [6F2C43F1] CRC32
02 34,1 [BBD927CD] [4F021B8E] CRC32
03 77,7 [4CA884BB] [825A0CCC] CRC32
04 31,4 [CBC24B41] [D42029A5] CRC32
05 42,9 [DF10B9B8] [772097E4] CRC32
06 28,9 [5E1258D7] [D06C419C] CRC32
07 54,5 [53A488A8] [F076A99C] CRC32
08 56,7 [C21CF2B3] [10B265B0] CRC32
09 77,9 [B9C16839] [63F23D14] CRC32
10 79,9 [4A6F501A] [A275A721] CRC32
11 65,4 [07860684] [69F944A8] CRC32
12 64,6 [F7C8A49A] [06B4F3C9] CRC32
13 50,5 [E013B332] [9E15DCB3] CRC32
14 69,6 [B064E2BC] [6117CB0F] CRC32
15 76,8 [618B2698] [EFA61721] CRC32
16 67,1 [A82D8D3A] [3D07EFE3] CRC32
17 86,1 [558B21A4] [7A71BCCD] CRC32
18 52,3 [94BF89CD] [E70342B2] CRC32

foobar2000 1.2 / Dynamic Range Meter 1.1.1
log date: 2017-01-31 19:56:17

––––––––––––––––––––––––––––––––––––––––
Analyzed: Philip Glass / A Descent into the Maelstrom
––––––––––––––––––––––––––––––––––––––––

DR Peak RMS Duration Track
––––––––––––––––––––––––––––––––––––––––
DR10 -3.96 dB -14.99 dB 2:10 01-Vertigo
DR9 -9.34 dB -21.73 dB 2:08 02-He is Coerced to Look
DR10 -2.18 dB -14.92 dB 8:40 03-Engagement
DR9 -10.05 dB -21.46 dB 0:54 04-The Naming
DR9 -7.34 dB -19.69 dB 6:05 05-Tranquility
DR12 -10.78 dB -25.12 dB 1:08 06-The Beggin
DR11 -5.26 dB -18.51 dB 3:48 07-The Strategem
DR10 -4.92 dB -16.72 dB 2:10 08-On My Watch and Caught
DR10 -2.16 dB -14.29 dB 2:56 09-The Hurricane and Recognition of Death
DR11 -1.95 dB -16.78 dB 3:03 10-The Entrance of the Moon
DR10 -3.69 dB -15.71 dB 2:42 11-The Sighting
DR10 -3.78 dB -14.91 dB 1:16 12-They Enter the Stream
DR10 -5.93 dB -19.21 dB 4:16 13-Abandonment
DR9 -3.14 dB -15.26 dB 2:30 14-The Brother Becomes a Maniac
DR10 -2.29 dB -15.15 dB 2:15 15-The First Mad Rush
DR10 -3.46 dB -15.41 dB 6:19 16-Second Perception of Light Moon. Mist. and Rainbow
DR11 -1.30 dB -14.08 dB 8:44 17-The Maelstrom
DR9 -5.62 dB -19.63 dB 4:05 18-Hour of the Slack and Escape
––––––––––––––––––––––––––––––––––––––––

Number of tracks: 18
Official DR value: DR10

Samplerate: 44100 Hz
Channels: 2
Bits per sample: 16
Bitrate: 639 kbps
Codec: FLAC
================================================================================

Philip Glass - A Descent into the Maelstrom (2002)

Philip Glass - A Descent into the Maelstrom (2002)

All thanks to original releaser

More interesting music in My Blog