Subcategories

Philippe Jaroussky - La Voix des Reves: Greatest moments in concert (2012) [BDRip]

Posted By: Vilboa
Philippe Jaroussky - La Voix des Reves: Greatest moments in concert (2012) [BDRip]

Philippe Jaroussky - La Voix des Rêves: Greatest moments in concert (2012) [BDRip]
BluRay-rip | AVC | MKV 1920x1080 / 6215 kbps / 29,97 fps | 161 min | 7,79 Gb
Audio: AC3 / 6ch / 48.0 KHz / 640 Kbps
Classical | Virgin Classics | Sub: English, German, French, Italian, Spanish

LA VOIX DES RÊVES - Greatest Moments in Concert” (available on DVD & Blu Ray) features video footage from a number of occasions and venues – including items from a concert given among the crystal chandeliers of the splendid Galerie des Glaces in the palace of Versailles, and works by Handel and Vivaldi performed in another jewel of French Baroque architecture, the sumptuously decorated Chapelle de la Trinité in Lyon.
Jaroussky and his appeal were aptly summarised in a recent profile in the French magazine Balthazar: “Philippe Jaroussky alternates between opera and recitals, bringing his sensual, graceful voice and matinee idol looks, and this has made him a key star of classical music. But his recordings also reveal a skilled musicologist who has revived numerous forgotten artists like the castrato Carestini [and the composers] Johann Christian Bach and Caldara. Jaroussky simply glows. Anyone who has had the opportunity to meet him will find it hard to forget his enthusiastic conversation and his magnetic gaze.

Track List & Cast:
"Lyon, Chapelle de la Trinité (02.02.2006)"
01. Vedro con mio diletto – Vivaldi: Giustino
Ensemble Matheus, Jean-Christophe Spinosi
02. Se in ogni guardo – Vivaldi: Orlando finto pazzo
Ensemble Matheus, Jean-Christophe Spinosi
03. Sol da te – Vivaldi: Orlando Furioso
Ensemble Matheus, Jean-Christophe Spinosi
"Paris, Théâtre des Champs-Élysées (19.12.2011)"
04. Venti, turbini – Händel: Rinaldo
Le Concert d’Astrée, Emmanuelle Haïm
05. Son nata a lagrimar – Händel: Giulio Cesare
Le Concert d’Astrée, Emmanuelle Haïm
04. Sound the trumpet – Händel: Come, ye sons of art, away
Pascal Bertin, Le Concert d’Astrée, Emmanuelle Haïm
"Versailles, Galerie des Glaces (16.06.2009)"
07. Mi lusinga il dolce affetto – Händel: Alcina
Ensemble Artaserse
08. Senti con qual diletto – Vivaldi: Ercole
Ensemble Artaserse
09. Verdi prati – Händel: Alcina
Ensemble Artaserse
10. Scherza, infida – Händel: Ariodante
Ensemble Artaserse
"Metz, Arsenal (07.10.2009)"
11. Pur ti miro – Monteverdi: L’Incoronazione di Poppea
Nuria Rial, L’Arpeggiata, Christina Pluhar
12. Strozzi: L’Eraclito Amoroso
L’Arpeggiata, Christina Pluhar
13. Adagiati, Poppea – Monteverdi: L’Incoronazione di Poppea
L’Arpeggiata, Christina Pluhar
"Paris, Gaveau (04.06.2007)"
14 Nel Profondo – Vivaldi: Orlando Furioso
Marie-Nicole Lemieux, Ensemble Matheus, Jean-Christophe Spinosi
"Lyon, Chapelle de la Trinité (10.11.2010)"
15. Cum diderit – Vivaldi: Nisi domine
Ensemble La Fenice, Jean Tubéry
"Rueil-Malmaison, Théâtre André Malraux (28.02.2008)"
16. Se vago rio – Händel: Aminta e Fillide
Ensemble Artaserse
17. Io t’abbraccio – Händel: Rodelinda
Nuria Rial, Ensemble Artaserse
"München, Prinzregententheater (14.11.2010)"
18. Alto Giove – Porpora: Polifemo
Concerto Köln
19. Lo seguitai felice – Caldara: L’Olimpiade
Concerto Köln
"Ambronay, Abbaye (2009)"
20. Lasciate averno – Rossi: Lamento
L’Arpeggiata, Christina Pluhar
21. Ciaccona di Paradisio et dell’Inferno – Anonym
L’Arpeggiata, Christina Pluhar
22. Ohime, ch’io cado – Monteverdi: Madrigali
L’Arpeggiata, Christina Pluhar
"Paris, Gaveau (30.01.2012)"
23. Trejo, Piazzolla: Los pájaros perdidos
L’Arpeggiata, Christina Pluhar
"Paris, Théâtre des Champs-Élysées (17.12.2010)"
24. H. Salvador: Le Lion est mort ce soir
Quatuor Ebène
25. Lascia ch’io pianga – Händel: Rinaldo
Jérôme Ducros (Klavier)
26. Massenet: Elégie
Gautier Capuçon (Cello)
"Verbier Festival (Sommer 2009)"
27. Hahn: A Chloris
Jérôme Ducros (Klavier)
28. Lekeu: Sur une tombe
Jérôme Ducros (Klavier)
"Paris, Théâtre des Champs-Élysées (17.12.2010)"
29. Schostakowitsch: Prélude pour 2 violons et piano
Renaud Capuçon (Violine)
"Baden-Baden, Festspielhaus (24.06.2012)"
30. Sento un certo non so che – Monteverdi: L’Incoronazione di Poppea
Marie-Nicole Lemieux, Ensemble Artaserse
31. Uscitemindal cor lagrime amare – Cavalli: Erismena
Ensemble Artaserse
"Metz, Arsenal (7.10.2009)"
32. Strozzi: L’Eraclito Amoroso
L’Arpeggiata, Christina Pluhar
"Baden-Baden, Festspielhaus (24.06.2012)"
33. Lagrimosa beltà – Sances: Cantata a due sopra la ciaccona
Marie-Nicole Lemieux, Ensemble Artaserse


General
Unique ID : 228811113489741909358004618279033893703 (0xAC236AE1CB590BDFBDCC269EE241F347)
Complete name : C:\Jaroussky.mkv
Format : Matroska
Format version : Version 2
File size : 7.80 GiB
Duration : 2h 41mn
Overall bit rate : 6 896 Kbps
Movie name : Jaroussky
Encoded date : UTC 2019-12-24 11:00:01
Writing application : DVDFab 9.1.6.8
Writing library : libebml v0.7.8 + libmatroska v0.8.1

Video
ID : 1
Format : AVC
Format/Info : Advanced Video Codec
Format profile : High@L4.1
Format settings, CABAC : Yes
Format settings, ReFrames : 2 frames
Codec ID : V_MPEG4/ISO/AVC
Duration : 2h 41mn
Bit rate : 6 215 Kbps
Width : 1 920 pixels
Height : 1 080 pixels
Display aspect ratio : 16:9
Frame rate mode : Constant
Frame rate : 29.970 fps
Color space : YUV
Chroma subsampling : 4:2:0
Bit depth : 8 bits
Scan type : Progressive
Bits/(Pixel*Frame) : 0.100
Stream size : 6.92 GiB (89%)
Writing library : x264 core 142
Encoding settings : cabac=1 / ref=1 / deblock=1:-1:-1 / analyse=0x3:0 / me=hex / subme=5 / psy=0 / mixed_ref=0 / me_range=16 / chroma_me=1 / trellis=0 / 8x8dct=1 / cqm=0 / deadzone=21,11 / fast_pskip=1 / chroma_qp_offset=0 / threads=8 / lookahead_threads=2 / sliced_threads=0 / nr=0 / decimate=1 / interlaced=0 / bluray_compat=0 / constrained_intra=0 / bframes=2 / b_pyramid=0 / b_adapt=1 / b_bias=0 / direct=1 / weightb=1 / open_gop=0 / weightp=0 / keyint=24 / keyint_min=13 / scenecut=40 / intra_refresh=0 / rc=abr / mbtree=0 / bitrate=6215 / ratetol=1.0 / qcomp=0.60 / qpmin=0 / qpmax=69 / qpstep=4 / ip_ratio=1.40 / pb_ratio=1.30 / aq=1:1.00
Default : Yes
Forced : No
Color primaries : BT.709
Transfer characteristics : BT.709
Matrix coefficients : BT.709
Color range : Limited

Audio
ID : 2
Format : AC-3
Format/Info : Audio Coding 3
Mode extension : CM (complete main)
Format settings, Endianness : Big
Codec ID : A_AC3
Duration : 2h 41mn
Bit rate mode : Constant
Bit rate : 640 Kbps
Channel(s) : 6 channels
Channel positions : Front: L C R, Side: L R, LFE
Sampling rate : 48.0 KHz
Bit depth : 16 bits
Compression mode : Lossy
Stream size : 741 MiB (9%)
Language : English
Default : Yes
Forced : No

Text #1
ID : 3
Format : VobSub
Codec ID : S_VOBSUB
Codec ID/Info : The same subtitle format used on DVDs
Language : German
Default : Yes
Forced : No

Text #2
ID : 4
Format : VobSub
Codec ID : S_VOBSUB
Codec ID/Info : The same subtitle format used on DVDs
Language : English
Default : No
Forced : No

Text #3
ID : 5
Format : VobSub
Codec ID : S_VOBSUB
Codec ID/Info : The same subtitle format used on DVDs
Language : French
Default : No
Forced : No

Text #4
ID : 6
Format : VobSub
Codec ID : S_VOBSUB
Codec ID/Info : The same subtitle format used on DVDs
Language : Italian
Default : No
Forced : No

Text #5
ID : 7
Format : VobSub
Codec ID : S_VOBSUB
Codec ID/Info : The same subtitle format used on DVDs
Language : Spanish
Default : No
Forced : No

Menu
00:00:00.000 : en:Chapter 01
00:04:57.697 : en:Chapter 02
00:08:18.764 : en:Chapter 03
00:16:47.473 : en:Chapter 04
00:20:33.966 : en:Chapter 05
00:28:38.783 : en:Chapter 06
00:33:38.683 : en:Chapter 07
00:41:45.636 : en:Chapter 08
00:45:56.553 : en:Chapter 09
00:50:33.096 : en:Chapter 10
01:02:38.121 : en:Chapter 11
01:06:39.095 : en:Chapter 12
01:09:27.263 : en:Chapter 13
01:14:48.517 : en:Chapter 14
01:19:11.379 : en:Chapter 15
01:23:40.749 : en:Chapter 16
01:27:02.116 : en:Chapter 17
01:33:57.264 : en:Chapter 18
01:38:51.859 : en:Chapter 19
01:42:58.472 : en:Chapter 20
01:49:15.515 : en:Chapter 21
01:52:58.772 : en:Chapter 22
01:56:56.175 : en:Chapter 23
02:00:45.738 : en:Chapter 24
02:04:01.767 : en:Chapter 25
02:08:03.809 : en:Chapter 26
02:12:05.484 : en:Chapter 27
02:16:34.886 : en:Chapter 28
02:20:17.075 : en:Chapter 29
02:22:58.269 : en:Chapter 30
02:28:22.627 : en:Chapter 31
02:33:57.094 : en:Chapter 32
02:37:49.960 : en:Chapter 33

Philippe Jaroussky - La Voix des Reves: Greatest moments in concert (2012) [BDRip]