Tags
Language
Tags
June 2024
Su Mo Tu We Th Fr Sa
26 27 28 29 30 31 1
2 3 4 5 6 7 8
9 10 11 12 13 14 15
16 17 18 19 20 21 22
23 24 25 26 27 28 29
30 1 2 3 4 5 6

Pinetop Perkins - Chicago Boogie Blues Piano Man (2020)

Posted By: popsakov
Pinetop Perkins - Chicago Boogie Blues Piano Man (2020)

Pinetop Perkins - Chicago Boogie Blues Piano Man (2020)
EAC Rip | FLAC (Tracks) + Cue + m3u + Log ~ 400 Mb | MP3 CBR320 ~ 158 Mb
Full Scans | 00:58:23 | RAR 5% Recovery
Chicago Blues, Piano Blues | JSP Records #JSP3018

A Chicago Blues legend in concert with a superb band. Available for the first time on CD! This superb album from the legendary Muddy Waters band member was originally released as a vinyl lp in 1985 and this is the very first CD release. The band features Bill Dicey on harmonica. This set was one of Pinetop's first recordings under his own name after a lifetime of playing with some of the greatest names in electric blues. Pinetop Perkins was a bluesman who found fame late in life. Active in the 1950s on the Memphis scene, he left the music for many years. But then came back just when blues legends had a new, wider audience in the late 1960s. A gifted blues piano player and delightful singer he had the full package as bandleader. But he found his fame as piano player with Muddy Waters. That gig took him around the world and made him famous. There are three bonus tracks from a Big Moose Walker Chicago studio session. Moose was of a similar generation and style to Pinetop so these tracks fit well. Moose's career included recording with greats such as Elmore James and Earl Hooker. He's another stone legend of the postwar blues scene.
***************

Track List:

01. For You My Love [3:47]
02. Had My Fun [6:23]
03. Barefootin' [3:44]
04. Really Love That Woman [8:13]
05. Who's Loving You Now [6:36]
06. Kansas City [4:53]
07. Perkin's Boogie Woogie [5:18]
08. Hoochie Coochie Man [6:17]
09. Lord Have Mercy [4:23]
10. Every Night [4:08]
11. Annielee [4:40]

Exact Audio Copy V1.1 from 23. June 2015

EAC extraction logfile from 17. October 2020, 11:18

Pinetop Perkins / Chicago Boogie Blues Piano Man / Bonus tracks By Johnny Big Moose Walker

Used drive : PIONEER DVD-RW DVR-219L Adapter: 1 ID: 0

Read mode : Secure
Utilize accurate stream : Yes
Defeat audio cache : Yes
Make use of C2 pointers : No

Read offset correction : 6
Overread into Lead-In and Lead-Out : No
Fill up missing offset samples with silence : Yes
Delete leading and trailing silent blocks : No
Null samples used in CRC calculations : Yes
Used interface : Native Win32 interface for Win NT & 2000
Gap handling : Appended to previous track

Used output format : User Defined Encoder
Selected bitrate : 128 kBit/s
Quality : High
Add ID3 tag : No
Command line compressor : C:\Program Files\Exact Audio Copy\Flac\flac.exe
Additional command line options : -V -8 -T "Genre=%genre%" -T "Artist=%artist%" -T "Title=%title%" -T "Album=%albumtitle%" -T "Date=%year%" -T "Tracknumber=%tracknr%" -T "Comment=%comment%" %source%


TOC of the extracted CD

Track | Start | Length | Start sector | End sector
––––––––––––––––––––––––––––-
1 | 0:00.00 | 3:48.43 | 0 | 17142
2 | 3:48.43 | 6:25.32 | 17143 | 46049
3 | 10:14.00 | 3:46.37 | 46050 | 63036
4 | 14:00.37 | 8:14.56 | 63037 | 100142
5 | 22:15.18 | 6:37.68 | 100143 | 129985
6 | 28:53.11 | 4:54.63 | 129986 | 152098
7 | 33:47.74 | 5:19.43 | 152099 | 176066
8 | 39:07.42 | 6:19.24 | 176067 | 204515
9 | 45:26.66 | 4:25.11 | 204516 | 224401
10 | 49:52.02 | 4:10.32 | 224402 | 243183
11 | 54:02.34 | 4:40.31 | 243184 | 264214


Track 1

Filename E:\alexbras\2020 Pinetop Perkins - Chicago Boogie Blues Piano Man\01. For You My Love.wav

Pre-gap length 0:00:02.00

Peak level 97.6 %
Extraction speed 1.8 X
Track quality 100.0 %
Test CRC CE7E5D73
Copy CRC CE7E5D73
Track not present in AccurateRip database
Copy OK

Track 2

Filename E:\alexbras\2020 Pinetop Perkins - Chicago Boogie Blues Piano Man\02. Had My Fun.wav

Pre-gap length 0:00:02.00

Peak level 97.6 %
Extraction speed 2.0 X
Track quality 99.9 %
Test CRC 848FDC9D
Copy CRC 848FDC9D
Track not present in AccurateRip database
Copy OK

Track 3

Filename E:\alexbras\2020 Pinetop Perkins - Chicago Boogie Blues Piano Man\03. Barefootin'.wav

Pre-gap length 0:00:02.00

Peak level 97.6 %
Extraction speed 2.3 X
Track quality 100.0 %
Test CRC E8D245B5
Copy CRC E8D245B5
Track not present in AccurateRip database
Copy OK

Track 4

Filename E:\alexbras\2020 Pinetop Perkins - Chicago Boogie Blues Piano Man\04. Really Love That Woman.wav

Pre-gap length 0:00:02.00

Peak level 97.6 %
Extraction speed 2.7 X
Track quality 100.0 %
Test CRC BB697D27
Copy CRC BB697D27
Track not present in AccurateRip database
Copy OK

Track 5

Filename E:\alexbras\2020 Pinetop Perkins - Chicago Boogie Blues Piano Man\05. Who's Loving You Now.wav

Pre-gap length 0:00:02.00

Peak level 97.6 %
Extraction speed 2.9 X
Track quality 100.0 %
Test CRC 49A7D883
Copy CRC 49A7D883
Track not present in AccurateRip database
Copy OK

Track 6

Filename E:\alexbras\2020 Pinetop Perkins - Chicago Boogie Blues Piano Man\06. Kansas City.wav

Pre-gap length 0:00:02.00

Peak level 97.6 %
Extraction speed 3.0 X
Track quality 100.0 %
Test CRC 9E752286
Copy CRC 9E752286
Track not present in AccurateRip database
Copy OK

Track 7

Filename E:\alexbras\2020 Pinetop Perkins - Chicago Boogie Blues Piano Man\07. Perkin's Boogie Woogie.wav

Pre-gap length 0:00:02.00

Peak level 97.5 %
Extraction speed 3.2 X
Track quality 100.0 %
Test CRC 44336465
Copy CRC 44336465
Track not present in AccurateRip database
Copy OK

Track 8

Filename E:\alexbras\2020 Pinetop Perkins - Chicago Boogie Blues Piano Man\08. Hoochie Coochie Man.wav

Pre-gap length 0:00:02.00

Peak level 97.6 %
Extraction speed 3.4 X
Track quality 100.0 %
Test CRC 56C8D625
Copy CRC 56C8D625
Track not present in AccurateRip database
Copy OK

Track 9

Filename E:\alexbras\2020 Pinetop Perkins - Chicago Boogie Blues Piano Man\09. Lord Have Mercy.wav

Pre-gap length 0:00:02.00

Peak level 97.6 %
Extraction speed 3.5 X
Track quality 100.0 %
Test CRC B1CAB968
Copy CRC B1CAB968
Track not present in AccurateRip database
Copy OK

Track 10

Filename E:\alexbras\2020 Pinetop Perkins - Chicago Boogie Blues Piano Man\10. Every Night.wav

Pre-gap length 0:00:02.00

Peak level 97.6 %
Extraction speed 3.6 X
Track quality 100.0 %
Test CRC E9BA911F
Copy CRC E9BA911F
Track not present in AccurateRip database
Copy OK

Track 11

Filename E:\alexbras\2020 Pinetop Perkins - Chicago Boogie Blues Piano Man\11. Annielee.wav

Pre-gap length 0:00:02.00

Peak level 97.6 %
Extraction speed 3.7 X
Track quality 100.0 %
Test CRC C5FE0C6A
Copy CRC C5FE0C6A
Track not present in AccurateRip database
Copy OK


None of the tracks are present in the AccurateRip database

No errors occurred

End of status report

==== Log checksum 974DCBB17D60DFD7B8F6FAEE1E891AF74FED8EF1A94066FAAA5F24A4D24D9381 ====

Pinetop Perkins - Chicago Boogie Blues Piano Man (2020)


All thanks go to alex1248

>>> Pinetop Perkins in my Blog <<<

DOWNLOAD: