Tags
Language
Tags

Pink Floyd - Live In USA (1994)

Posted By: v3122
Pink Floyd - Live In USA (1994)

Pink Floyd - Live In USA (1994)
EAC | Flac(Image) + Cue + Log & MP3 CBR 320Kbps
2CD | Grapefruit Production, GRA-034-A/034-B | ~ 768 or 343 Mb | Artwork(jpg) -> 1.69 Mb
Progressive Rock | Unofficial Release

~ Recorded at the Rose Bowl, Pasadena, 16 Apr 1994

Pink Floyd - Live In USA (1994):

Pink Floyd - Live In USA (1994)

Tracklist CD1. Take It Back:

01. Astronomy Domine (5:59)
02. Learning To Fly (5:51)
03. What Do You Want From Me (4:26)
04. Poles Apart (7:07)
05. Sorrow (9:59)
06. Take It Back (6:07)
07. On The Turning Away (7:16)
08. Keep Talking (7:09)
09. One Of These Days (6:22)
10. Shine On You Crazy Diamond (11:36)

Exact Audio Copy V0.99 prebeta 4 from 23. January 2008

Отчёт EAC об извлечении, выполненном 30. марта 2009, 15:06

Pink Floyd / Take it Back

Дисковод: PIONEER DVD-RW DVR-108 Adapter: 1 ID: 0

Режим чтения : Достоверность
Использование точного потока : Да
Отключение кэша аудио : Да
Использование указателей C2 : Нет

Коррекция смещения при чтении : 48
Способность читать области Lead-in и Lead-out : Нет
Заполнение пропущенных сэмплов тишиной : Да
Удаление блоков с тишиной в начале и конце : Нет
При вычислениях CRC использовались нулевые сэмплы : Да
Интерфейс : Встроенный Win32-интерфейс для Win NT/2000

Выходной формат : Внутренние WAV-операции
Формат сэмплов : 44.100 Гц; 16 бит; стерео


TOC извлечённого CD

Трек | Старт | Длительность | Начальный сектор | Конечный сектор
––––––––––––––––––––––––––––––––––-
1 | 0:00.00 | 5:59.25 | 0 | 26949
2 | 5:59.25 | 5:51.37 | 26950 | 53311
3 | 11:50.62 | 4:26.13 | 53312 | 73274
4 | 16:17.00 | 7:07.00 | 73275 | 105299
5 | 23:24.00 | 9:59.50 | 105300 | 150274
6 | 33:23.50 | 6:07.50 | 150275 | 177849
7 | 39:31.25 | 7:16.12 | 177850 | 210561
8 | 46:47.37 | 7:09.13 | 210562 | 242749
9 | 53:56.50 | 6:22.25 | 242750 | 271424
10 | 60:19.00 | 11:36.50 | 271425 | 323674


Характеристики диапазона извлечения и сообщения об ошибках

Выбранный диапазон

Имя файла C:\MUSIC\Pink Floyd - Take it Back - usa live disc1 - bootleg.wav

Пиковый уровень 100.0 %
Качество диапазона 100.0 %
CRC копии 1D4D56A3
Копирование… OK

Ошибок не произошло

Конец отчёта


[CUETools log; Date: 17.08.2020 15:14:19; Version: 2.1.4]
[AccurateRip ID: 0018f42e-00cb4eb6-7f10db0a] found.
Track [ CRC | V2 ] Status
01 [faa5077b|395e55b5] (0+3/3) Accurately ripped
02 [ab81e402|37c96797] (0+3/3) Accurately ripped
03 [b7533175|5ba08713] (0+3/3) Accurately ripped
04 [a4d109b7|ab38b2c1] (0+3/3) Accurately ripped
05 [f6f643b9|965574c1] (0+3/3) Accurately ripped
06 [12058442|9335bb94] (0+3/3) Accurately ripped
07 [3c257c01|721dc7fc] (0+3/3) Accurately ripped
08 [08fe82f4|631d0c70] (0+3/3) Accurately ripped
09 [a57dbe3b|b233b793] (0+2/2) Accurately ripped
10 [6d7e3772|ccf5bcbe] (0+1/3) Accurately ripped

Track Peak [ CRC32 ] [W/O NULL] [ LOG ]
– 100,0 [1D4D56A3] [06620762] CRC32
01 75,6 [151CF12E] [C54748C1]
02 82,0 [93A1134B] [54E2134A]
03 82,0 [5269B0C4] [EECFE4D5]
04 81,3 [F58D69BF] [0AC11119]
05 84,0 [4ADF812C] [0F6AC695]
06 86,1 [637B0A4C] [A3264F6D]
07 82,7 [602577F8] [3CD03DD2]
08 74,3 [B2FB3DE1] [0A70847F]
09 88,6 [D5D9CDC6] [0364E933]
10 100,0 [00821A6A] [2782C6B4]


Pink Floyd - Live In USA (1994)

Tracklist CD2. High Hopes:

01. Breathe (2:58)
02. Time (6:45)
03. High Hopes (8:29)
04. Wish You Were Here (5:30)
05. Another Brick In The Wall (6:36)
06. The Great Gig In The Sky (4:54)
07. Us And Them (7:35)
08. Money (8:41)
09. Comfortably Numb (8:57)
10. Hey You (4:43)
11. Run Like Hell (8:00)

Exact Audio Copy V0.99 prebeta 4 from 23. January 2008

Отчёт EAC об извлечении, выполненном 28. марта 2009, 0:32

Pink Floyd / High Hopes - usa live disc2 - bootleg

Дисковод: PIONEER DVD-RW DVR-108 Adapter: 1 ID: 0

Режим чтения : Достоверность
Использование точного потока : Да
Отключение кэша аудио : Да
Использование указателей C2 : Нет

Коррекция смещения при чтении : 48
Способность читать области Lead-in и Lead-out : Нет
Заполнение пропущенных сэмплов тишиной : Да
Удаление блоков с тишиной в начале и конце : Нет
При вычислениях CRC использовались нулевые сэмплы : Да
Интерфейс : Встроенный Win32-интерфейс для Win NT/2000

Выходной формат : Внутренние WAV-операции
Формат сэмплов : 44.100 Гц; 16 бит; стерео


TOC извлечённого CD

Трек | Старт | Длительность | Начальный сектор | Конечный сектор
––––––––––––––––––––––––––––––––––-
1 | 0:00.00 | 2:58.37 | 0 | 13386
2 | 2:58.37 | 6:45.13 | 13387 | 43774
3 | 9:43.50 | 8:29.00 | 43775 | 81949
4 | 18:12.50 | 5:30.25 | 81950 | 106724
5 | 23:43.00 | 6:36.62 | 106725 | 136486
6 | 30:19.62 | 4:54.13 | 136487 | 158549
7 | 35:14.00 | 7:35.50 | 158550 | 192724
8 | 42:49.50 | 8:41.00 | 192725 | 231799
9 | 51:30.50 | 8:57.12 | 231800 | 272086
10 | 60:27.62 | 4:43.00 | 272087 | 293311
11 | 65:10.62 | 8:00.13 | 293312 | 329324


Характеристики диапазона извлечения и сообщения об ошибках

Выбранный диапазон

Имя файла C:\MUSIC\Pink Floyd - High Hopes - usa live disc2 - bootleg.wav

Пиковый уровень 92.9 %
Качество диапазона 100.0 %
CRC копии D79631C6
Копирование… OK

Ошибок не произошло

Конец отчёта


[CUETools log; Date: 17.08.2020 14:50:00; Version: 2.1.4]
[AccurateRip ID: 001c621b-00fb656b-8d11270b] found.
Track [ CRC | V2 ] Status
01 [893ca8e8|ebc08e50] (0+4/4) Accurately ripped
02 [860b4b67|5bc6a704] (0+3/3) Accurately ripped
03 [deed89fd|737222fc] (0+4/4) Accurately ripped
04 [ed8b4365|6b8fc311] (0+3/3) Accurately ripped
05 [2ad36b18|be7684e5] (0+3/3) Accurately ripped
06 [e533957a|99f86e7a] (0+4/4) Accurately ripped
07 [30b99d53|f87ac529] (0+2/2) Accurately ripped
08 [ee873879|1fbcc2f3] (0+3/3) Accurately ripped
09 [c4e6ed38|6da2954d] (0+2/2) Accurately ripped
10 [4993f781|77de74ca] (0+2/2) Accurately ripped
11 [adb182f1|84fed04d] (1+1/4) Accurately ripped

Track Peak [ CRC32 ] [W/O NULL] [ LOG ]
– 92,9 [D79631C6] [40315955] CRC32
01 74,4 [710409D6] [227C2B3A]
02 75,1 [EB144639] [A2C67B7F]
03 73,0 [F91606EC] [47F7C5DC]
04 73,7 [9E838959] [8132DAF2]
05 86,5 [3CD1C9A4] [C32750F9]
06 70,8 [530A78A0] [049F58FE]
07 87,3 [4C7F55EC] [578FA576]
08 76,6 [3BB7CC15] [63AB3EED]
09 87,5 [F08B926C] [F5DC82EC]
10 70,4 [DD974136] [CCBDA9B3]
11 92,9 [B80C9957] [1B8261C6]



• David Gilmour - Guitars, vocals
• Nick Mason - Drums
• Rick Wright - Keyboards, vocals

• Guy Pratt - Bass
• John Carin - Keyboards
• Tim Renwick - Guitar
• Gary Wallis - Percussion
• Dick Parry - Saxophones
• Durga McBroom, Sam Brown, Claudia Fontaine - Backing vocals

All thanks go to the original releaser

Pink Floyd in my Blog

Download Pink Floyd - Live In USA (1994):