Tags
Language
Tags

Pink Floyd - Journey Through Time and Space Vol. 1 [12CD Limited Edition Box Set] (2008)

Posted By: Discograf_man
Pink Floyd - Journey Through Time and Space Vol. 1 [12CD Limited Edition Box Set] (2008)

Pink Floyd - Journey Through Time and Space Vol. 1 [12CD Limited Edition Box Set] (2008)
EAC Rip | FLAC (*tracks+cue, log, scans) | Run Time: 11:42:21 | 3.78 Gb | Scans 165.65 Mb
Genre: Psychedelic Rock, Prog Rock | Label: Wonderland Records

PINK FLOYD "JOURNEY THROUGH TIME & SPACE VOL 1" 12CD and DVD limited edition of 600 individually numbered copies, original issue factory press silver in heavy duty color glossy hardcover box w/28-pg booklet. Comprehensive compilation of Floyd material including: Wolverhampton Mar 18, 1967 / Outer Zabriskie Nov & Dec 1969 / Various rare live from 1966 to 1974 / Lund, Sweden, Mar 20, 1970 / San Diego Oct 17, 1971 / Philadelphia Mar 15, 1973 / NY Artc Center June 17, 1973 / Nassau, NY June 17, 1975 plus DVD. See images for details. Individually numbered limited edition of 600…beautifully put together and great one-stop shopping for this material.
Contains CDs:

CD 1: Wolverhampton, March 18, 1967
CD 2: Recorded November & December 1969, Rome, Italy
CD 3: Various Locations from 1966 to 1974
CD 4/5: Lund, Sweden, March 20, 1970
CD 6/7: Convention Hall, San Diego, October 17, 1971
CD 8: Philadelphia Spectrum, March 15, 1973
CD 9/10: Arts Center, New York, June 17, 1973
CD 11/12: Nassau Coliseum, New York, June 17, 1975

Pink Floyd - Journey Through Time and Space Vol. 1 [12CD Limited Edition Box Set] (2008)


Interstellar Dream
CD1-1 Introduction 3:09
CD1-2 Julia Dream 2:21
CD1-3 Let There Be More Light 3:38
CD1-4 Murderistic Woman 2:14
CD1-5 Rain In The Country 6:58
CD1-6 A Saucerful Of Secrets 6:37
CD1-7 If 4:24
CD1-8 Interstellar Overdrive 13:13

Outer Zabriskie
CD2-1 Rain In The Country (First Version)
CD2-2 The Violent Sequence 6:08
CD2-3 Red Queen 2:04
CD2-4 Fingal's Cave (Take 1 - Sex Vocal) 6:39
CD2-5 Zabriskie Theme 1:16
CD2-6 Rain In The Country (Rock Version) 1:43
CD2-7 Love Scene (Take 1) 6:33
CD2-8 Love Scene (Take 2) 6:27
CD2-9 Blues Scene 7:08
CD2-10 Fingal's Cave (Take 2 - Basic Version) 6:21
CD2-11 Love Scene (Take 3) 0:59
CD2-12 Love Scene (Take 4) 7:37
CD2-13 Red Queen 5:42
CD2-14 Crumbling Land (Fast Version) 5:02
CD2-15 Funky Dung 5:52

Spontaneous Underground
CD3-1 Interstellar Overdrive 15:44
CD3-2 Set The Controls For The Heart Of The Sun 11:09
CD3-3 Green Is The Colour 3:30
CD3-4 Careful With That Axe, Eugene 9:14
CD3-5 Theme From "More" 10:45
CD3-6 Obscured By Clouds 5:41
CD3-7 When You're In 7:12
CD3-8 Childhood's End 8:48
CD3-9 Brain Damage 2:00
CD3-10 Eclipse 1:24

Discovering Sweden Part One
CD4-1 Astronomy Domine 8:45
CD4-2 Careful With That Axe, Eugene 10:43
CD4-3 Cymbaline 9:16
CD4-4 A Saucerful Of Secrets 12:55
CD4-5 Embryo 8:30

Discovering Sweden Part Two
CD5-1 Interstellar Overdrive 13:12
CD5-2 Set The Controls For The Heart Of The Sun 11:23
CD5-3 Atom Heart Mother 18:23

And Time Slipped Away Part One
CD6-1 Careful With That Axe, Eugene 13:30
CD6-2 Fat Old Sun 16:14
CD6-3 Atom Heart Mother 16:25

And Time Slipped Away Part Two
CD7-1 Embryo 12:19
CD7-2 Set The Controls For The Heart Of The Sun 13:29
CD7-3 Cymbaline 12:00
CD7-4 Pink Blues 5:16

Darkside Of Philly
CD8-1 Speak To Me 1:07
CD8-2 Breathe 2:57
CD8-3 On The Run 4:53
CD8-4 Time 5:31
CD8-5 Breathe - Reprise 0:59
CD8-6 The Great Gig In The Sky 6:36
CD8-7 Money 8:00
CD8-8 Us And Them 7:56
CD8-9 Any Colour You Like 7:24
CD8-10 Brain Damage 3:39
CD8-11 Eclipse 1:44

Orbital Thunderstorm Part One
CD9-1 Obscured By Clouds 5:02
CD9-2 When You're In 7:34
CD9-3 Set The Controls For The Heart Of The Sun 13:18
CD9-4 Careful With That Axe, Eugene 10:53
CD9-5 Echoes 25:02

Orbital Thunderstorm Part Two
CD10-1 Speak To Me 1:20
CD10-2 Breathe 3:08
CD10-3 On The Run 5:34
CD10-4 Time 5:24
CD10-5 Breathe - Reprise 1:05
CD10-6 The Great Gig In The Sky 6:13
CD10-7 Money 7:25
CD10-8 Us And Them 8:19
CD10-9 Any Colour You Like 7:51
CD10-10 Brain Damage 3:52
CD10-11 Eclipse 1:39
CD10-12 One Of These Days 8:14

Dark Vs Light Part One
CD11-1 Raving And Drooling 11:06
CD11-2 Gotta Be Crazy 13:13
CD11-3 Shine On You Crazy Diamond - Part 1-5 12:56
CD11-4 Have A Cigar 4:40
CD11-5 Shine On You Crazy Diamond - Part 6-9 12:10
CD11-6 Speak To Me 3:22
CD11-7 Breathe 3:00
CD11-8 On The Run 4:49
CD11-9 Time 5:24
CD11-10 Breathe - Reprise 1:14

Dark Vs Light Part Two
CD12-1 The Great Gig In The Sky 6:56
CD12-2 Money 9:53
CD12-3 Us And Them 7:59
CD12-4 Any Colour You Like 10:12
CD12-5 Brain Damage 3:58
CD12-6 Eclipse 1:55
CD12-7 Echoes 22:50


Exact Audio Copy V1.0 beta 3 from 29. August 2011

EAC extraction logfile from 18. August 2012, 18:07

Pink Floyd / And Time Slipped Away 1

Used drive : ATAPI iHAS124 C Adapter: 2 ID: 0

Read mode : Secure
Utilize accurate stream : Yes
Defeat audio cache : Yes
Make use of C2 pointers : No

Read offset correction : 6
Overread into Lead-In and Lead-Out : No
Fill up missing offset samples with silence : Yes
Delete leading and trailing silent blocks : No
Null samples used in CRC calculations : Yes
Used interface : Native Win32 interface for Win NT & 2000
Gap handling : Appended to previous track

Used output format : User Defined Encoder
Selected bitrate : 256 kBit/s
Quality : High
Add ID3 tag : No
Command line compressor : C:\Program Files\FLAC\flac.exe
Additional command line options : -8 -V -T "ARTIST=%artist%" -T "TITLE=%title%" -T "ALBUM=%albumtitle%" -T "DATE=%year%" -T "TRACKNUMBER=%tracknr%" -T "TOTALTRACKS=%numtracks%" -T "GENRE=%genre%" -T "ALBUMARTIST=%albumartist%" -T "ALBUM ARTIST=%albumartist%" -T "COMMENT=EAC Secure Mode, Test & Copy, AccurateRip, FLAC -8" %source%


TOC of the extracted CD

Track | Start | Length | Start sector | End sector
––––––––––––––––––––––––––––-
1 | 0:00.00 | 13:52.70 | 0 | 62469
2 | 13:52.70 | 16:28.29 | 62470 | 136598
3 | 30:21.24 | 16:28.23 | 136599 | 210721


Track 1

Filename D:\Temp\01 - Careful With that Axe Eugene.wav

Pre-gap length 0:00:02.00

Peak level 100.0 %
Extraction speed 6.5 X
Track quality 100.0 %
Test CRC 004DEB88
Copy CRC 004DEB88
Track not present in AccurateRip database
Copy OK

Track 2

Filename D:\Temp\02 - Fat Old Sun.wav

Peak level 100.0 %
Extraction speed 8.1 X
Track quality 99.9 %
Test CRC 601F6B67
Copy CRC 601F6B67
Track not present in AccurateRip database
Copy OK

Track 3

Filename D:\Temp\03 - Atom Heart Mother.wav

Peak level 100.0 %
Extraction speed 10.3 X
Track quality 100.0 %
Test CRC 9BF9CD3D
Copy CRC 9BF9CD3D
Track not present in AccurateRip database
Copy OK


None of the tracks are present in the AccurateRip database

No errors occurred

End of status report

==== Log checksum 9A18B5EAC0BCBF3135E98BB13550A6E423CF0E8FA37E43E979FADFC763FAC739 ====
================================
Exact Audio Copy V1.0 beta 3 from 29. August 2011

EAC extraction logfile from 18. August 2012, 18:25

Pink Floyd / And Time Slipped Away 2

Used drive : ATAPI iHAS124 C Adapter: 2 ID: 0

Read mode : Secure
Utilize accurate stream : Yes
Defeat audio cache : Yes
Make use of C2 pointers : No

Read offset correction : 6
Overread into Lead-In and Lead-Out : No
Fill up missing offset samples with silence : Yes
Delete leading and trailing silent blocks : No
Null samples used in CRC calculations : Yes
Used interface : Native Win32 interface for Win NT & 2000
Gap handling : Appended to previous track

Used output format : User Defined Encoder
Selected bitrate : 256 kBit/s
Quality : High
Add ID3 tag : No
Command line compressor : C:\Program Files\FLAC\flac.exe
Additional command line options : -8 -V -T "ARTIST=%artist%" -T "TITLE=%title%" -T "ALBUM=%albumtitle%" -T "DATE=%year%" -T "TRACKNUMBER=%tracknr%" -T "TOTALTRACKS=%numtracks%" -T "GENRE=%genre%" -T "ALBUMARTIST=%albumartist%" -T "ALBUM ARTIST=%albumartist%" -T "COMMENT=EAC Secure Mode, Test & Copy, AccurateRip, FLAC -8" %source%


TOC of the extracted CD

Track | Start | Length | Start sector | End sector
––––––––––––––––––––––––––––-
1 | 0:00.00 | 12:23.36 | 0 | 55760
2 | 12:23.36 | 13:29.12 | 55761 | 116447
3 | 25:52.48 | 12:23.42 | 116448 | 172214
4 | 38:16.15 | 5:58.69 | 172215 | 199133


Track 1

Filename D:\Temp\01 - The Embryo.wav

Pre-gap length 0:00:02.00

Peak level 100.0 %
Extraction speed 6.4 X
Track quality 100.0 %
Test CRC 11C19813
Copy CRC 11C19813
Track not present in AccurateRip database
Copy OK

Track 2

Filename D:\Temp\02 - Set the Controls for….wav

Peak level 100.0 %
Extraction speed 8.2 X
Track quality 100.0 %
Test CRC E35B31A8
Copy CRC E35B31A8
Track not present in AccurateRip database
Copy OK

Track 3

Filename D:\Temp\03 - Cymbaline.wav

Peak level 100.0 %
Extraction speed 9.6 X
Track quality 100.0 %
Test CRC 98F1C12F
Copy CRC 98F1C12F
Track not present in AccurateRip database
Copy OK

Track 4

Filename D:\Temp\04 - Blues.wav

Peak level 100.0 %
Extraction speed 8.5 X
Track quality 99.9 %
Test CRC 5B0E26D0
Copy CRC 5B0E26D0
Track not present in AccurateRip database
Copy OK


None of the tracks are present in the AccurateRip database

No errors occurred

End of status report

==== Log checksum CC20B01BE94F636C6EA36CD6469F609C5B55C5C1F45D73A0E04715E6CD679E84 ====
=================================
Exact Audio Copy V1.0 beta 3 from 29. August 2011

EAC extraction logfile from 17. August 2012, 23:58

Pink Floyd / Dark vs Light 1

Used drive : ATAPI iHAS124 C Adapter: 2 ID: 0

Read mode : Secure
Utilize accurate stream : Yes
Defeat audio cache : Yes
Make use of C2 pointers : No

Read offset correction : 6
Overread into Lead-In and Lead-Out : No
Fill up missing offset samples with silence : Yes
Delete leading and trailing silent blocks : No
Null samples used in CRC calculations : Yes
Used interface : Native Win32 interface for Win NT & 2000
Gap handling : Appended to previous track

Used output format : User Defined Encoder
Selected bitrate : 256 kBit/s
Quality : High
Add ID3 tag : No
Command line compressor : C:\Program Files\FLAC\flac.exe
Additional command line options : -8 -V -T "ARTIST=%artist%" -T "TITLE=%title%" -T "ALBUM=%albumtitle%" -T "DATE=%year%" -T "TRACKNUMBER=%tracknr%" -T "TOTALTRACKS=%numtracks%" -T "GENRE=%genre%" -T "ALBUMARTIST=%albumartist%" -T "ALBUM ARTIST=%albumartist%" -T "COMMENT=EAC Secure Mode, Test & Copy, AccurateRip, FLAC -8" %source%


TOC of the extracted CD

Track | Start | Length | Start sector | End sector
––––––––––––––––––––––––––––-
1 | 0:00.00 | 14:23.29 | 0 | 64753
2 | 14:23.29 | 13:44.01 | 64754 | 126554
3 | 28:07.30 | 13:27.00 | 126555 | 187079
4 | 41:34.30 | 4:42.04 | 187080 | 208233
5 | 46:16.34 | 12:34.51 | 208234 | 264834
6 | 58:51.10 | 3:22.59 | 264835 | 280043
7 | 62:13.69 | 3:00.62 | 280044 | 293605
8 | 65:14.56 | 4:49.64 | 293606 | 315344
9 | 70:04.45 | 6:32.26 | 315345 | 344770


Track 1

Filename D:\Temp\01 - Raving and Drolling.wav

Pre-gap length 0:00:02.00

Peak level 100.0 %
Extraction speed 5.9 X
Track quality 100.0 %
Test CRC 33D114AF
Copy CRC 33D114AF
Track not present in AccurateRip database
Copy OK

Track 2

Filename D:\Temp\02 - Gotta Be Crazy.wav

Peak level 99.6 %
Extraction speed 7.0 X
Track quality 99.9 %
Test CRC 573F8628
Copy CRC 573F8628
Track not present in AccurateRip database
Copy OK

Track 3

Filename D:\Temp\03 - Shine on You Crazy Diamond.wav

Peak level 99.9 %
Extraction speed 8.6 X
Track quality 100.0 %
Test CRC D54C5EB5
Copy CRC D54C5EB5
Track not present in AccurateRip database
Copy OK

Track 4

Filename D:\Temp\04 - Have a Cigar.wav

Peak level 90.4 %
Extraction speed 8.6 X
Track quality 100.0 %
Test CRC 776A45EC
Copy CRC 776A45EC
Track not present in AccurateRip database
Copy OK

Track 5

Filename D:\Temp\05 - Shine on You Crazy Diamond.wav

Peak level 91.0 %
Extraction speed 9.9 X
Track quality 100.0 %
Test CRC 86F4001C
Copy CRC 86F4001C
Track not present in AccurateRip database
Copy OK

Track 6

Filename D:\Temp\06 - Speak to Me.wav

Peak level 98.1 %
Extraction speed 9.2 X
Track quality 100.0 %
Test CRC 12C8257B
Copy CRC 12C8257B
Track not present in AccurateRip database
Copy OK

Track 7

Filename D:\Temp\07 - Breathe in the Air.wav

Peak level 94.8 %
Extraction speed 9.3 X
Track quality 100.0 %
Test CRC 387EA6C6
Copy CRC 387EA6C6
Track not present in AccurateRip database
Copy OK

Track 8

Filename D:\Temp\08 - On the Run.wav

Peak level 100.0 %
Extraction speed 6.7 X
Track quality 99.9 %
Test CRC B71A4C55
Copy CRC B71A4C55
Track not present in AccurateRip database
Copy OK

Track 9

Filename D:\Temp\09 - Time.wav

Peak level 100.0 %
Extraction speed 3.9 X
Track quality 99.7 %
Test CRC 18257063
Copy CRC 18257063
Track not present in AccurateRip database
Copy OK


None of the tracks are present in the AccurateRip database

No errors occurred

End of status report

==== Log checksum 6BD234F2D223F8F6669D3EA8AB88041AA52830A0F6F3A4387DC6F85550B64A5A ====
====================================