Subcategories

Picture - Marathon (1987) {Touch Down/CNR}

Posted By: TestTickles
Picture - Marathon (1987) {Touch Down/CNR}

Picture - Marathon (1987) {Touch Down/CNR}
EAC Rip | FLAC with CUE and LOG | scans | 283 mb
MP3 CBR 320 kbps | RAR | 90 mb
Genre: heavy metal, hard rock

Marathon is the 1987 album by Dutch heavy metal band Picture. This was released on Touch Down/CNR.

Picture - Marathon (1987) {Touch Down/CNR}

01. Break Away
02. Vampire Of The New Age
03. Money
04. Desperate Call
05. I'm On My Way
06. We Just Can't Lose
07. Don't Keep Me Waiting
08. Get Out Of My Sight
09. S.O.S.
10. Sarah

Exact Audio Copy V0.99 prebeta 5 from 4. May 2009

EAC extraction logfile from 4. September 2011, 10:18

Picture / Marathon

Used drive : _NEC DVD+RW ND-6100A Adapter: 1 ID: 0

Read mode : Secure
Utilize accurate stream : Yes
Defeat audio cache : Yes
Make use of C2 pointers : No

Read offset correction : 48
Overread into Lead-In and Lead-Out : No
Fill up missing offset samples with silence : Yes
Delete leading and trailing silent blocks : No
Null samples used in CRC calculations : Yes
Used interface : Native Win32 interface for Win NT & 2000
Gap handling : Appended to previous track

Used output format : User Defined Encoder
Selected bitrate : 320 kBit/s
Quality : High
Add ID3 tag : No
Command line compressor : C:\Program Files\Exact Audio Copy\Flac\flac.exe
Additional command line options : -5 -A tukey(0.25) -A gauss(0.1875) -b 4096 -V -T "artist=%a" -T "title=%t" -T "album=%g" -T "date=%y" -T "tracknumber=%n" -T "genre=%m" %s –sector-align


TOC of the extracted CD

Track | Start | Length | Start sector | End sector
––––––––––––––––––––––––––––-
1 | 0:00.33 | 3:57.62 | 33 | 17869
2 | 3:58.20 | 4:02.25 | 17870 | 36044
3 | 8:00.45 | 3:54.00 | 36045 | 53594
4 | 11:54.45 | 3:43.50 | 53595 | 70369
5 | 15:38.20 | 4:11.13 | 70370 | 89207
6 | 19:49.33 | 3:54.12 | 89208 | 106769
7 | 23:43.45 | 3:41.00 | 106770 | 123344
8 | 27:24.45 | 3:55.38 | 123345 | 141007
9 | 31:20.08 | 3:42.37 | 141008 | 157694
10 | 35:02.45 | 5:38.25 | 157695 | 183069


Track 1

Filename C:\cuntfist\FLAC\Picture - Marathon (1987) [FLAC] {Touch Down, CNR}\01 - Break Away.wav

Pre-gap length 0:00:02.33

Peak level 90.9 %
Track quality 100.0 %
Test CRC E21D0BB1
Copy CRC E21D0BB1
Copy OK

Track 2

Filename C:\cuntfist\FLAC\Picture - Marathon (1987) [FLAC] {Touch Down, CNR}\02 - Vampire Of The New Age.wav

Pre-gap length 0:00:00.50

Peak level 88.0 %
Track quality 100.0 %
Test CRC CD7F03DE
Copy CRC CD7F03DE
Copy OK

Track 3

Filename C:\cuntfist\FLAC\Picture - Marathon (1987) [FLAC] {Touch Down, CNR}\03 - Money.wav

Pre-gap length 0:00:01.00

Peak level 98.8 %
Track quality 100.0 %
Test CRC C842325C
Copy CRC C842325C
Copy OK

Track 4

Filename C:\cuntfist\FLAC\Picture - Marathon (1987) [FLAC] {Touch Down, CNR}\04 - Desperate Call.wav

Peak level 85.1 %
Track quality 100.0 %
Test CRC F6E7D5B8
Copy CRC F6E7D5B8
Copy OK

Track 5

Filename C:\cuntfist\FLAC\Picture - Marathon (1987) [FLAC] {Touch Down, CNR}\05 - I'm On My Way.wav

Pre-gap length 0:00:01.37

Peak level 71.8 %
Track quality 100.0 %
Test CRC 742B5084
Copy CRC 742B5084
Copy OK

Track 6

Filename C:\cuntfist\FLAC\Picture - Marathon (1987) [FLAC] {Touch Down, CNR}\06 - We Just Can't Lose.wav

Peak level 76.6 %
Track quality 100.0 %
Test CRC 9418829A
Copy CRC 9418829A
Copy OK

Track 7

Filename C:\cuntfist\FLAC\Picture - Marathon (1987) [FLAC] {Touch Down, CNR}\07 - Don't Keep Me Waiting.wav

Pre-gap length 0:00:00.50

Peak level 89.8 %
Track quality 100.0 %
Test CRC 1F44E291
Copy CRC 1F44E291
Copy OK

Track 8

Filename C:\cuntfist\FLAC\Picture - Marathon (1987) [FLAC] {Touch Down, CNR}\08 - Get Out Of My Sight.wav

Peak level 96.1 %
Track quality 100.0 %
Test CRC 20489EF4
Copy CRC 20489EF4
Copy OK

Track 9

Filename C:\cuntfist\FLAC\Picture - Marathon (1987) [FLAC] {Touch Down, CNR}\09 - S.O.S..wav

Pre-gap length 0:00:01.13

Peak level 92.1 %
Track quality 99.9 %
Test CRC C57E47F2
Copy CRC C57E47F2
Copy OK

Track 10

Filename C:\cuntfist\FLAC\Picture - Marathon (1987) [FLAC] {Touch Down, CNR}\10 - Sarah.wav

Pre-gap length 0:00:04.25

Peak level 81.9 %
Track quality 100.0 %
Test CRC 4ACD6B15
Copy CRC 4ACD6B15
Copy OK

No errors occurred

End of status report


Picture - Marathon (1987) {Touch Down/CNR}


Thank you to the original uploader.