Subcategories

Prince and The New Power Generation - Love Symbol (1992)

Posted By: BlondStyle
Prince and The New Power Generation - Love Symbol (1992)

Prince and The New Power Generation - Love Symbol (1992)
R&B, Soul/Funk, Pop/Rock, Hip Hop | EAC Rip | FLAC, Img+CUE+LOG+Scans (TIF) | 01:14:54 | 704,46 Mb
Label: Paisley Park Records/Warner Bros. Records (USA) | Cat.# 9 45037-2 | Released: 1992-10-13
Prince and The New Power Generation - Love Symbol (1992)

The untitled 14th studio album by American recording artist Prince, and second (and final) to feature his backing band The New Power Generation, was released on October 13, 1992 by Paisley Park Records and Warner Bros. Records. The title of the album is an unpronounceable symbol as depicted in its cover art, which Prince adopted as his stage name in 1993. As the symbol was copyrighted under the title "Love Symbol #2", the album is commonly referred to as the Love Symbol Album, Symbol Album, or simply Symbol. The album contains elements of musical styles including funk, R&B, hip hop, jazz, reggae, and synthpop. The album was originally conceived as a "fantasy rock soap opera" with various spoken segues throughout. It has sold over five million copies worldwide.
~Wikipedia

Prince and The New Power Generation - Love Symbol (1992)

The New Power Generation is the most talented and versatile band Prince has ever fronted, and they fulfill their potential on The Love Symbol Album. Although the NPG factored heavily on Diamonds and Pearls, it still sounded like a solo Prince album. Symbol sounds like a band performing together, working off of each other's strengths and weaknesses. Opening with the dance smash "My Name Is Prince" and the deep funk of "Sexy M.F.," The Love Symbol Album has Prince's best dance tracks since The Black Album. But Prince wasn't content; he decided to run the gamut of modern pop/R&B/dance, and the music is uniformly accomplished and excellent. Unfortunately, he also decided to make a "rock soap opera," so the music is saddled with ridiculous lyrics and annoying sound bridges by Kirstie Alley. However, The Love Symbol Album has some of the finest, most inventive music of Prince's career.
~Review by Stephen Thomas Erlewine

Prince and The New Power Generation - Love Symbol (1992)

Prince and The New Power Generation - Love Symbol (1992)




Release of this album/CD: 1992, October, 13 [CD Paisley Park / Warner Bros. Records (USA), Cat.# 9 45037-2 / UPC: 093624503729]
©&Ⓟ 1992 Warner Bros. Records Inc. for the U.S. and WEA International Inc. for the world outside of the United States
Manufactured and distributed by Warner Bros. Records Inc., a Time Warner Company
Made in U.S.A.


Credits:

Arranged By [Strings], Conductor – Clare Fisher
Co-producer – Keith "K.C." Cohen
Horns – Brian Gallagher, Dave Jensen, Kathy J., Mike Nelson, Steve Strand
Mastered By – Brian Gardner
Mixed By – Bob Rosa, Keith "K.C." Cohen, Michael Koppelman, Steve Beltran, Tom Garneau
Performer – Damon Dickson, Kirky J., Levi Seacer Jr., Mayte, Michael Bland, Prince, Sonny T., Tommy Barbarella, Tony M.
Producer, Arranged By, Performer – The New Power Generation, Prince
Programmed By – Airiq Anest
Scratches – DJ Graves
Written-By – Prince


Tracklist:

01. My Name Is Prince (06:38 )
(Prince, Tony M.)
02. Sexy M.F. (05:26)
(Prince, Tony M., Levi Seacer, Jr.)
03. Love 2 the 9’s (05:45)
(Prince)
04. The Morning Papers (03:58)
(Prince)
05. The Max (04:31)
(Prince)
06. Segue (00:22)
(Prince)
07. Blue Light (04:38 )
(Prince)
08. I Wanna Melt With U (03:51)
(Prince)
09. Sweet Baby (04:02)
(Prince)
10. The Continental (05:31)
(Prince)
11. Damn U (04:25)
(Prince)
12. Arrogance (01:35)
(Prince)
13. The Flow (02:27)
(Prince)
14. 7 (05:13)
(Prince, Lowell Fulson, Jimmy McCracklin)
15. And God Created Woman (03:18)
(Prince)
16. 3 Chains o’ Gold (06:04)
(Prince)
17. Segue (01:30)
(Prince)
18. The Sacrifice of Victor (05:41)
(Prince)

Exact Audio Copy V1.0 beta 3 from 29. August 2011

EAC extraction logfile from 22. April 2016, 0:05

Prince & The New Power Generation / Love Symbol

Used drive : PIONEER BD-RW BDR-TD03 Adapter: 0 ID: 1

Read mode : Secure
Utilize accurate stream : Yes
Defeat audio cache : Yes
Make use of C2 pointers : No

Read offset correction : 667
Overread into Lead-In and Lead-Out : No
Fill up missing offset samples with silence : Yes
Delete leading and trailing silent blocks : No
Null samples used in CRC calculations : Yes
Used interface : Native Win32 interface for Win NT & 2000

Used output format : User Defined Encoder
Selected bitrate : 768 kBit/s
Quality : High
Add ID3 tag : No
Command line compressor : C:\Program Files (x86)\Exact Audio Copy\FLAC\FLAC.EXE
Additional command line options : -6 -V -T "ARTIST=%artist%" -T "TITLE=%title%" -T "ALBUM=%albumtitle%" -T "DATE=%year%" -T "TRACKNUMBER=%tracknr%" -T "GENRE=%genre%" -T "COMMENT=%comment%" -T "BAND=%albuminterpret%" -T "ALBUMARTIST=%albuminterpret%" -T "COMPOSER=%composer%" %haslyrics%–tag-from-file=LYRICS="%lyricsfile%"%haslyrics% -T "DISCNUMBER=%cdnumber%" -T "TOTALDISCS=%totalcds%" -T "TOTALTRACKS=%numtracks%" %hascover%–picture="%coverfile%"%hascover% %source% -o %dest%


TOC of the extracted CD

Track | Start | Length | Start sector | End sector
––––––––––––––––––––––––––––-
1 | 0:00.00 | 6:38.25 | 0 | 29874
2 | 6:38.25 | 5:25.47 | 29875 | 54296
3 | 12:03.72 | 5:45.13 | 54297 | 80184
4 | 17:49.10 | 3:57.50 | 80185 | 98009
5 | 21:46.60 | 4:30.62 | 98010 | 118321
6 | 26:17.47 | 0:21.60 | 118322 | 119956
7 | 26:39.32 | 4:38.18 | 119957 | 140824
8 | 31:17.50 | 3:50.67 | 140825 | 158141
9 | 35:08.42 | 4:01.68 | 158142 | 176284
10 | 39:10.35 | 5:31.30 | 176285 | 201139
11 | 44:41.65 | 4:25.15 | 201140 | 221029
12 | 49:07.05 | 1:35.27 | 221030 | 228181
13 | 50:42.32 | 2:26.43 | 228182 | 239174
14 | 53:09.00 | 5:13.15 | 239175 | 262664
15 | 58:22.15 | 3:18.22 | 262665 | 277536
16 | 61:40.37 | 6:03.38 | 277537 | 304799
17 | 67:44.00 | 1:30.02 | 304800 | 311551
18 | 69:14.02 | 5:40.53 | 311552 | 337104


Range status and errors

Selected range

Filename C:\Users\Desktop\Princimbol\Prince & The New Power Generation - Love Symbol.wav

Peak level 100.0 %
Extraction speed 5.0 X
Range quality 100.0 %
Test CRC 92FF6019
Copy CRC 92FF6019
Copy OK

No errors occurred


AccurateRip summary

Track 1 accurately ripped (confidence 57) [593D6423] (AR v2)
Track 2 accurately ripped (confidence 63) [B669764E] (AR v2)
Track 3 accurately ripped (confidence 63) [A6B19578] (AR v2)
Track 4 accurately ripped (confidence 64) [FDC25306] (AR v2)
Track 5 accurately ripped (confidence 62) [5079765A] (AR v2)
Track 6 accurately ripped (confidence 62) [B7F286E1] (AR v2)
Track 7 accurately ripped (confidence 64) [C9B0444A] (AR v2)
Track 8 accurately ripped (confidence 62) [697412D1] (AR v2)
Track 9 accurately ripped (confidence 62) [725C1482] (AR v2)
Track 10 accurately ripped (confidence 62) [6D29B6B5] (AR v2)
Track 11 accurately ripped (confidence 63) [103D204B] (AR v2)
Track 12 accurately ripped (confidence 62) [10FF5363] (AR v2)
Track 13 accurately ripped (confidence 62) [381CA49B] (AR v2)
Track 14 accurately ripped (confidence 64) [35AA5483] (AR v2)
Track 15 accurately ripped (confidence 63) [1DADB8AB] (AR v2)
Track 16 accurately ripped (confidence 62) [0AEFD7D2] (AR v2)
Track 17 accurately ripped (confidence 62) [057C6141] (AR v2)
Track 18 accurately ripped (confidence 60) [AAB3D1FC] (AR v2)

All tracks accurately ripped

End of status report

–– CUETools DB Plugin V2.1.3

[CTDB TOCID: iElKeB9vlgbMja5y03t42XrTtZY-] found, Submit result: iElKeB9vlgbMja5y03t42XrTtZY- has been confirmed
[f560f90d] (081/106) Accurately ripped
[b063616e] (001/106) No match
[638eceed] (001/106) No match
[62ad2d38] (001/106) No match
[2e033062] (001/106) No match
[0edf9b62] (001/106) No match
[9f2b97a7] (001/106) No match
[7ee6c6c7] (001/106) No match
[2797bfa5] (001/106) No match
[ebcbac12] (001/106) No match
[ce5cb44b] (001/106) No match
[ab1caf69] (001/106) No match
[703ed975] (001/106) No match
[1378fc82] (001/106) No match
[039ce19d] (001/106) No match
[5b5f31c6] (001/106) No match
[915d30a6] (001/106) No match
[99357dd0] (001/106) No match
[461358af] (001/106) No match
[18fcde81] (001/106) No match
[570a9c51] (001/106) No match
[173c5d14] (001/106) No match
[af94a37c] (001/106) No match
[502d754c] (001/106) No match
[c61ec202] (001/106) No match
[d880d1e2] (001/106) No match


==== Log checksum 7FF6B9BA728F47C585EB3A6E3CD8652D28D434A656AD9DEB94F5E4FC8C86582D ====

––––––––––––––––––––––––––––––––––––––––
Analyzed: Prince & The New Power Generation / Love Symbol
––––––––––––––––––––––––––––––––––––––––

DR Peak RMS Duration Track
––––––––––––––––––––––––––––––––––––––––
DR7 0.00 dB -8.19 dB 6:38 01-My Name is Prince
DR8 0.00 dB -9.50 dB 5:26 02-Sexy M.F.
DR8 0.00 dB -9.88 dB 5:45 03-Love 2 the 9's
DR7 0.00 dB -9.84 dB 3:58 04-The Morning Papers
DR6 0.00 dB -7.88 dB 4:31 05-The Max
DR15 -4.18 dB -23.83 dB 0:22 06-Segue
DR8 0.00 dB -9.81 dB 4:38 07-Blue Light
DR7 0.00 dB -7.87 dB 3:51 08-I Wanna Melt With U
DR10 0.00 dB -10.92 dB 4:02 09-Sweet Baby
DR8 0.00 dB -9.31 dB 5:31 10-The Continental
DR9 0.00 dB -11.49 dB 4:25 11-Damn U
DR8 0.00 dB -10.68 dB 1:35 12-Arrogance
DR9 0.00 dB -9.50 dB 2:27 13-The Flow
DR8 0.00 dB -9.37 dB 5:13 14-7
DR7 0.00 dB -10.28 dB 3:18 15-And God Created Woman
DR7 0.00 dB -9.45 dB 6:04 16-3 Chains O' Gold
DR16 -3.27 dB -22.21 dB 1:30 17-Segue
DR7 0.00 dB -8.44 dB 5:41 18-The Sacrifice of Victor
––––––––––––––––––––––––––––––––––––––––

Number of tracks: 18
Official DR value: DR9

Samplerate: 44100 Hz
Channels: 2
Bits per sample: 16
Bitrate: 970 kbps
Codec: FLAC
================================================================================

Thanks to original releaser

♫~Welcome To My Blog~♫

password: BlondStyle