Subcategories
Tags
Language
Tags

Procol Harum - Procol Harum (1967)

Posted By: v3122
Procol Harum - Procol Harum (1967)

Procol Harum - Procol Harum (1967)
EAC | Flac(Image) + Cue + Log & MP3 CBR 320Kbps
2015 | Esoteric, ECLEC 22498 | ~ 237 or 112 Mb | Scans(jpg) -> 79 Mb
Progressive Rock

Procol Harum's self-titled, debut album bombed in England, appearing six months after "A Whiter Shade of Pale" and "Homburg" with neither hit song on it. The LP was successful in America, where albums sold more easily, but especially since it did include "A Whiter Shade of Pale" and was reissued with a sticker emphasizing the presence of the original "Conquistador," a re-recording which became a hit in 1972. The music is an engaging meld of psychedelic rock, blues, and classical influences, filled with phantasmagorical lyrics, bold (but not flashy) organ by Matthew Fisher, and Robin Trower's most tasteful and restrained guitar. "Conquistador," "Kaleidoscope," "A Christmas Camel," and the Bach-influenced "Repent Walpurgis" are superb tracks, and "Good Captain Clack" is great, almost Kinks-like fun. Not everything here works, but it holds up better than most psychedelic or progressive rock.

by Bruce Eder, allmusic
Procol Harum - Procol Harum (1967):

Procol Harum - Procol Harum (1967)

Tracklist:

01. Conquistador 2:41
02. She Wandered Through The Garden Fence 3:25
03. Something Following Me 3:38
04. Mabel 1:54
05. Cerdes (Outside The Gates Of) 5:04
06. A Christmas Camel 4:50
07. Kaleidoscope 2:55
08. Salad Days (Are Here Again) 3:40
09. Good Captain Clack 1:31
10. Repent Walpurgis 5:06
11. A Whiter Shade Of Pale (Bonus Track) (A-Side Of Single) 4:08
12. Lime Street Blues (Bonus Track) (B-Side Of Single) 2:52
13. Homburg (Bonus Track) (A-Side Of Single) 3:57
14. Good Captain Clack (Bonus Track) (B-Side Of Single) 1:30

Exact Audio Copy V1.3 from 2. September 2016

EAC extraction logfile from 11. March 2017, 22:37

Procol Harum / Procol Harum (ECLEC 2498)

Used drive : PLEXTOR DVDR PX-891SA Adapter: 1 ID: 0

Read mode : Secure
Utilize accurate stream : Yes
Defeat audio cache : Yes
Make use of C2 pointers : No

Read offset correction : 6
Overread into Lead-In and Lead-Out : No
Fill up missing offset samples with silence : Yes
Delete leading and trailing silent blocks : No
Null samples used in CRC calculations : Yes
Used interface : Native Win32 interface for Win NT & 2000

Used output format : User Defined Encoder
Selected bitrate : 128 kBit/s
Quality : High
Add ID3 tag : No
Command line compressor : C:\Program Files (x86)\Exact Audio Copy\Flac\flac.exe
Additional command line options : -V -8 -T "Genre=%genre%" -T "Artist=%artist%" -T "Title=%title%" -T "Album=%albumtitle%" -T "Date=%year%" -T "Tracknumber=%tracknr%" -T "Comment=%comment%" %source%


TOC of the extracted CD

Track | Start | Length | Start sector | End sector
––––––––––––––––––––––––––––-
1 | 0:00.00 | 2:40.39 | 0 | 12038
2 | 2:40.39 | 3:24.50 | 12039 | 27388
3 | 6:05.14 | 3:37.67 | 27389 | 43730
4 | 9:43.06 | 1:54.12 | 43731 | 52292
5 | 11:37.18 | 5:03.72 | 52293 | 75089
6 | 16:41.15 | 4:49.51 | 75090 | 96815
7 | 21:30.66 | 2:54.47 | 96816 | 109912
8 | 24:25.38 | 3:40.00 | 109913 | 126412
9 | 28:05.38 | 1:31.34 | 126413 | 133271
10 | 29:36.72 | 5:05.64 | 133272 | 156210
11 | 34:42.61 | 4:08.31 | 156211 | 174841
12 | 38:51.17 | 2:51.71 | 174842 | 187737
13 | 41:43.13 | 3:57.12 | 187738 | 205524
14 | 45:40.25 | 1:29.71 | 205525 | 212270


Range status and errors

Selected range

Filename H:\dafnaplus\Procol Harum - Procol Harum\Procol Harum - Procol Harum (ECLEC 2498).wav

Peak level 99.4 %
Extraction speed 7.4 X
Range quality 99.9 %
Test CRC 0EA97039
Copy CRC 0EA97039
Copy OK

No errors occurred


AccurateRip summary

Track 1 accurately ripped (confidence 7) [43195CD0] (AR v2)
Track 2 accurately ripped (confidence 7) [CB637F6C] (AR v2)
Track 3 accurately ripped (confidence 7) [28D33A07] (AR v2)
Track 4 accurately ripped (confidence 7) [626E7A1C] (AR v2)
Track 5 accurately ripped (confidence 7) [2FFF4479] (AR v2)
Track 6 accurately ripped (confidence 7) [8F981135] (AR v2)
Track 7 accurately ripped (confidence 7) [6AA97E73] (AR v2)
Track 8 accurately ripped (confidence 7) [FF140DE3] (AR v2)
Track 9 accurately ripped (confidence 7) [BDFD4E62] (AR v2)
Track 10 accurately ripped (confidence 7) [46608C28] (AR v2)
Track 11 accurately ripped (confidence 7) [3E31AE99] (AR v2)
Track 12 accurately ripped (confidence 7) [1CF905DB] (AR v2)
Track 13 accurately ripped (confidence 7) [E449E7F8] (AR v2)
Track 14 accurately ripped (confidence 7) [48716C70] (AR v2)

All tracks accurately ripped

End of status report

–– CUETools DB Plugin V2.1.6

[CTDB TOCID: LzKdyludi3c2nwkImK6O8gQXVnY-] found
Submit result: already submitted
Track | CTDB Status
1 | (14/14) Accurately ripped
2 | (14/14) Accurately ripped
3 | (14/14) Accurately ripped
4 | (14/14) Accurately ripped
5 | (14/14) Accurately ripped
6 | (14/14) Accurately ripped
7 | (14/14) Accurately ripped
8 | (14/14) Accurately ripped
9 | (14/14) Accurately ripped
10 | (14/14) Accurately ripped
11 | (14/14) Accurately ripped
12 | (14/14) Accurately ripped
13 | (14/14) Accurately ripped
14 | (14/14) Accurately ripped


==== Log checksum FFE22AD8FCCA22C1593ECB02228C596AC569526CF062F8F17A6C4485EAB15203 ====

foobar2000 1.2.9 / Dynamic Range Meter 1.1.1
log date: 2017-03-12 18:31:53

––––––––––––––––––––––––––––––––––––––––
Analyzed: Procol Harum / Procol Harum (ECLEC 2498)
––––––––––––––––––––––––––––––––––––––––

DR Peak RMS Duration Track
––––––––––––––––––––––––––––––––––––––––
DR10 -0.05 dB -12.20 dB 2:41 01-Conquistador
DR11 -0.65 dB -13.43 dB 3:25 02-She Wandered Through The Garden Fence
DR13 -0.05 dB -14.43 dB 3:38 03-Something Following Me
DR11 -0.23 dB -13.25 dB 1:54 04-Mabel
DR12 -0.05 dB -14.04 dB 5:04 05-Cerdes (Outside The Gates Of)
DR12 -0.05 dB -13.99 dB 4:50 06-A Christmas Camel
DR11 -0.05 dB -12.93 dB 2:55 07-Kaleidoscope
DR10 -1.25 dB -12.39 dB 3:40 08-Salad Days (Are Here Again)
DR10 -0.90 dB -13.63 dB 1:31 09-Good Captain Clack
DR11 -0.05 dB -13.96 dB 5:06 10-Repent Walpurgis
DR11 -0.05 dB -12.81 dB 4:08 11-A Whiter Shade Of Pale (Bonus Track) (A-Side Of Single)
DR13 -0.05 dB -14.68 dB 2:52 12-Lime Street Blues (Bonus Track) (B-Side Of Single)
DR10 -1.58 dB -12.92 dB 3:57 13-Homburg (Bonus Track) (A-Side Of Single)
DR10 -0.95 dB -14.84 dB 1:30 14-Good Captain Clack (Bonus Track) (B-Side Of Single)
––––––––––––––––––––––––––––––––––––––––

Number of tracks: 14
Official DR value: DR11

Samplerate: 44100 Hz
Channels: 2
Bits per sample: 16
Bitrate: 681 kbps
Codec: FLAC

[CUETools log; Date: 12.03.2017 18:28:47; Version: 2.1.4]
[CTDB TOCID: LzKdyludi3c2nwkImK6O8gQXVnY-] found.
Track | CTDB Status
1 | (14/14) Accurately ripped
2 | (14/14) Accurately ripped
3 | (14/14) Accurately ripped
4 | (14/14) Accurately ripped
5 | (14/14) Accurately ripped
6 | (14/14) Accurately ripped
7 | (14/14) Accurately ripped
8 | (14/14) Accurately ripped
9 | (14/14) Accurately ripped
10 | (14/14) Accurately ripped
11 | (14/14) Accurately ripped
12 | (14/14) Accurately ripped
13 | (14/14) Accurately ripped
14 | (14/14) Accurately ripped
[AccurateRip ID: 00189ee7-010892b6-ca0b0e0e] found.
Track [ CRC | V2 ] Status
01 [d7e72122|43195cd0] (0+7/7) Accurately ripped
02 [b79ec115|cb637f6c] (0+7/7) Accurately ripped
03 [638bd74b|28d33a07] (0+7/7) Accurately ripped
04 [4112a47a|626e7a1c] (0+7/7) Accurately ripped
05 [f3c15869|2fff4479] (0+7/7) Accurately ripped
06 [8443c2eb|8f981135] (0+7/7) Accurately ripped
07 [e6d2dad6|6aa97e73] (0+7/7) Accurately ripped
08 [8381506b|ff140de3] (0+7/7) Accurately ripped
09 [d0129a48|bdfd4e62] (0+7/7) Accurately ripped
10 [98cdbd7d|46608c28] (0+7/7) Accurately ripped
11 [f87d9e9a|3e31ae99] (0+7/7) Accurately ripped
12 [18cfad8a|1cf905db] (0+7/7) Accurately ripped
13 [3a5396a9|e449e7f8] (0+7/7) Accurately ripped
14 [5cd13a4e|48716c70] (0+7/7) Accurately ripped

Track Peak [ CRC32 ] [W/O NULL] [ LOG ]
– 99,4 [0EA97039] [8D8DBF84] CRC32
01 99,4 [0E88815F] [7D01DDD3]
02 92,7 [032905E6] [A467BA51]
03 99,4 [1001FEA5] [278F8DB9]
04 97,4 [E87A96C8] [CA176F31]
05 99,4 [DD4D609A] [A87C6079]
06 99,4 [04401A82] [2B1AC0D9]
07 99,4 [AACB2E31] [D983CC9E]
08 86,5 [B4164396] [57AEC4D3]
09 90,1 [9489F521] [D82DA86F]
10 99,4 [EB79B943] [BF79DE22]
11 99,4 [F52C2B73] [DF00B0D3]
12 99,4 [A9CC74D9] [B6FA5D5F]
13 83,4 [5B45F174] [9A93B3DD]
14 89,6 [EE590811] [3CCC69CE]

Procol Harum - Procol Harum (1967)

All thanks go to dafnaplus

Procol Harum in my Blog

Download Procol Harum - Procol Harum (1967):