Subcategories
Tags
Language
Tags

Procol Harum - Broken Barricades (1971) [Victor VICP-62043, Japan]

Posted By: v3122
Procol Harum - Broken Barricades (1971) [Victor VICP-62043, Japan]

Procol Harum - Broken Barricades (1971)
EAC | Flac(Image) + Cue + Log & MP3 CBR 320Kbps
2003 | Victor, VICP-62043 | ~ 224 or 83 Mb | Scans(600dpi, jpg) -> 53 Mb
Psychedelic Rock / Prog Rock / Classic Rock

Despite the departure of organist Matthew Fisher, Procol Harum survived, and this album is ample proof. Fisher was one of the prime architects of the Harum sound, and his work on such classics as "Shine on Brightly" and, of course, "Whiter Shade of Pale" underline that. Procol continued as a four-piece, and it was indeed a good thing that they decided not to replace Fisher. The sound of the band on this album is a bit sparser, but definitely not without dimension and dynamics. "Simple Sister," one of the finest Gary Brooker/Keith Reid compositions, is truly glorious, with Robin Trower's frightening lead guitar work juxtaposed nicely against a wonderful string arrangement. Several other tracks are first rate, including "Power Failure" and "Playmate of the Mouth." Along with Little Feat, Procol Harum was a great survivor among rock bands that lost a key member. The proof is in these grooves.

by Matthew Greenwald, AMG
Procol Harum - Broken Barricades (1971) [Victor VICP-62043, Japan]


Procol Harum - Broken Barricades (1971):

Procol Harum - Broken Barricades (1971) [Victor VICP-62043, Japan]

Tracklist:

01. Simple Sister 5:52
02. Broken Barricades 3:13
03. Memorial Drive 3:47
04. Luskus Delph 3:48
05. Power Failure 4:33
06. Song for a Dreamer 5:40
07. Playmate of the Mouth 5:06
08. Poor Mohammed 3:07

Exact Audio Copy V1.1 from 23. June 2015

EAC extraction logfile from 17. October 2015, 16:15

Procol Harum / Broken Barricades (VICP-62043)

Used drive : PLEXTOR DVDR PX-891SA Adapter: 1 ID: 0

Read mode : Secure
Utilize accurate stream : Yes
Defeat audio cache : Yes
Make use of C2 pointers : No

Read offset correction : 6
Overread into Lead-In and Lead-Out : No
Fill up missing offset samples with silence : Yes
Delete leading and trailing silent blocks : No
Null samples used in CRC calculations : Yes
Used interface : Native Win32 interface for Win NT & 2000

Used output format : User Defined Encoder
Selected bitrate : 128 kBit/s
Quality : High
Add ID3 tag : No
Command line compressor : C:\Program Files (x86)\Exact Audio Copy\Flac\flac.exe
Additional command line options : -V -8 -T "Genre=%genre%" -T "Artist=%artist%" -T "Title=%title%" -T "Album=%albumtitle%" -T "Date=%year%" -T "Tracknumber=%tracknr%" -T "Comment=%comment%" %source%


TOC of the extracted CD

Track | Start | Length | Start sector | End sector
––––––––––––––––––––––––––––-
1 | 0:00.00 | 5:51.68 | 0 | 26392
2 | 5:51.68 | 3:13.10 | 26393 | 40877
3 | 9:05.03 | 3:47.07 | 40878 | 57909
4 | 12:52.10 | 3:47.60 | 57910 | 74994
5 | 16:39.70 | 4:33.35 | 74995 | 95504
6 | 21:13.30 | 5:39.40 | 95505 | 120969
7 | 26:52.70 | 5:06.23 | 120970 | 143942
8 | 31:59.18 | 3:06.67 | 143943 | 157959


Range status and errors

Selected range

Filename H:\dafnaplus\Procol Harum\Broken Barricades\Procol Harum - Broken Barricades (VICP-62043).wav

Peak level 98.8 %
Extraction speed 2.7 X
Range quality 100.0 %
Test CRC A41174AF
Copy CRC A41174AF
Copy OK

No errors occurred


AccurateRip summary

Track 1 accurately ripped (confidence 3) [45063BA8] (AR v2)
Track 2 accurately ripped (confidence 3) [3D083E5E] (AR v2)
Track 3 accurately ripped (confidence 3) [AE552C85] (AR v2)
Track 4 accurately ripped (confidence 3) [BB9917EF] (AR v2)
Track 5 accurately ripped (confidence 3) [66F2AA5B] (AR v2)
Track 6 accurately ripped (confidence 3) [50AE1DD1] (AR v2)
Track 7 accurately ripped (confidence 3) [A79FAA30] (AR v2)
Track 8 accurately ripped (confidence 3) [CFBD40A7] (AR v2)

All tracks accurately ripped

End of status report

–– CUETools DB Plugin V2.1.6

[CTDB TOCID: INJcKuJJJijX7_12bXfN66rg8kU-] found
Submit result: INJcKuJJJijX7_12bXfN66rg8kU- has been confirmed
Track | CTDB Status
1 | (1/1) Accurately ripped
2 | (1/1) Accurately ripped
3 | (1/1) Accurately ripped
4 | (1/1) Accurately ripped
5 | (1/1) Accurately ripped
6 | (1/1) Accurately ripped
7 | (1/1) Accurately ripped
8 | (1/1) Accurately ripped


==== Log checksum 11248C49EF6C536BCD422BFD0E574ACC95D1D199088D8D29EB910C50C045333B ====

foobar2000 1.2.9 / Dynamic Range Meter 1.1.1
log date: 2015-10-22 16:28:16

––––––––––––––––––––––––––––––––––––––––
Analyzed: Procol Harum / Broken Barricades (VICP-62043)
––––––––––––––––––––––––––––––––––––––––

DR Peak RMS Duration Track
––––––––––––––––––––––––––––––––––––––––
DR7 -0.10 dB -9.13 dB 5:52 01-Simple Sister
DR9 -0.10 dB -11.68 dB 3:13 02-Broken Barricades
DR8 -0.10 dB -9.64 dB 3:47 03-Memorial Drive
DR8 -0.10 dB -10.19 dB 3:48 04-Luskus Delph
DR8 -0.10 dB -10.60 dB 4:33 05-Power Failure
DR8 -0.10 dB -10.10 dB 5:40 06-Song for a Dreamer
DR8 -0.10 dB -9.46 dB 5:06 07-Playmate of the Mouth
DR7 -0.10 dB -9.26 dB 3:07 08-Poor Mohammed
––––––––––––––––––––––––––––––––––––––––

Number of tracks: 8
Official DR value: DR8

Samplerate: 44100 Hz
Channels: 2
Bits per sample: 16
Bitrate: 866 kbps
Codec: FLAC

[CUETools log; Date: 22.10.2015 2:17:11; Version: 2.1.4]
[CTDB TOCID: INJcKuJJJijX7_12bXfN66rg8kU-] found.
Track | CTDB Status
1 | (2/2) Accurately ripped
2 | (2/2) Accurately ripped
3 | (2/2) Accurately ripped
4 | (2/2) Accurately ripped
5 | (2/2) Accurately ripped
6 | (2/2) Accurately ripped
7 | (2/2) Accurately ripped
8 | (2/2) Accurately ripped
[AccurateRip ID: 000af6da-0048dc80-59083a08] found.
Track [ CRC | V2 ] Status
01 [ffc591e1|45063ba8] (0+3/3) Accurately ripped
02 [4e47ff6f|3d083e5e] (0+3/3) Accurately ripped
03 [cf17dede|ae552c85] (0+3/3) Accurately ripped
04 [85d9322e|bb9917ef] (0+3/3) Accurately ripped
05 [64764f9b|66f2aa5b] (0+3/3) Accurately ripped
06 [fe8c282f|50ae1dd1] (0+3/3) Accurately ripped
07 [c0d2541a|a79faa30] (0+3/3) Accurately ripped
08 [b906c54c|cfbd40a7] (0+3/3) Accurately ripped
Offsetted by -664:
01 [04307c09] (0/3) No match (V2 was not tested)
02 [f9b0768f] (0/3) No match (V2 was not tested)
03 [124f2956] (0/3) No match (V2 was not tested)
04 [8d04e016] (0/3) No match (V2 was not tested)
05 [04d2a28b] (0/3) No match (V2 was not tested)
06 [50db8207] (0/3) No match (V2 was not tested)
07 [3766d37a] (0/3) No match (V2 was not tested)
08 [5c1a09dc] (0/3) No match (V2 was not tested)

Track Peak [ CRC32 ] [W/O NULL] [ LOG ]
– 98,8 [A41174AF] [92CB9404] CRC32
01 98,8 [57DDCF4A] [83EA1D12]
02 98,8 [16B31236] [FD28FB77]
03 98,8 [414B8F9D] [EF51D487]
04 98,8 [2EFC11EE] [F38FC333]
05 98,8 [F5870E15] [16FACBF7]
06 98,8 [AE86DB23] [5F791F01]
07 98,8 [C6CAFB7D] [9C06E990]
08 98,8 [F508BB0B] [A0911595]

Procol Harum - Broken Barricades (1971) [Victor VICP-62043, Japan]

All thanks go to dafnaplus

Procol Harum in my Blog

Download Procol Harum - Broken Barricades (1971):