Subcategories
Tags
Language
Tags

Psycho Praxis - Echoes From The Deep (2012)

Posted By: gribovar
Psycho Praxis - Echoes From The Deep (2012)

Psycho Praxis - Echoes From The Deep (2012)
EAC Rip | FLAC (image+.cue+log) - 328 MB | MP3 CBR 320 kbps (LAME 3.93) - 109 MB | Covers - 120 MB
Genre: Progressive Rock | RAR 3% Rec. | Label: Black Widow Records (BWRCD 147-2)

Psycho Praxis are a near perfect sound mélange of British heavy prog and Italian progressive rock. Hailing from Brescia the band's debut album "Echoes from the Deep" doesn't sound like a new band trying to cash in on retro-prog, rather, it sounds like an authentic lost album from the early 70s with quality thrills and chills. Imagine the slightly creepy and unpredictable edge of Van der Graaf Generator mixed with the whirling, feverish flutes of Osanna, and the keyboard textures of Metamorfosi. The band employ English vocals rather than Italian, but even the hardest core RPI fan will surely forgive them because the music is so good.

Tracklist:
01. Privileged Station
02. P.S.M.
03. Hoodlums
04. Black Crow
05. Awareness
06. Noon

Total time: 46:32

Exact Audio Copy V1.3 from 2. September 2016

Отчёт EAC об извлечении, выполненном 29. апреля 2021, 16:48

Psycho Praxis / Echoes From The Deep

Дисковод: HL-DT-STDVDRAM GT70N Adapter: 1 ID: 0

Режим чтения : Достоверность
Использование точного потока : Да
Отключение кэша аудио : Да
Использование указателей C2 : Нет

Коррекция смещения при чтении : 103
Способность читать области Lead-in и Lead-out : Нет
Заполнение пропущенных сэмплов тишиной : Да
Удаление блоков с тишиной в начале и конце : Нет
При вычислениях CRC использовались нулевые сэмплы : Да
Интерфейс : Встроенный Win32-интерфейс для Win NT/2000

Выходной формат : Пользовательский кодировщик
Выбранный битрейт : 1024 kBit/s
Качество : Высокий
Добавление ID3-тега : Нет
Утилита сжатия : C:\Program Files (x86)\Exact Audio Copy\Flac\flac.exe
Дополнительные параметры : -V -8 -T "Date=%year%" -T "Genre=%genre%" %source%


TOC извлечённого CD

Трек | Старт | Длительность | Начальный сектор | Конечный сектор
––––––––––––––––––––––––––––––––––-
1 | 0:00.00 | 8:06.55 | 0 | 36504
2 | 8:06.55 | 8:16.74 | 36505 | 73778
3 | 16:23.54 | 7:44.57 | 73779 | 108635
4 | 24:08.36 | 9:09.29 | 108636 | 149839
5 | 33:17.65 | 5:55.44 | 149840 | 176508
6 | 39:13.34 | 7:18.50 | 176509 | 209408


Характеристики диапазона извлечения и сообщения об ошибках

Выбранный диапазон

Имя файла D:\Psycho Praxis - Echoes From The Deep (CD, Black Widow Records - BWRCD 147-2)\Psycho Praxis - Echoes From The Deep.wav

Пиковый уровень 97.9 %
Скорость извлечения 4.6 X
Качество диапазона 99.9 %
CRC теста 27117EF0
CRC копии 27117EF0
Копирование… OK

Ошибок не произошло


AccurateRip: сводка

Трек 1 : извлечено точно (доверие 3) [4EDE1A1A] (AR v2)
Трек 2 : извлечено точно (доверие 3) [E56A573E] (AR v2)
Трек 3 : извлечено точно (доверие 3) [1C415A9B] (AR v2)
Трек 4 : извлечено точно (доверие 3) [D491F5C9] (AR v2)
Трек 5 : извлечено точно (доверие 3) [1E811443] (AR v2)
Трек 6 : извлечено точно (доверие 3) [D4E1C5AE] (AR v2)

Все треки извлечены точно

Конец отчёта

–– CUETools DB Plugin V2.1.6

[CTDB TOCID: 3aVLBanelKivfyZbyZqOho8nexg-] found
Submit result: 3aVLBanelKivfyZbyZqOho8nexg- has been confirmed
Track | CTDB Status
1 | (9/9) Accurately ripped
2 | (9/9) Accurately ripped
3 | (9/9) Accurately ripped
4 | (9/9) Accurately ripped
5 | (9/9) Accurately ripped
6 | (9/9) Accurately ripped


==== Контрольная сумма отчёта C0CAC63B0760594783B48DBBBCA339F88BDE8E76A705338D42F78D2F0D358EB4 ====

[CUETools log; Date: 03.05.2021 15:29:15; Version: 2.1.4]
[CTDB TOCID: 3aVLBanelKivfyZbyZqOho8nexg-] found.
Track | CTDB Status
1 | (10/10) Accurately ripped
2 | (10/10) Accurately ripped
3 | (10/10) Accurately ripped
4 | (10/10) Accurately ripped
5 | (10/10) Accurately ripped
6 | (10/10) Accurately ripped
[AccurateRip ID: 000b83f6-003d14c1-610ae806] found.
Track [ CRC | V2 ] Status
01 [44619f2f|4ede1a1a] (0+3/3) Accurately ripped
02 [f5addd34|e56a573e] (0+3/3) Accurately ripped
03 [58a91d86|1c415a9b] (0+3/3) Accurately ripped
04 [b8a1f6b5|d491f5c9] (0+3/3) Accurately ripped
05 [0d0393a8|1e811443] (0+3/3) Accurately ripped
06 [4dc0f965|d4e1c5ae] (0+3/3) Accurately ripped

Track Peak [ CRC32 ] [W/O NULL] [ LOG ]
– 97,9 [27117EF0] [606F7E67] CRC32
01 89,3 [E8578F55] [15ED8463]
02 97,7 [04115CEE] [B684F0A1]
03 89,9 [367949CF] [1C9694D5]
04 86,7 [A87C12F1] [9A315285]
05 97,3 [945B40DF] [B58B7979]
06 97,9 [A8A60B0D] [33107BB5]

Thanks to Verbizki66