Tags
Language
Tags

Quatuor Heutling, Heinz-Otto Graf - Mozart: Les Quatuors à cordes, Les Quintettes à cordes [8CDs] (1997)

Posted By: ArlegZ
Quatuor Heutling, Heinz-Otto Graf - Mozart: Les Quatuors à cordes, Les Quintettes à cordes [8CDs] (1997)

Quatuor Heutling, Heinz-Otto Graf - Mozart: Les Quatuors à cordes, Les Quintettes à cordes (1997)
EAC | FLAC | Image (Cue & Log) ~ 2,79 Gb | Total time: 10:00:51 | Scans included
Classical | Label: EMI Classics ‎| 5 72186 2 | Recorded: 1967, 1968

These quartets were recorded in sumptuous sound from December 1967 to the middle of ’68. Remastering can lead to shrillness which undermines intonation – but not here. This sounds fabulous above the stave.
… This is so easy on the ear and yet entrancingly so. Nothing here is anaemic or stale. The tone and intonation of the ensemble are exemplary.

Performer:
Quatuor Heutling
Heinz-Otto Graf, deuxieme alto (Quintettes)

Track List:
CD1:
01-04. Quatuor No 1, K. 80
05-07. Quatuor No 2, K. 155
08-10. Quatuor No 3, K. 156
11-13. Quatuor No 4, K. 157
14-16. Quatuor No 5, K. 158
17-19. Quatuor No 6, K. 159
CD2:
01-03. Quatuor No 7, K. 160
04-07. Quatuor No 8, K. 168
08-11. Quatuor No 9, K. 169
12-15. Quatuor No 10, K. 170
16-19. Quatuor No 11, K. 171
CD3:
01-04. Quatuor No 12, K. 172
05-08. Quatuor No 13, K. 173
09-12. Quatuor No 14, K. 387
13-16. Quintette No 2, K. 406
CD4:
01-04. Quatuor No 15, K. 421
05-08. Quatuor No 16, K. 428
19-12. Quatuor No 17, K. 458 "La Chasse"
CD5:
01-04. Quatuor No 18, K. 464
05-08. Quatuor No 19, K. 465 "Les Dissonances"
09-12. Quatuor No 22, K. 589
CD6:
01-04. Quatuor No 20, K. 499
05-08. Quatuor No 21, K. 575
09-12. Quatuor No 23, K. 590
CD7:
01-04. Quintette No 2, K. 515
05-08. Quintette No 2, K. 516
CD8:
01-04. Quintette No 2, K. 174
05-08. Quintette No 2, K. 593
09-12. Quintette No 2, K. 614



Exact Audio Copy V1.3 from 2. September 2016

EAC extraction logfile from 3. June 2020, 15:22

Quatuor Heutling / Mozart Quartets

Used drive : HL-DT-STDVD+-RW GU90N Adapter: 1 ID: 0

Read mode : Secure
Utilize accurate stream : Yes
Defeat audio cache : No
Make use of C2 pointers : No

Read offset correction : 102
Overread into Lead-In and Lead-Out : No
Fill up missing offset samples with silence : Yes
Delete leading and trailing silent blocks : No
Null samples used in CRC calculations : Yes
Used interface : Native Win32 interface for Win NT & 2000

Used output format : User Defined Encoder
Selected bitrate : 1024 kBit/s
Quality : High
Add ID3 tag : No
Command line compressor : C:\Program Files (x86)\Exact Audio Copy\Flac\flac.exe
Additional command line options : -8 -e -p -V -T "ARTIST=%artist%" -T "TITLE=%title%" -T "ALBUM=%albumtitle%" -T "DATE=%year%" -T "TRACKNUMBER=%tracknr%" -T "GENRE=%genre%" -T "PERFORMER=%albuminterpret%" -T "COMPOSER=%composer%" %haslyrics%–tag-from-file=LYRICS="%lyricsfile%"%haslyrics% -T "ALBUMARTIST=%albumartist%" -T "DISCNUMBER=%cdnumber%" -T "TOTALDISCS=%totalcds%" -T "TOTALTRACKS=%numtracks%" -T "COMMENT=%comment%" %source% -o %dest%


TOC of the extracted CD

Track | Start | Length | Start sector | End sector
––––––––––––––––––––––––––––-
1 | 0:00.00 | 5:03.20 | 0 | 22744
2 | 5:03.20 | 3:18.30 | 22745 | 37624
3 | 8:21.50 | 3:03.62 | 37625 | 51411
4 | 11:25.37 | 2:17.33 | 51412 | 61719
5 | 13:42.70 | 3:38.25 | 61720 | 78094
6 | 17:21.20 | 3:44.07 | 78095 | 94901
7 | 21:05.27 | 1:30.23 | 94902 | 101674
8 | 22:35.50 | 3:04.17 | 101675 | 115491
9 | 25:39.67 | 5:56.18 | 115492 | 142209
10 | 31:36.10 | 3:59.50 | 142210 | 160184
11 | 35:35.60 | 5:35.35 | 160185 | 185344
12 | 41:11.20 | 4:05.00 | 185345 | 203719
13 | 45:16.20 | 1:58.30 | 203720 | 212599
14 | 47:14.50 | 2:57.70 | 212600 | 225944
15 | 50:12.45 | 5:55.27 | 225945 | 252596
16 | 56:07.72 | 7:10.10 | 252597 | 284856
17 | 63:18.07 | 4:32.25 | 284857 | 305281
18 | 67:50.32 | 5:23.73 | 305282 | 329579
19 | 73:14.30 | 2:28.52 | 329580 | 340731


Range status and errors

Selected range

Filename D:\A-upload\Mozart-Heutling Qt\CD-1\Quatuor Heutling - Mozart Quartets.wav

Peak level 99.9 %
Extraction speed 5.8 X
Range quality 99.9 %
Test CRC 54AB00E7
Copy CRC 54AB00E7
Copy OK

No errors occurred


AccurateRip summary

Track 1 accurately ripped (confidence 9) [C03AE60D] (AR v2)
Track 2 accurately ripped (confidence 9) [6636A858] (AR v2)
Track 3 accurately ripped (confidence 9) [FE79ED59] (AR v2)
Track 4 accurately ripped (confidence 9) [98FEEC52] (AR v2)
Track 5 accurately ripped (confidence 9) [3D130A26] (AR v2)
Track 6 accurately ripped (confidence 9) [34861C92] (AR v2)
Track 7 accurately ripped (confidence 9) [8E83A9F7] (AR v2)
Track 8 accurately ripped (confidence 9) [5804312C] (AR v2)
Track 9 accurately ripped (confidence 9) [9869208C] (AR v2)
Track 10 accurately ripped (confidence 9) [2AA8D078] (AR v2)
Track 11 accurately ripped (confidence 9) [7D41A62A] (AR v2)
Track 12 accurately ripped (confidence 9) [206EDC69] (AR v2)
Track 13 accurately ripped (confidence 9) [937467DA] (AR v2)
Track 14 accurately ripped (confidence 9) [948926D4] (AR v2)
Track 15 accurately ripped (confidence 9) [68B1A1BA] (AR v2)
Track 16 accurately ripped (confidence 9) [AC59EDC6] (AR v2)
Track 17 accurately ripped (confidence 9) [753A63DA] (AR v2)
Track 18 accurately ripped (confidence 9) [6B07362C] (AR v2)
Track 19 accurately ripped (confidence 9) [2683F4EE] (AR v2)

All tracks accurately ripped

End of status report

–– CUETools DB Plugin V2.1.6

[CTDB TOCID: AInPfMu6O5YYAULR64WRWCw9gc8-] found
Submit result: AInPfMu6O5YYAULR64WRWCw9gc8- has been confirmed
Track | CTDB Status
1 | (10/11) Accurately ripped
2 | (10/11) Accurately ripped
3 | (10/11) Accurately ripped
4 | (10/11) Accurately ripped
5 | (10/11) Accurately ripped
6 | (10/11) Accurately ripped
7 | (10/11) Accurately ripped
8 | (10/11) Accurately ripped
9 | (10/11) Accurately ripped
10 | (10/11) Accurately ripped
11 | (10/11) Accurately ripped
12 | (10/11) Accurately ripped
13 | (10/11) Accurately ripped
14 | (10/11) Accurately ripped
15 | (10/11) Accurately ripped
16 | (11/11) Accurately ripped
17 | (10/11) Accurately ripped
18 | (10/11) Accurately ripped
19 | ( 9/11) Accurately ripped


==== Log checksum 11D0470A3221F386FC9F489FD7653967DD513DE852036406DA6D62187C07BAF7 ====


Exact Audio Copy V1.3 from 2. September 2016

EAC extraction logfile from 3. June 2020, 15:52

Wolfgang Amadeus Mozart / Mozart [Heutling Quartet] - Les Quatuors & Quintettes a cordes (Disc 2)

Used drive : HL-DT-STDVD+-RW GU90N Adapter: 1 ID: 0

Read mode : Secure
Utilize accurate stream : Yes
Defeat audio cache : No
Make use of C2 pointers : No

Read offset correction : 102
Overread into Lead-In and Lead-Out : No
Fill up missing offset samples with silence : Yes
Delete leading and trailing silent blocks : No
Null samples used in CRC calculations : Yes
Used interface : Native Win32 interface for Win NT & 2000

Used output format : User Defined Encoder
Selected bitrate : 1024 kBit/s
Quality : High
Add ID3 tag : No
Command line compressor : C:\Program Files (x86)\Exact Audio Copy\Flac\flac.exe
Additional command line options : -8 -e -p -V -T "ARTIST=%artist%" -T "TITLE=%title%" -T "ALBUM=%albumtitle%" -T "DATE=%year%" -T "TRACKNUMBER=%tracknr%" -T "GENRE=%genre%" -T "PERFORMER=%albuminterpret%" -T "COMPOSER=%composer%" %haslyrics%–tag-from-file=LYRICS="%lyricsfile%"%haslyrics% -T "ALBUMARTIST=%albumartist%" -T "DISCNUMBER=%cdnumber%" -T "TOTALDISCS=%totalcds%" -T "TOTALTRACKS=%numtracks%" -T "COMMENT=%comment%" %source% -o %dest%


TOC of the extracted CD

Track | Start | Length | Start sector | End sector
––––––––––––––––––––––––––––-
1 | 0:00.00 | 3:18.15 | 0 | 14864
2 | 3:18.15 | 4:54.27 | 14865 | 36941
3 | 8:12.42 | 2:46.03 | 36942 | 49394
4 | 10:58.45 | 4:40.10 | 49395 | 70404
5 | 15:38.55 | 4:39.20 | 70405 | 91349
6 | 20:18.00 | 2:39.62 | 91350 | 103336
7 | 22:57.62 | 1:59.60 | 103337 | 112321
8 | 24:57.47 | 3:40.13 | 112322 | 128834
9 | 28:37.60 | 6:19.55 | 128835 | 157314
10 | 34:57.40 | 3:25.17 | 157315 | 172706
11 | 38:22.57 | 1:46.50 | 172707 | 180706
12 | 40:09.32 | 4:44.02 | 180707 | 202008
13 | 44:53.34 | 3:05.33 | 202009 | 215916
14 | 47:58.67 | 3:38.33 | 215917 | 232299
15 | 51:37.25 | 2:20.09 | 232300 | 242808
16 | 53:57.34 | 5:01.28 | 242809 | 265411
17 | 58:58.62 | 3:12.05 | 265412 | 279816
18 | 62:10.67 | 4:09.23 | 279817 | 298514
19 | 66:20.15 | 3:02.57 | 298515 | 312221


Range status and errors

Selected range

Filename D:\A-upload\Mozart-Heutling Qt\CD-2\Mozart [Heutling Quartet] - Les Quatuors & Quintettes a cordes (Disc 2).wav

Peak level 99.9 %
Extraction speed 7.5 X
Range quality 99.9 %
Test CRC F31DEA5C
Copy CRC F31DEA5C
Copy OK

No errors occurred


AccurateRip summary

Track 1 accurately ripped (confidence 10) [CC9FD7B9] (AR v2)
Track 2 accurately ripped (confidence 10) [CAE086A7] (AR v2)
Track 3 accurately ripped (confidence 10) [CBC15AF4] (AR v2)
Track 4 accurately ripped (confidence 10) [C3C22060] (AR v2)
Track 5 accurately ripped (confidence 10) [D76FE80C] (AR v2)
Track 6 accurately ripped (confidence 10) [F7B71730] (AR v2)
Track 7 accurately ripped (confidence 10) [54A3E2F7] (AR v2)
Track 8 accurately ripped (confidence 10) [7EC6C18B] (AR v2)
Track 9 accurately ripped (confidence 10) [7547F9E5] (AR v2)
Track 10 accurately ripped (confidence 10) [87146E3E] (AR v2)
Track 11 accurately ripped (confidence 10) [55A7FF7F] (AR v2)
Track 12 accurately ripped (confidence 10) [F4F8E237] (AR v2)
Track 13 accurately ripped (confidence 10) [0719231C] (AR v2)
Track 14 accurately ripped (confidence 10) [F4C43DF0] (AR v2)
Track 15 accurately ripped (confidence 10) [FD6A9E0A] (AR v2)
Track 16 accurately ripped (confidence 10) [D7C9488E] (AR v2)
Track 17 accurately ripped (confidence 10) [1B751A44] (AR v2)
Track 18 accurately ripped (confidence 10) [F4BF4D3D] (AR v2)
Track 19 accurately ripped (confidence 10) [57DFB658] (AR v2)

All tracks accurately ripped

End of status report

–– CUETools DB Plugin V2.1.6

[CTDB TOCID: ifR1QTca24mNf6mIKE9nM87_za4-] found
Submit result: ifR1QTca24mNf6mIKE9nM87_za4- has been confirmed
Track | CTDB Status
1 | (10/10) Accurately ripped
2 | (10/10) Accurately ripped
3 | (10/10) Accurately ripped
4 | (10/10) Accurately ripped
5 | (10/10) Accurately ripped
6 | (10/10) Accurately ripped
7 | (10/10) Accurately ripped
8 | (10/10) Accurately ripped
9 | (10/10) Accurately ripped
10 | (10/10) Accurately ripped
11 | (10/10) Accurately ripped
12 | (10/10) Accurately ripped
13 | (10/10) Accurately ripped
14 | (10/10) Accurately ripped
15 | (10/10) Accurately ripped
16 | (10/10) Accurately ripped
17 | (10/10) Accurately ripped
18 | (10/10) Accurately ripped
19 | ( 9/10) Accurately ripped


==== Log checksum 371BF18E0038FA8D2DB39D014955440ADA5296CB73710F69962AE1B8AD133045 ====


Exact Audio Copy V1.3 from 2. September 2016

EAC extraction logfile from 3. June 2020, 18:12

Wolfgang Amadeus Mozart / Mozart [Heutling Quartet] - Les Quatuors \ Quintettes a cordes (Disc 3)

Used drive : ASUS BW-16D1X-U Adapter: 1 ID: 1

Read mode : Secure
Utilize accurate stream : Yes
Defeat audio cache : Yes
Make use of C2 pointers : No

Read offset correction : 667
Overread into Lead-In and Lead-Out : No
Fill up missing offset samples with silence : Yes
Delete leading and trailing silent blocks : No
Null samples used in CRC calculations : Yes
Used interface : Native Win32 interface for Win NT & 2000

Used output format : User Defined Encoder
Selected bitrate : 1024 kBit/s
Quality : High
Add ID3 tag : No
Command line compressor : C:\Program Files (x86)\Exact Audio Copy\Flac\flac.exe
Additional command line options : -8 -e -p -V -T "ARTIST=%artist%" -T "TITLE=%title%" -T "ALBUM=%albumtitle%" -T "DATE=%year%" -T "TRACKNUMBER=%tracknr%" -T "GENRE=%genre%" -T "PERFORMER=%albuminterpret%" -T "COMPOSER=%composer%" %haslyrics%–tag-from-file=LYRICS="%lyricsfile%"%haslyrics% -T "ALBUMARTIST=%albumartist%" -T "DISCNUMBER=%cdnumber%" -T "TOTALDISCS=%totalcds%" -T "TOTALTRACKS=%numtracks%" -T "COMMENT=%comment%" %source% -o %dest%


TOC of the extracted CD

Track | Start | Length | Start sector | End sector
––––––––––––––––––––––––––––-
1 | 0:00.00 | 4:02.40 | 0 | 18189
2 | 4:02.40 | 3:30.27 | 18190 | 33966
3 | 7:32.67 | 3:13.23 | 33967 | 48464
4 | 10:46.15 | 3:28.12 | 48465 | 64076
5 | 14:14.27 | 3:49.05 | 64077 | 81256
6 | 18:03.32 | 3:30.35 | 81257 | 97041
7 | 21:33.67 | 4:01.55 | 97042 | 115171
8 | 25:35.47 | 3:04.70 | 115172 | 129041
9 | 28:40.42 | 7:15.25 | 129042 | 161691
10 | 35:55.67 | 7:36.65 | 161692 | 195956
11 | 43:32.57 | 6:26.38 | 195957 | 224944
12 | 49:59.20 | 5:39.62 | 224945 | 250431
13 | 55:39.07 | 8:09.13 | 250432 | 287119
14 | 63:48.20 | 4:18.00 | 287120 | 306469
15 | 68:06.20 | 4:33.67 | 306470 | 327011
16 | 72:40.12 | 6:37.25 | 327012 | 356811


Range status and errors

Selected range

Filename D:\A-upload\Mozart-Heutling Qt\CD-3\Wolfgang Amadeus Mozart - Mozart [Heutling Quartet] - Les Quatuors - Quintettes a cordes (Disc 3).wav

Peak level 99.9 %
Extraction speed 1.2 X
Range quality 100.0 %
Test CRC 5CF958AA
Copy CRC 5CF958AA
Copy OK

No errors occurred


AccurateRip summary

Track 1 accurately ripped (confidence 9) [9DD8D6E8] (AR v2)
Track 2 accurately ripped (confidence 9) [AB2564FD] (AR v2)
Track 3 accurately ripped (confidence 9) [9403AF0C] (AR v2)
Track 4 accurately ripped (confidence 9) [07199817] (AR v2)
Track 5 accurately ripped (confidence 9) [318479EC] (AR v2)
Track 6 accurately ripped (confidence 9) [4858EAD5] (AR v2)
Track 7 accurately ripped (confidence 9) [88949302] (AR v2)
Track 8 accurately ripped (confidence 9) [7F85524F] (AR v2)
Track 9 accurately ripped (confidence 9) [86AE7236] (AR v2)
Track 10 accurately ripped (confidence 9) [35DF34F2] (AR v2)
Track 11 accurately ripped (confidence 9) [335D22D1] (AR v2)
Track 12 accurately ripped (confidence 9) [B046DE71] (AR v2)
Track 13 accurately ripped (confidence 9) [DA87FE20] (AR v2)
Track 14 accurately ripped (confidence 9) [D0088EBA] (AR v2)
Track 15 accurately ripped (confidence 9) [427A9FA0] (AR v2)
Track 16 accurately ripped (confidence 9) [3BE745D8] (AR v2)

All tracks accurately ripped

End of status report

–– CUETools DB Plugin V2.1.6

[CTDB TOCID: NQ6tmJkEExICkHsXtcQSonEWhwc-] found
Submit result: NQ6tmJkEExICkHsXtcQSonEWhwc- has been confirmed
Track | CTDB Status
1 | (9/9) Accurately ripped
2 | (9/9) Accurately ripped
3 | (9/9) Accurately ripped
4 | (9/9) Accurately ripped
5 | (9/9) Accurately ripped
6 | (9/9) Accurately ripped
7 | (9/9) Accurately ripped
8 | (9/9) Accurately ripped
9 | (9/9) Accurately ripped
10 | (9/9) Accurately ripped
11 | (9/9) Accurately ripped
12 | (9/9) Accurately ripped
13 | (9/9) Accurately ripped
14 | (9/9) Accurately ripped
15 | (9/9) Accurately ripped
16 | (9/9) Accurately ripped


==== Log checksum 0909D9D7E9014FBB906DCC9E3040476B5E0F9522A00436AE802CD571602A90FD ====


Exact Audio Copy V1.3 from 2. September 2016

EAC extraction logfile from 3. June 2020, 18:50

Mozart, W.A. [Heutling Quartet] / Mozart: Complete Quartets and Quintets

Used drive : ASUS BW-16D1X-U Adapter: 1 ID: 1

Read mode : Secure
Utilize accurate stream : Yes
Defeat audio cache : Yes
Make use of C2 pointers : No

Read offset correction : 667
Overread into Lead-In and Lead-Out : No
Fill up missing offset samples with silence : Yes
Delete leading and trailing silent blocks : No
Null samples used in CRC calculations : Yes
Used interface : Native Win32 interface for Win NT & 2000

Used output format : User Defined Encoder
Selected bitrate : 1024 kBit/s
Quality : High
Add ID3 tag : No
Command line compressor : C:\Program Files (x86)\Exact Audio Copy\Flac\flac.exe
Additional command line options : -8 -e -p -V -T "ARTIST=%artist%" -T "TITLE=%title%" -T "ALBUM=%albumtitle%" -T "DATE=%year%" -T "TRACKNUMBER=%tracknr%" -T "GENRE=%genre%" -T "PERFORMER=%albuminterpret%" -T "COMPOSER=%composer%" %haslyrics%–tag-from-file=LYRICS="%lyricsfile%"%haslyrics% -T "ALBUMARTIST=%albumartist%" -T "DISCNUMBER=%cdnumber%" -T "TOTALDISCS=%totalcds%" -T "TOTALTRACKS=%numtracks%" -T "COMMENT=%comment%" %source% -o %dest%


TOC of the extracted CD

Track | Start | Length | Start sector | End sector
––––––––––––––––––––––––––––-
1 | 0:00.00 | 6:58.45 | 0 | 31394
2 | 6:58.45 | 5:07.65 | 31395 | 54484
3 | 12:06.35 | 3:54.17 | 54485 | 72051
4 | 16:00.52 | 9:31.08 | 72052 | 114884
5 | 25:31.60 | 6:28.47 | 114885 | 144031
6 | 32:00.32 | 6:35.53 | 144032 | 173709
7 | 38:36.10 | 6:11.50 | 173710 | 201584
8 | 44:47.60 | 5:17.15 | 201585 | 225374
9 | 50:05.00 | 8:10.17 | 225375 | 262141
10 | 58:15.17 | 3:59.03 | 262142 | 280069
11 | 62:14.20 | 6:30.49 | 280070 | 309368
12 | 68:44.69 | 6:41.06 | 309369 | 339449


Range status and errors

Selected range

Filename D:\A-upload\Mozart-Heutling Qt\CD-4\Mozart, W.A. [Heutling Quartet] - Complete Quartets and Quintets.wav

Peak level 99.9 %
Extraction speed 8.6 X
Range quality 100.0 %
Test CRC 50D88255
Copy CRC 50D88255
Copy OK

No errors occurred


AccurateRip summary

Track 1 accurately ripped (confidence 9) [DA22BCC1] (AR v2)
Track 2 accurately ripped (confidence 9) [71B7D7E6] (AR v2)
Track 3 accurately ripped (confidence 9) [478C57D3] (AR v2)
Track 4 accurately ripped (confidence 9) [56DF6FAD] (AR v2)
Track 5 accurately ripped (confidence 9) [490617AE] (AR v2)
Track 6 accurately ripped (confidence 9) [F7677884] (AR v2)
Track 7 accurately ripped (confidence 9) [DCD068EC] (AR v2)
Track 8 accurately ripped (confidence 9) [1BAFB862] (AR v2)
Track 9 accurately ripped (confidence 9) [8100A395] (AR v2)
Track 10 accurately ripped (confidence 9) [3525D4C7] (AR v2)
Track 11 accurately ripped (confidence 9) [332F0081] (AR v2)
Track 12 accurately ripped (confidence 9) [E69C6D1A] (AR v2)

All tracks accurately ripped

End of status report

–– CUETools DB Plugin V2.1.6

[CTDB TOCID: 9zY6mw6Ga4WUtYSAI3Iu2MBH9N4-] found
Submit result: 9zY6mw6Ga4WUtYSAI3Iu2MBH9N4- has been confirmed
Track | CTDB Status
1 | (35/35) Accurately ripped
2 | (35/35) Accurately ripped
3 | (35/35) Accurately ripped
4 | (35/35) Accurately ripped
5 | (35/35) Accurately ripped
6 | (35/35) Accurately ripped
7 | (35/35) Accurately ripped
8 | (35/35) Accurately ripped
9 | (35/35) Accurately ripped
10 | (35/35) Accurately ripped
11 | (35/35) Accurately ripped
12 | (35/35) Accurately ripped


==== Log checksum F18E03536B27DD152EE7458ACB28B2370ACE8CD69241E853587ABAF39D7912AF ====


Exact Audio Copy V1.3 from 2. September 2016

EAC extraction logfile from 4. June 2020, 3:24

Mozart, W A: / Mozart - Complete Quartets & Quintets CD-5

Used drive : ASUS BW-16D1X-U Adapter: 1 ID: 1

Read mode : Secure
Utilize accurate stream : Yes
Defeat audio cache : Yes
Make use of C2 pointers : No

Read offset correction : 667
Overread into Lead-In and Lead-Out : No
Fill up missing offset samples with silence : Yes
Delete leading and trailing silent blocks : No
Null samples used in CRC calculations : Yes
Used interface : Native Win32 interface for Win NT & 2000

Used output format : User Defined Encoder
Selected bitrate : 1024 kBit/s
Quality : High
Add ID3 tag : No
Command line compressor : C:\Program Files (x86)\Exact Audio Copy\Flac\flac.exe
Additional command line options : -8 -e -p -V -T "ARTIST=%artist%" -T "TITLE=%title%" -T "ALBUM=%albumtitle%" -T "DATE=%year%" -T "TRACKNUMBER=%tracknr%" -T "GENRE=%genre%" -T "PERFORMER=%albuminterpret%" -T "COMPOSER=%composer%" %haslyrics%–tag-from-file=LYRICS="%lyricsfile%"%haslyrics% -T "ALBUMARTIST=%albumartist%" -T "DISCNUMBER=%cdnumber%" -T "TOTALDISCS=%totalcds%" -T "TOTALTRACKS=%numtracks%" -T "COMMENT=%comment%" %source% -o %dest%


TOC of the extracted CD

Track | Start | Length | Start sector | End sector
––––––––––––––––––––––––––––-
1 | 0:00.00 | 5:28.65 | 0 | 24664
2 | 5:28.65 | 6:03.07 | 24665 | 51896
3 | 11:31.72 | 11:18.03 | 51897 | 102749
4 | 22:50.00 | 6:11.70 | 102750 | 130644
5 | 29:01.70 | 10:37.30 | 130645 | 178449
6 | 39:39.25 | 6:13.30 | 178450 | 206454
7 | 45:52.55 | 5:11.32 | 206455 | 229811
8 | 51:04.12 | 7:35.00 | 229812 | 263936
9 | 58:39.12 | 5:47.20 | 263937 | 289981
10 | 64:26.32 | 5:03.37 | 289982 | 312743
11 | 69:29.69 | 6:33.68 | 312744 | 342286
12 | 76:03.62 | 3:39.30 | 342287 | 358741


Range status and errors

Selected range

Filename D:\A-upload\Mozart-Heutling Qt\CD-5\Mozart, W A. [Heutling Quartet] - Complete Quartets & Quintets CD-5.wav

Peak level 99.9 %
Extraction speed 8.6 X
Range quality 100.0 %
Test CRC EBADD38B
Copy CRC EBADD38B
Copy OK

No errors occurred


AccurateRip summary

Track 1 accurately ripped (confidence 9) [E48DA491] (AR v2)
Track 2 accurately ripped (confidence 9) [AD1050C8] (AR v2)
Track 3 accurately ripped (confidence 9) [1F4B7C57] (AR v2)
Track 4 accurately ripped (confidence 9) [DEA85274] (AR v2)
Track 5 accurately ripped (confidence 9) [56B05D12] (AR v2)
Track 6 accurately ripped (confidence 9) [D7EFADDC] (AR v2)
Track 7 accurately ripped (confidence 9) [8CB6273A] (AR v2)
Track 8 accurately ripped (confidence 9) [00F48977] (AR v2)
Track 9 accurately ripped (confidence 9) [08711F72] (AR v2)
Track 10 accurately ripped (confidence 9) [FB349B09] (AR v2)
Track 11 accurately ripped (confidence 9) [F8483079] (AR v2)
Track 12 accurately ripped (confidence 9) [2C3FE3F0] (AR v2)

All tracks accurately ripped

End of status report

–– CUETools DB Plugin V2.1.6

[CTDB TOCID: kbQap.5FtNinfQtWJL5j4wLUuow-] found
Submit result: kbQap.5FtNinfQtWJL5j4wLUuow- has been confirmed
Track | CTDB Status
1 | (33/33) Accurately ripped
2 | (33/33) Accurately ripped
3 | (33/33) Accurately ripped
4 | (33/33) Accurately ripped
5 | (33/33) Accurately ripped
6 | (33/33) Accurately ripped
7 | (33/33) Accurately ripped
8 | (33/33) Accurately ripped
9 | (33/33) Accurately ripped
10 | (33/33) Accurately ripped
11 | (33/33) Accurately ripped
12 | (33/33) Accurately ripped


==== Log checksum 33943B2995AB8CB7EBB990F7285FDCE2550C21D4E220651EBC61350022FCC66E ====


Exact Audio Copy V1.3 from 2. September 2016

EAC extraction logfile from 4. June 2020, 3:57

Wolfgang Amadeus Mozart / Mozart: Les Quatuors & Quintettes a cordes (Disc 6)

Used drive : ASUS BW-16D1X-U Adapter: 1 ID: 1

Read mode : Secure
Utilize accurate stream : Yes
Defeat audio cache : Yes
Make use of C2 pointers : No

Read offset correction : 667
Overread into Lead-In and Lead-Out : No
Fill up missing offset samples with silence : Yes
Delete leading and trailing silent blocks : No
Null samples used in CRC calculations : Yes
Used interface : Native Win32 interface for Win NT & 2000

Used output format : User Defined Encoder
Selected bitrate : 1024 kBit/s
Quality : High
Add ID3 tag : No
Command line compressor : C:\Program Files (x86)\Exact Audio Copy\Flac\flac.exe
Additional command line options : -8 -e -p -V -T "ARTIST=%artist%" -T "TITLE=%title%" -T "ALBUM=%albumtitle%" -T "DATE=%year%" -T "TRACKNUMBER=%tracknr%" -T "GENRE=%genre%" -T "PERFORMER=%albuminterpret%" -T "COMPOSER=%composer%" %haslyrics%–tag-from-file=LYRICS="%lyricsfile%"%haslyrics% -T "ALBUMARTIST=%albumartist%" -T "DISCNUMBER=%cdnumber%" -T "TOTALDISCS=%totalcds%" -T "TOTALTRACKS=%numtracks%" -T "COMMENT=%comment%" %source% -o %dest%


TOC of the extracted CD

Track | Start | Length | Start sector | End sector
––––––––––––––––––––––––––––-
1 | 0:00.00 | 8:52.17 | 0 | 39916
2 | 8:52.17 | 3:16.20 | 39917 | 54636
3 | 12:08.37 | 7:56.73 | 54637 | 90409
4 | 20:05.35 | 5:26.02 | 90410 | 114861
5 | 25:31.37 | 6:57.30 | 114862 | 146166
6 | 32:28.67 | 4:04.35 | 146167 | 164501
7 | 36:33.27 | 6:11.53 | 164502 | 192379
8 | 42:45.05 | 6:01.12 | 192380 | 219466
9 | 48:46.17 | 8:17.00 | 219467 | 256741
10 | 57:03.17 | 5:44.10 | 256742 | 282551
11 | 62:47.27 | 4:04.68 | 282552 | 300919
12 | 66:52.20 | 6:47.70 | 300920 | 331514


Range status and errors

Selected range

Filename D:\A-upload\Mozart-Heutling Qt\CD-6\Mozart [Heutling Quartet] - Les Quatuors & Quintettes a cordes (Disc 6).wav

Peak level 99.9 %
Extraction speed 8.6 X
Range quality 100.0 %
Test CRC AC5C9DE6
Copy CRC AC5C9DE6
Copy OK

No errors occurred


AccurateRip summary

Track 1 accurately ripped (confidence 9) [850B1F5C] (AR v2)
Track 2 accurately ripped (confidence 9) [99DDBC4D] (AR v2)
Track 3 accurately ripped (confidence 9) [EA618ABB] (AR v2)
Track 4 accurately ripped (confidence 9) [23F45352] (AR v2)
Track 5 accurately ripped (confidence 9) [4EF6CB1F] (AR v2)
Track 6 accurately ripped (confidence 9) [BD9D01A7] (AR v2)
Track 7 accurately ripped (confidence 9) [E0E53678] (AR v2)
Track 8 accurately ripped (confidence 9) [1EDE63B0] (AR v2)
Track 9 accurately ripped (confidence 9) [3A06422E] (AR v2)
Track 10 accurately ripped (confidence 9) [92472ABE] (AR v2)
Track 11 accurately ripped (confidence 9) [76523D6D] (AR v2)
Track 12 accurately ripped (confidence 9) [8B29D054] (AR v2)

All tracks accurately ripped

End of status report

–– CUETools DB Plugin V2.1.6

[CTDB TOCID: ta6H.6dtVk2rr_PEO0QpV_5h5tE-] found
Submit result: ta6H.6dtVk2rr_PEO0QpV_5h5tE- has been confirmed
Track | CTDB Status
1 | (11/11) Accurately ripped
2 | (11/11) Accurately ripped
3 | (11/11) Accurately ripped
4 | (11/11) Accurately ripped
5 | (11/11) Accurately ripped
6 | (11/11) Accurately ripped
7 | (11/11) Accurately ripped
8 | (11/11) Accurately ripped
9 | (11/11) Accurately ripped
10 | (11/11) Accurately ripped
11 | (11/11) Accurately ripped
12 | (10/11) Accurately ripped


==== Log checksum B52F0DE2D0B6FE361898906946352FC3FD64F4D54C9FB7D43C1794D8D04285B3 ====


Exact Audio Copy V1.3 from 2. September 2016

EAC extraction logfile from 4. June 2020, 4:32

Mozart, W A [Heutling Quartet] - / Mozart - Complete Quartets & Quintets CD-7

Used drive : ASUS BW-16D1X-U Adapter: 1 ID: 1

Read mode : Secure
Utilize accurate stream : Yes
Defeat audio cache : Yes
Make use of C2 pointers : No

Read offset correction : 667
Overread into Lead-In and Lead-Out : No
Fill up missing offset samples with silence : Yes
Delete leading and trailing silent blocks : No
Null samples used in CRC calculations : Yes
Used interface : Native Win32 interface for Win NT & 2000

Used output format : User Defined Encoder
Selected bitrate : 1024 kBit/s
Quality : High
Add ID3 tag : No
Command line compressor : C:\Program Files (x86)\Exact Audio Copy\Flac\flac.exe
Additional command line options : -8 -e -p -V -T "ARTIST=%artist%" -T "TITLE=%title%" -T "ALBUM=%albumtitle%" -T "DATE=%year%" -T "TRACKNUMBER=%tracknr%" -T "GENRE=%genre%" -T "PERFORMER=%albuminterpret%" -T "COMPOSER=%composer%" %haslyrics%–tag-from-file=LYRICS="%lyricsfile%"%haslyrics% -T "ALBUMARTIST=%albumartist%" -T "DISCNUMBER=%cdnumber%" -T "TOTALDISCS=%totalcds%" -T "TOTALTRACKS=%numtracks%" -T "COMMENT=%comment%" %source% -o %dest%


TOC of the extracted CD

Track | Start | Length | Start sector | End sector
––––––––––––––––––––––––––––-
1 | 0:00.00 | 13:01.72 | 0 | 58646
2 | 13:01.72 | 9:28.43 | 58647 | 101289
3 | 22:30.40 | 5:56.52 | 101290 | 128041
4 | 28:27.17 | 7:38.15 | 128042 | 162406
5 | 36:05.32 | 7:14.10 | 162407 | 194966
6 | 43:19.42 | 4:47.67 | 194967 | 216558
7 | 48:07.34 | 9:11.53 | 216559 | 257936
8 | 57:19.12 | 10:26.15 | 257937 | 304901


Range status and errors

Selected range

Filename D:\A-upload\Mozart-Heutling Qt\CD-7\Mozart, W A [Heutling Quartet] - Complete Quartets & Quintets CD-7.wav

Peak level 99.9 %
Extraction speed 8.2 X
Range quality 99.9 %
Test CRC 97D5E363
Copy CRC 97D5E363
Copy OK

No errors occurred


AccurateRip summary

Track 1 accurately ripped (confidence 9) [04B20D92] (AR v2)
Track 2 accurately ripped (confidence 9) [2E177883] (AR v2)
Track 3 accurately ripped (confidence 9) [30A8DFE2] (AR v2)
Track 4 accurately ripped (confidence 9) [98EE401A] (AR v2)
Track 5 accurately ripped (confidence 9) [7A96349B] (AR v2)
Track 6 accurately ripped (confidence 9) [2C19B2C4] (AR v2)
Track 7 accurately ripped (confidence 9) [648AAD08] (AR v2)
Track 8 accurately ripped (confidence 9) [99DE9778] (AR v2)

All tracks accurately ripped

End of status report

–– CUETools DB Plugin V2.1.6

[CTDB TOCID: miCBA2aK3lsGz3JacMn27qs5YYs-] found
Submit result: miCBA2aK3lsGz3JacMn27qs5YYs- has been confirmed
Track | CTDB Status
1 | (37/38) Accurately ripped
2 | (37/38) Accurately ripped
3 | (38/38) Accurately ripped
4 | (38/38) Accurately ripped
5 | (37/38) Accurately ripped
6 | (38/38) Accurately ripped
7 | (38/38) Accurately ripped
8 | (36/38) Accurately ripped


==== Log checksum 3728B50C65BA76DDBA952831909B95D10055F0FDD031109CA044F9AD6468C103 ====


Exact Audio Copy V1.3 from 2. September 2016

EAC extraction logfile from 4. June 2020, 5:15

- / Mozart [Heutling Quartet] - Complete Quartets & Quintets CD-8

Used drive : ASUS BW-16D1X-U Adapter: 1 ID: 1

Read mode : Secure
Utilize accurate stream : Yes
Defeat audio cache : Yes
Make use of C2 pointers : No

Read offset correction : 667
Overread into Lead-In and Lead-Out : No
Fill up missing offset samples with silence : Yes
Delete leading and trailing silent blocks : No
Null samples used in CRC calculations : Yes
Used interface : Native Win32 interface for Win NT & 2000

Used output format : User Defined Encoder
Selected bitrate : 1024 kBit/s
Quality : High
Add ID3 tag : No
Command line compressor : C:\Program Files (x86)\Exact Audio Copy\Flac\flac.exe
Additional command line options : -8 -e -p -V -T "ARTIST=%artist%" -T "TITLE=%title%" -T "ALBUM=%albumtitle%" -T "DATE=%year%" -T "TRACKNUMBER=%tracknr%" -T "GENRE=%genre%" -T "PERFORMER=%albuminterpret%" -T "COMPOSER=%composer%" %haslyrics%–tag-from-file=LYRICS="%lyricsfile%"%haslyrics% -T "ALBUMARTIST=%albumartist%" -T "DISCNUMBER=%cdnumber%" -T "TOTALDISCS=%totalcds%" -T "TOTALTRACKS=%numtracks%" -T "COMMENT=%comment%" %source% -o %dest%


TOC of the extracted CD

Track | Start | Length | Start sector | End sector
––––––––––––––––––––––––––––-
1 | 0:00.00 | 8:35.72 | 0 | 38696
2 | 8:35.72 | 8:08.35 | 38697 | 75331
3 | 16:44.32 | 4:27.48 | 75332 | 95404
4 | 21:12.05 | 5:28.40 | 95405 | 120044
5 | 26:40.45 | 9:29.57 | 120045 | 162776
6 | 36:10.27 | 7:51.30 | 162777 | 198131
7 | 44:01.57 | 5:34.33 | 198132 | 223214
8 | 49:36.15 | 5:21.27 | 223215 | 247316
9 | 54:57.42 | 7:35.48 | 247317 | 281489
10 | 62:33.15 | 7:32.52 | 281490 | 315441
11 | 70:05.67 | 4:09.40 | 315442 | 334156
12 | 74:15.32 | 5:37.40 | 334157 | 359471


Range status and errors

Selected range

Filename D:\A-upload\Mozart-Heutling Qt\CD-8\Mozart [Heutling Quartet] - Complete Quartets & Quintets CD-8.wav

Peak level 100.0 %
Extraction speed 8.7 X
Range quality 100.0 %
Test CRC 06C04085
Copy CRC 06C04085
Copy OK

No errors occurred


AccurateRip summary

Track 1 accurately ripped (confidence 9) [8DC66EB8] (AR v2)
Track 2 accurately ripped (confidence 9) [7D536400] (AR v2)
Track 3 accurately ripped (confidence 9) [A4EE617B] (AR v2)
Track 4 accurately ripped (confidence 9) [0A457725] (AR v2)
Track 5 accurately ripped (confidence 9) [8922E372] (AR v2)
Track 6 accurately ripped (confidence 9) [30EE9356] (AR v2)
Track 7 accurately ripped (confidence 9) [66A5AE26] (AR v2)
Track 8 accurately ripped (confidence 9) [E35032AE] (AR v2)
Track 9 accurately ripped (confidence 9) [A6E74AC9] (AR v2)
Track 10 accurately ripped (confidence 9) [E491D8AF] (AR v2)
Track 11 accurately ripped (confidence 9) [A8831C87] (AR v2)
Track 12 accurately ripped (confidence 9) [5C1AAD0D] (AR v2)

All tracks accurately ripped

End of status report

–– CUETools DB Plugin V2.1.6

[CTDB TOCID: hmnf5SrDsqTLI9LE4FYQjZONtW8-] found
Submit result: hmnf5SrDsqTLI9LE4FYQjZONtW8- has been confirmed
Track | CTDB Status
1 | (36/36) Accurately ripped
2 | (36/36) Accurately ripped
3 | (36/36) Accurately ripped
4 | (36/36) Accurately ripped
5 | (36/36) Accurately ripped
6 | (36/36) Accurately ripped
7 | (36/36) Accurately ripped
8 | (36/36) Accurately ripped
9 | (36/36) Accurately ripped
10 | (36/36) Accurately ripped
11 | (35/36) Accurately ripped
12 | (35/36) Accurately ripped


==== Log checksum 6815AE331E1927772E7964F687F44070B177992099F0E0935B25BEAFD4515231 ====


Quatuor Heutling, Heinz-Otto Graf - Mozart: Les Quatuors à cordes, Les Quintettes à cordes [8CDs] (1997)

Thanks to the original releaser