Subcategories

Queen - Jazz (1979) [2CD, 40th Anniversary Edition] Re-up

Posted By: v3122
Queen - Jazz (1979) [2CD, 40th Anniversary Edition] Re-up

Queen - Jazz (1979)
EAC | Flac(Image) + Cue + Log & MP3 CBR 320Kbps
2011 | Universal, Japan, UICY-75047/48 | ~ 412 or 179 Mb | Artwork(jpg) -> 201 Mb
Progressive Hard Rock / Classic Rock / Pop Rock

Famously tagged as "fascist" in a Rolling Stone review printed at the time of its 1978 release, Jazz does indeed showcase a band that does thrive upon its power, thrilling upon the hold that it has on its audience. That confidence, that self-intoxication, was hinted at on News of the World but it takes full flower here, and that assurance acts as a cohesive device, turning this into one of Queen's sleekest albums. Like its patchwork predecessor, Jazz also dabbles in a bunch of different sounds – that's a perennial problem with Queen, where the four songwriters were often pulling in different directions – but it sounds bigger, heavier than News, thanks to the mountains of guitars Brian May has layered all over this record. If May has indulged himself, Freddie Mercury runs riot all over this album, infusing it with an absurdity that's hard to resist. This goofiness is apparent from the galloping overture "Mustapha," and things only get a lot sillier from that point out, as the group sings the praises of "Fat Bottomed Girls" and "Bicycle Races." May and Mercury have an unspoken competition on who can overdub the most onto a particular track, while Roger Taylor steers them toward their first disco song in the gloriously dumb "Fun It." But since over-the-top campiness has always been an attribute in Queen, this kind of grand-scale exaggeration gives Jazz a sense of ridiculousness that makes it more fun than many of their other albums.

by Stephen Thomas Erlewine, allmusic
Queen - Jazz (1979):

Queen - Jazz (1979) [2CD, 40th Anniversary Edition] Re-up

Tracklist CD1:

01. Mustapha
02. Fat Bottomed Girls
03. Jealousy
04. Bicycle Race
05. If You Can't Beat Them
06. Let Me Entertain You
07. Dead On Time
08. In Only Seven Days
09. Dreamers Ball
10. Fun It
11. Leaving Home Ain't Easy
12. Don't Stop Me Now
13. More Of That Jazz

Exact Audio Copy V1.1 from 23. June 2015

EAC extraction logfile from 26. May 2016, 20:33

Queen / Jazz [UICY-75047]

Used drive : TSSTcorpDVD+-RW SU-208GB Adapter: 1 ID: 0

Read mode : Secure
Utilize accurate stream : Yes
Defeat audio cache : Yes
Make use of C2 pointers : No

Read offset correction : 6
Overread into Lead-In and Lead-Out : No
Fill up missing offset samples with silence : Yes
Delete leading and trailing silent blocks : No
Null samples used in CRC calculations : Yes
Used interface : Native Win32 interface for Win NT & 2000

Used output format : Internal WAV Routines
Sample format : 44.100 Hz; 16 Bit; Stereo


TOC of the extracted CD

Track | Start | Length | Start sector | End sector
––––––––––––––––––––––––––––-
1 | 0:00.00 | 3:01.72 | 0 | 13646
2 | 3:01.72 | 4:17.09 | 13647 | 32930
3 | 7:19.06 | 3:13.54 | 32931 | 47459
4 | 10:32.60 | 3:03.32 | 47460 | 61216
5 | 13:36.17 | 4:15.14 | 61217 | 80355
6 | 17:51.31 | 3:06.34 | 80356 | 94339
7 | 20:57.65 | 3:23.26 | 94340 | 109590
8 | 24:21.16 | 2:29.74 | 109591 | 120839
9 | 26:51.15 | 3:30.49 | 120840 | 136638
10 | 30:21.64 | 3:29.46 | 136639 | 152359
11 | 33:51.35 | 3:15.03 | 152360 | 166987
12 | 37:06.38 | 3:29.31 | 166988 | 182693
13 | 40:35.69 | 4:16.49 | 182694 | 201942


Range status and errors

Selected range

Filename D:\Queen - Jazz [UICY-75047].wav

Peak level 100.0 %
Extraction speed 4.0 X
Range quality 100.0 %
Test CRC 686556FA
Copy CRC 686556FA
Copy OK

No errors occurred


AccurateRip summary

Track 1 accurately ripped (confidence 197) [B67AEF60] (AR v2)
Track 2 accurately ripped (confidence 199) [2988DEAE] (AR v2)
Track 3 accurately ripped (confidence 200) [31A83A0E] (AR v2)
Track 4 accurately ripped (confidence 200) [68B595FA] (AR v2)
Track 5 accurately ripped (confidence 200) [4BEF6350] (AR v2)
Track 6 accurately ripped (confidence 199) [2FC9700F] (AR v2)
Track 7 accurately ripped (confidence 200) [A1345F8F] (AR v2)
Track 8 accurately ripped (confidence 200) [4AA58338] (AR v2)
Track 9 accurately ripped (confidence 200) [5C36965B] (AR v2)
Track 10 accurately ripped (confidence 200) [DC1B1D2E] (AR v2)
Track 11 accurately ripped (confidence 200) [6891C3ED] (AR v2)
Track 12 accurately ripped (confidence 200) [E7689BF9] (AR v2)
Track 13 accurately ripped (confidence 199) [CE2575EF] (AR v2)

All tracks accurately ripped

End of status report

–– CUETools DB Plugin V2.1.6

[CTDB TOCID: 7ie0IDM.6dL1jmzKJDpA0vvCCQs-] found
Submit result: 7ie0IDM.6dL1jmzKJDpA0vvCCQs- has been confirmed
Track | CTDB Status
1 | (234/314) Accurately ripped
2 | (235/314) Accurately ripped
3 | (235/314) Accurately ripped
4 | (235/314) Accurately ripped
5 | (235/314) Accurately ripped
6 | (235/314) Accurately ripped
7 | (235/314) Accurately ripped
8 | (235/314) Accurately ripped
9 | (235/314) Accurately ripped
10 | (235/314) Accurately ripped
11 | (234/314) Accurately ripped
12 | (235/314) Accurately ripped
13 | (235/314) Accurately ripped


==== Log checksum 558DB3B168798E505CCF246C5EE47A97F7793A5023E62226A946D7ACCA7FF666 ====


[CUETools log; Date: 19.04.2019 4:46:40; Version: 2.1.4]
[AccurateRip ID: 001560ae-00d5469f-9e0a840d] found.
Track [ CRC | V2 ] Status
01 [0c3e8153|b67aef60] (025+200/372) Accurately ripped
02 [e0744a7b|2988deae] (026+200/372) Accurately ripped
03 [14ae593d|31a83a0e] (026+200/370) Accurately ripped
04 [a41d30e3|68b595fa] (026+200/371) Accurately ripped
05 [f6f4471b|4bef6350] (026+200/371) Accurately ripped
06 [a16dd303|2fc9700f] (026+200/371) Accurately ripped
07 [7a52f606|a1345f8f] (026+200/370) Accurately ripped
08 [7da88fd0|4aa58338] (025+200/368) Accurately ripped
09 [ac160235|5c36965b] (025+200/370) Accurately ripped
10 [bf534c13|dc1b1d2e] (026+200/370) Accurately ripped
11 [a9225147|6891c3ed] (025+200/369) Accurately ripped
12 [235d45e7|e7689bf9] (025+200/368) Accurately ripped
13 [10b9d69c|ce2575ef] (025+200/367) Accurately ripped
Offsetted by -90:
01 [a6ff72eb] (002/372) Accurately ripped
02 [b8969343] (002/372) Accurately ripped
03 [9ae51258] (002/370) Accurately ripped
04 [839f0db1] (002/371) Accurately ripped
05 [7e0b3105] (002/371) Accurately ripped
06 [af229cde] (002/371) Accurately ripped
07 [b4733d97] (002/370) Accurately ripped
08 [f9cefb8b] (002/368) Accurately ripped
09 [aa42a092] (002/370) Accurately ripped
10 [68c06b6f] (002/370) Accurately ripped
11 [0c917c7f] (002/369) Accurately ripped
12 [fd7cbb3c] (002/368) Accurately ripped
13 [0e072687] (002/367) Accurately ripped
Offsetted by -646:
01 [4347e0bf] (000/372) No match (V2 was not tested)
02 [710bbc93] (000/372) No match (V2 was not tested)
03 [f986e57b] (000/370) No match (V2 was not tested)
04 [75fb785e] (000/371) No match (V2 was not tested)
05 [0dc9a633] (000/371) No match (V2 was not tested)
06 [e8db7bdb] (000/371) No match (V2 was not tested)
07 [5590ad7d] (000/370) No match (V2 was not tested)
08 [96e31393] (000/368) No match (V2 was not tested)
09 [092d18c1] (000/370) No match (V2 was not tested)
10 [9ea8a68f] (000/370) No match (V2 was not tested)
11 [4a6d3d1e] (000/369) No match (V2 was not tested)
12 [a35eed0e] (000/368) No match (V2 was not tested)
13 [ee076183] (000/367) No match (V2 was not tested)
Offsetted by -108:
01 [8702e34c] (000/372) No match (V2 was not tested)
02 [7d6e084c] (000/372) No match (V2 was not tested)
03 [b5f83ad4] (000/370) No match (V2 was not tested)
04 [7651c540] (000/371) No match (V2 was not tested)
05 [0cfb9437] (000/371) No match (V2 was not tested)
06 [9b405295] (000/371) No match (V2 was not tested)
07 [692c33de] (000/370) No match (V2 was not tested)
08 [bc62cf3e] (000/368) No match (V2 was not tested)
09 [058273e2] (000/370) No match (V2 was not tested)
10 [70429fb4] (000/370) No match (V2 was not tested)
11 [5c70fa9c] (000/369) No match (V2 was not tested)
12 [24346faa] (000/368) No match (V2 was not tested)
13 [b18c9a85] (000/367) No match (V2 was not tested)
Offsetted by -25:
01 [eda96732] (000/372) No match (V2 was not tested)
02 [254eece2] (000/372) No match (V2 was not tested)
03 [fb53bea7] (000/370) No match (V2 was not tested)
04 [61508117] (000/371) No match (V2 was not tested)
05 [3b894154] (000/371) No match (V2 was not tested)
06 [eddf6b5f] (000/371) No match (V2 was not tested)
07 [42b90661] (000/370) No match (V2 was not tested)
08 [2331a38f] (000/368) No match (V2 was not tested)
09 [af2386e5] (000/370) No match (V2 was not tested)
10 [77bb790a] (000/370) No match (V2 was not tested)
11 [c4b27c28] (000/369) No match (V2 was not tested)
12 [5f790322] (000/368) No match (V2 was not tested)
13 [a7745aa2] (000/367) No match (V2 was not tested)
Offsetted by -18:
01 [26052606] (000/372) No match (V2 was not tested)
02 [a02bbf66] (000/372) No match (V2 was not tested)
03 [2ec1cb4e] (000/370) No match (V2 was not tested)
04 [96eee842] (000/371) No match (V2 was not tested)
05 [31a6208b] (000/371) No match (V2 was not tested)
06 [9ae3d744] (000/371) No match (V2 was not tested)
07 [b2c63aa8] (000/370) No match (V2 was not tested)
08 [6a364142] (000/368) No match (V2 was not tested)
09 [85ce1534] (000/370) No match (V2 was not tested)
10 [d3a3802a] (000/370) No match (V2 was not tested)
11 [a5cd6ac5] (000/369) No match (V2 was not tested)
12 [40e98258] (000/368) No match (V2 was not tested)
13 [2e79b70a] (000/367) No match (V2 was not tested)
Offsetted by -12:
01 [d335e56e] (000/372) No match (V2 was not tested)
02 [054d9379] (000/372) No match (V2 was not tested)
03 [997b686e] (000/370) No match (V2 was not tested)
04 [c0aee89c] (000/371) No match (V2 was not tested)
05 [8a4cc1dc] (000/371) No match (V2 was not tested)
06 [9eb22e17] (000/371) No match (V2 was not tested)
07 [2d362d3d] (000/370) No match (V2 was not tested)
08 [c5e9b6ae] (000/368) No match (V2 was not tested)
09 [3c3b4e90] (000/370) No match (V2 was not tested)
10 [defcd14c] (000/370) No match (V2 was not tested)
11 [0a0e8be8] (000/369) No match (V2 was not tested)
12 [bd4f64f2] (000/368) No match (V2 was not tested)
13 [78fa1593] (000/367) No match (V2 was not tested)

Track Peak [ CRC32 ] [W/O NULL] [ LOG ]
– 100,0 [686556FA] [31F451EB] CRC32
01 99,8 [E16D9DC4] [1EACEF41]
02 100,0 [D262C3DF] [BF0FAFB8]
03 100,0 [6BAC07E2] [136FA164]
04 100,0 [7954B4BB] [6B73366E]
05 100,0 [BA381D7A] [3D6A00AA]
06 100,0 [7EFC6DAB] [078D5FC6]
07 100,0 [CEBF8C6D] [7046B8C9]
08 100,0 [AF79BEF0] [856E5FC4]
09 100,0 [43CCD338] [699AAC50]
10 100,0 [1DE731A8] [EA031CB4]
11 100,0 [2B979AE0] [FA9B6D40]
12 100,0 [1CE225F0] [FB8A5216]
13 100,0 [1908B5F1] [F3C424D4]


Queen - Jazz (1979) [2CD, 40th Anniversary Edition] Re-up

Tracklist CD2 - Bonus EP:

01. Fat Bottomed Girls (Single Version)
02. Bicycle Race (Instrumental)
03. Don't Stop Me Now (With Long-Lost Guitars)
04. Let Me Entertain You (Live in Montreal, November 1981)
05. Dreamers Ball (Early Acoustic Take, August 1978)

Exact Audio Copy V1.1 from 23. June 2015

EAC extraction logfile from 26. May 2016, 21:14

Queen / Jazz (Bonus EP) [UICY-75048]

Used drive : TSSTcorpDVD+-RW SU-208GB Adapter: 1 ID: 0

Read mode : Secure
Utilize accurate stream : Yes
Defeat audio cache : Yes
Make use of C2 pointers : No

Read offset correction : 6
Overread into Lead-In and Lead-Out : No
Fill up missing offset samples with silence : Yes
Delete leading and trailing silent blocks : No
Null samples used in CRC calculations : Yes
Used interface : Native Win32 interface for Win NT & 2000

Used output format : Internal WAV Routines
Sample format : 44.100 Hz; 16 Bit; Stereo


TOC of the extracted CD

Track | Start | Length | Start sector | End sector
––––––––––––––––––––––––––––-
1 | 0:00.00 | 3:25.07 | 0 | 15381
2 | 3:25.07 | 3:10.60 | 15382 | 29691
3 | 6:35.67 | 3:35.47 | 29692 | 45863
4 | 10:11.39 | 2:50.17 | 45864 | 58630
5 | 13:01.56 | 3:40.40 | 58631 | 75170


Range status and errors

Selected range

Filename D:\Queen - Jazz [UICY-75048].wav

Peak level 100.0 %
Extraction speed 3.3 X
Range quality 100.0 %
Test CRC 9335EA43
Copy CRC 9335EA43
Copy OK

No errors occurred


AccurateRip summary

Track 1 accurately ripped (confidence 90) [78425228] (AR v2)
Track 2 accurately ripped (confidence 90) [6E332D26] (AR v2)
Track 3 accurately ripped (confidence 90) [7D1A7AA6] (AR v2)
Track 4 accurately ripped (confidence 90) [A5AFA233] (AR v2)
Track 5 accurately ripped (confidence 90) [D3587189] (AR v2)

All tracks accurately ripped

End of status report

–– CUETools DB Plugin V2.1.6

[CTDB TOCID: VOc44Llwzrp5KtvxrEKtW8WAtAo-] found
Submit result: VOc44Llwzrp5KtvxrEKtW8WAtAo- has been confirmed
Track | CTDB Status
1 | (113/182) Accurately ripped
2 | (112/182) Accurately ripped
3 | (113/182) Accurately ripped
4 | (113/182) Accurately ripped
5 | (113/182) Accurately ripped


==== Log checksum 6C274EAC5AD0919EBCC21CB30F29B3B865114FD9D95665A6D65DAF7851297704 ====


[CUETools log; Date: 19.04.2019 4:47:27; Version: 2.1.4]
[AccurateRip ID: 00036de4-000ffbb6-3a03ea05] found.
Track [ CRC | V2 ] Status
01 [044c018a|78425228] (020+112/249) Accurately ripped
02 [2fd4f539|6e332d26] (020+113/259) Accurately ripped
03 [20c0169c|7d1a7aa6] (020+112/256) Accurately ripped
04 [b9bf53e1|a5afa233] (020+113/258) Accurately ripped
05 [59a0aed2|d3587189] (020+110/256) Accurately ripped
Offsetted by -90:
01 [cb1cfab9] (002/249) Accurately ripped
02 [24f1ff62] (002/259) Accurately ripped
03 [484192b5] (002/256) Accurately ripped
04 [defbd70a] (002/258) Accurately ripped
05 [515a9827] (002/256) Accurately ripped
Offsetted by -694:
01 [8aceb006] (000/249) No match (V2 was not tested)
02 [2c60eea7] (000/259) No match (V2 was not tested)
03 [c76d897f] (000/256) No match (V2 was not tested)
04 [5fb527da] (000/258) No match (V2 was not tested)
05 [54182663] (000/256) No match (V2 was not tested)
Offsetted by -204:
01 [3d5cd492] (000/249) No match (V2 was not tested)
02 [d04f5b66] (000/259) No match (V2 was not tested)
03 [4dc8041b] (000/256) No match (V2 was not tested)
04 [f5dd3ff3] (000/258) No match (V2 was not tested)
05 [85af3b34] (000/256) No match (V2 was not tested)
Offsetted by -25:
01 [6feb6029] (000/249) No match (V2 was not tested)
02 [a96ff856] (000/259) No match (V2 was not tested)
03 [fb90fc42] (000/256) No match (V2 was not tested)
04 [d3bbc7e9] (000/258) No match (V2 was not tested)
05 [d5b214c2] (000/256) No match (V2 was not tested)
Offsetted by -12:
01 [c8840e97] (000/249) No match (V2 was not tested)
02 [063f3518] (000/259) No match (V2 was not tested)
03 [cdc890e2] (000/256) No match (V2 was not tested)
04 [85150093] (000/258) No match (V2 was not tested)
05 [44d6eef1] (000/256) No match (V2 was not tested)
Offsetted by 6:
01 [a1561150] (000/249) No match (V2 was not tested)
02 [f233ebb3] (000/259) No match (V2 was not tested)
03 [309ec06c] (000/256) No match (V2 was not tested)
04 [539e7153] (000/258) No match (V2 was not tested)
05 [bf77e99a] (000/256) No match (V2 was not tested)

Track Peak [ CRC32 ] [W/O NULL] [ LOG ]
– 100,0 [9335EA43] [882C52DB] CRC32
01 100,0 [E6318851] [9DA63E7B]
02 100,0 [0B60108C] [0992009B]
03 100,0 [63A48F63] [7483DAF8]
04 100,0 [B822EE04] [57DE3172]
05 93,9 [1D859065] [27A70345]


Queen - Jazz (1979) [2CD, 40th Anniversary Edition] Re-up

All thanks go to the original releaser

Queen in my Blog

Download Queen - Jazz (1979):