Tags
Language
Tags

? & The Mysterians (Question Mark And The Mysterians) - The Best Of ? & The Mysterians: Cameo Parkway 1966-1967 (2005)

Posted By: Designol
? & The Mysterians (Question Mark And The Mysterians) - The Best Of ? & The Mysterians: Cameo Parkway 1966-1967 (2005)

? & The Mysterians - The Best of ? & The Mysterians: Cameo Parkway 1966-1967 (2005)
EAC | FLAC | Tracks (Cue&Log) ~ 368 Mb | Mp3 (CBR320) ~ 155 Mb | Scans ~ 70 Mb
Garage Rock, Psychedelic Rock | Label: ABKCO | # 001877192322 | Time: 01:07:57

Abkco's 2005 compilation The Best of ? & the Mysterians: Cameo Parkway 1966-1967 is the first official CD release of the Michigan garage rocker's classic Cameo Parkway recordings, but for hardcore garage rock collectors, it might look a little bit similar to a 1995 unofficial release called Original Recordings. The discs not only share 25 tracks but they're presented in the same sequencing. Then again, that shouldn't be a surprise since both discs contain the entirety of the quintet's two full-length LPs – the 1966 96 Tears and its 1967 follow-up Action – plus the "Do Something to Me"/"Love Me Baby (Cherry July)" single. The '95 release contains five tracks that didn't make it to this release, but this has two previously unreleased versions of "Midnight Hour" and "96 Tears," neither of which were as a good as the released versions (the alternate "96 Tears" is surprisingly limp, actually). As should be expected from an official release, Abkco's Best Of has much better sound – clean, but retaining the grit and murk that distinguished the Mysterians' LPs – and a good set of liner notes from Jeff Tamarkin that detail the history of this shadowy band. Their music remains a little hit and miss – only "96 Tears" is a stone-cold classic, and it's surely one of the great rock & roll singles ever, but they have several other strong garage rockers, particularly on the second album – but despite the handful of generic moments, it's still a blessing that the original ? & the Mysterians records have not only finally made it to CD, but in such an appealing fashion as this.

Review by Stephen Thomas Erlewine, Allmusic.com

? & The Mysterians (Question Mark And The Mysterians) - The Best Of ? & The Mysterians: Cameo Parkway 1966-1967 (2005)



Tracklist:

01. I Need Somebody (02:15)
02. Stormy Monday (02:27)
03. You're Telling Me Lies (02:31)
04. Ten O'Clock (02:13)
05. Set Aside (03:03)
06. Up Side (02:53)
07. '8' Teen (02:48)
08. Don't Tease Me (01:41)
09. Don't Break This Heart Of Mine (01:55)
10. Why Me (01:38)
11. Midnight Hour (02:38)
12. 96 Tears (02:58)
13. Girl (You Captivate Me) (02:17)
14. Can't Get Enough Of You, Baby (01:57)
15. Got To (02:22)
16. I'll Be Back (02:02)
17. Shout (Part 1 and 2) (05:31)
18. Hangin' On A String (02:15)
19. Smokes (01:52)
20. It's Not Easy (02:43)
21. Don't Hold It Against Me (01:57)
22. Just Like A Rose (02:10)
23. Do You Feel It (02:25)
24. Do Something To Me (02:37)
25. Love Me Baby (Cherry July) (03:03)
26. Midnight Hour [Unreleased Version] (02:30)
27. 96 Tears [Unreleased Version] (03:03)


Exact Audio Copy V0.99 prebeta 5 from 4. May 2009

EAC extraction logfile from 29. May 2010, 14:25

Question Mark and the Mysterians / The Best of Question Mark and the Mysterians - Cameo Parkway, 1966-1967

Used drive : Optiarc DVD RW AD-7240S Adapter: 0 ID: 4

Read mode : Secure
Utilize accurate stream : Yes
Defeat audio cache : Yes
Make use of C2 pointers : No

Read offset correction : 48
Overread into Lead-In and Lead-Out : No
Fill up missing offset samples with silence : Yes
Delete leading and trailing silent blocks : No
Null samples used in CRC calculations : Yes
Used interface : Native Win32 interface for Win NT & 2000
Gap handling : Appended to previous track

Used output format : User Defined Encoder
Selected bitrate : 768 kBit/s
Quality : High
Add ID3 tag : No
Command line compressor : C:\Exact Audio Copy\Flac\flac.exe
Additional command line options : -8 -V -T "ARTIST=%a" -T "TITLE=%t" -T "ALBUM=%g" -T "DATE=%y" -T "TRACKNUMBER=%n" -T "GENRE=%m" -T "COMMENT=EAC FLAC -8" %s


TOC of the extracted CD

Track | Start | Length | Start sector | End sector
––––––––––––––––––––––––––––-
1 | 0:00.00 | 2:15.57 | 0 | 10181
2 | 2:15.57 | 2:27.53 | 10182 | 21259
3 | 4:43.35 | 2:31.20 | 21260 | 32604
4 | 7:14.55 | 2:13.12 | 32605 | 42591
5 | 9:27.67 | 3:03.45 | 42592 | 56361
6 | 12:31.37 | 2:53.20 | 56362 | 69356
7 | 15:24.57 | 2:48.68 | 69357 | 82024
8 | 18:13.50 | 1:41.05 | 82025 | 89604
9 | 19:54.55 | 1:55.20 | 89605 | 98249
10 | 21:50.00 | 1:38.45 | 98250 | 105644
11 | 23:28.45 | 2:38.37 | 105645 | 117531
12 | 26:07.07 | 2:58.55 | 117532 | 130936
13 | 29:05.62 | 2:17.55 | 130937 | 141266
14 | 31:23.42 | 1:57.10 | 141267 | 150051
15 | 33:20.52 | 2:22.63 | 150052 | 160764
16 | 35:43.40 | 2:02.30 | 160765 | 169944
17 | 37:45.70 | 5:31.20 | 169945 | 194789
18 | 43:17.15 | 2:15.07 | 194790 | 204921
19 | 45:32.22 | 1:52.48 | 204922 | 213369
20 | 47:24.70 | 2:43.32 | 213370 | 225626
21 | 50:08.27 | 1:57.43 | 225627 | 234444
22 | 52:05.70 | 2:10.22 | 234445 | 244216
23 | 54:16.17 | 2:25.70 | 244217 | 255161
24 | 56:42.12 | 2:37.35 | 255162 | 266971
25 | 59:19.47 | 3:03.18 | 266972 | 280714
26 | 62:22.65 | 2:30.12 | 280715 | 291976
27 | 64:53.02 | 3:03.45 | 291977 | 305746


Track 1

Filename E:\01 - I Need Somebody.wav

Pre-gap length 0:00:02.00

Peak level 83.1 %
Track quality 100.0 %
Test CRC 42CB886C
Copy CRC 42CB886C
Accurately ripped (confidence 6) [6EA83D6D]
Copy OK

Track 2

Filename E:\02 - Stormy Monday.wav

Pre-gap length 0:00:03.00

Peak level 92.9 %
Track quality 100.0 %
Test CRC C9CA346A
Copy CRC C9CA346A
Accurately ripped (confidence 6) [D1BBB9C4]
Copy OK

Track 3

Filename E:\03 - You're Telling Me Lies.wav

Pre-gap length 0:00:02.20

Peak level 84.9 %
Track quality 100.0 %
Test CRC 05709760
Copy CRC 05709760
Accurately ripped (confidence 6) [F7A3BF30]
Copy OK

Track 4

Filename E:\04 - Ten O'Clock.wav

Pre-gap length 0:00:02.44

Peak level 86.1 %
Track quality 99.9 %
Test CRC 76322E7A
Copy CRC 76322E7A
Accurately ripped (confidence 6) [850E922E]
Copy OK

Track 5

Filename E:\05 - Set Aside.wav

Pre-gap length 0:00:02.29

Peak level 98.8 %
Track quality 99.9 %
Test CRC 3CD36113
Copy CRC 3CD36113
Accurately ripped (confidence 6) [9418BC0A]
Copy OK

Track 6

Filename E:\06 - Up Side.wav

Pre-gap length 0:00:03.02

Peak level 90.8 %
Track quality 100.0 %
Test CRC 5A49B191
Copy CRC 5A49B191
Accurately ripped (confidence 6) [CD81718C]
Copy OK

Track 7

Filename E:\07 - '8' Teen.wav

Pre-gap length 0:00:02.96

Peak level 87.5 %
Track quality 100.0 %
Test CRC EFBB2C99
Copy CRC EFBB2C99
Accurately ripped (confidence 6) [73663F4A]
Copy OK

Track 8

Filename E:\08 - Don't Tease Me.wav

Pre-gap length 0:00:02.80

Peak level 89.0 %
Track quality 100.0 %
Test CRC 4A25F5E1
Copy CRC 4A25F5E1
Accurately ripped (confidence 6) [F296CE9A]
Copy OK

Track 9

Filename E:\09 - Don't Break This Heart Of Mine.wav

Pre-gap length 0:00:03.60

Peak level 89.1 %
Track quality 100.0 %
Test CRC 7E371900
Copy CRC 7E371900
Accurately ripped (confidence 6) [18A72142]
Copy OK

Track 10

Filename E:\10 - Why Me.wav

Pre-gap length 0:00:03.50

Peak level 87.6 %
Track quality 99.8 %
Test CRC 5B8A5D18
Copy CRC 5B8A5D18
Accurately ripped (confidence 6) [7C0AD5D8]
Copy OK

Track 11

Filename E:\11 - Midnight Hour.wav

Pre-gap length 0:00:02.84

Peak level 94.3 %
Track quality 100.0 %
Test CRC 6C726F59
Copy CRC 6C726F59
Accurately ripped (confidence 6) [5E4602CD]
Copy OK

Track 12

Filename E:\12 - 96 Tears.wav

Pre-gap length 0:00:03.36

Peak level 95.7 %
Track quality 100.0 %
Test CRC CACDC120
Copy CRC CACDC120
Accurately ripped (confidence 6) [B13B7F31]
Copy OK

Track 13

Filename E:\13 - Girl (You Captivate Me).wav

Pre-gap length 0:00:02.33

Peak level 99.8 %
Track quality 100.0 %
Test CRC 3B23584B
Copy CRC 3B23584B
Accurately ripped (confidence 6) [9C443062]
Copy OK

Track 14

Filename E:\14 - Can't Get Enough Of You, Baby.wav

Pre-gap length 0:00:02.53

Peak level 99.0 %
Track quality 100.0 %
Test CRC 5BD1F563
Copy CRC 5BD1F563
Accurately ripped (confidence 6) [9485A6AD]
Copy OK

Track 15

Filename E:\15 - Got To.wav

Pre-gap length 0:00:02.36

Peak level 98.6 %
Track quality 100.0 %
Test CRC 63E895A3
Copy CRC 63E895A3
Accurately ripped (confidence 6) [3C18F7C7]
Copy OK

Track 16

Filename E:\16 - I'll Be Back.wav

Pre-gap length 0:00:02.24

Peak level 99.8 %
Track quality 100.0 %
Test CRC F05CE9E5
Copy CRC F05CE9E5
Accurately ripped (confidence 6) [FB2C9C2B]
Copy OK

Track 17

Filename E:\17 - Shout (Part 1 and 2).wav

Pre-gap length 0:00:02.60

Peak level 99.8 %
Track quality 100.0 %
Test CRC 860E946F
Copy CRC 860E946F
Accurately ripped (confidence 6) [3D3D2D1A]
Copy OK

Track 18

Filename E:\18 - Hangin' On A String.wav

Pre-gap length 0:00:02.26

Peak level 99.8 %
Track quality 100.0 %
Test CRC 326C1AA1
Copy CRC 326C1AA1
Accurately ripped (confidence 6) [E3C1B2C9]
Copy OK

Track 19

Filename E:\19 - Smokes.wav

Pre-gap length 0:00:03.06

Peak level 99.8 %
Track quality 100.0 %
Test CRC AAA00B86
Copy CRC AAA00B86
Accurately ripped (confidence 6) [26F7DCBA]
Copy OK

Track 20

Filename E:\20 - It's Not Easy.wav

Pre-gap length 0:00:02.30

Peak level 99.8 %
Track quality 100.0 %
Test CRC CDE21470
Copy CRC CDE21470
Accurately ripped (confidence 6) [4EFC0EE4]
Copy OK

Track 21

Filename E:\21 - Don't Hold It Against Me.wav

Pre-gap length 0:00:02.62

Peak level 99.7 %
Track quality 99.9 %
Test CRC 2C835BEF
Copy CRC 2C835BEF
Accurately ripped (confidence 6) [FED50792]
Copy OK

Track 22

Filename E:\22 - Just Like A Rose.wav

Pre-gap length 0:00:03.06

Peak level 99.8 %
Track quality 100.0 %
Test CRC C034E41C
Copy CRC C034E41C
Accurately ripped (confidence 6) [D9E7147C]
Copy OK

Track 23

Filename E:\23 - Do You Feel It.wav

Pre-gap length 0:00:02.20

Peak level 99.8 %
Track quality 100.0 %
Test CRC 69FD77EB
Copy CRC 69FD77EB
Accurately ripped (confidence 6) [49FEDCC3]
Copy OK

Track 24

Filename E:\24 - Do Something To Me.wav

Pre-gap length 0:00:02.62

Peak level 99.8 %
Track quality 100.0 %
Test CRC 4C54B7A6
Copy CRC 4C54B7A6
Accurately ripped (confidence 6) [E5D9165B]
Copy OK

Track 25

Filename E:\25 - Love Me Baby (Cherry July).wav

Pre-gap length 0:00:02.06

Peak level 99.8 %
Track quality 100.0 %
Test CRC 7EE831D2
Copy CRC 7EE831D2
Accurately ripped (confidence 6) [93848C4B]
Copy OK

Track 26

Filename E:\26 - Midnight Hour [Unreleased Version].wav

Pre-gap length 0:00:03.37

Peak level 99.7 %
Track quality 100.0 %
Test CRC 07863598
Copy CRC 07863598
Accurately ripped (confidence 6) [49D79779]
Copy OK

Track 27

Filename E:\27 - 96 Tears [Unreleased Version].wav

Pre-gap length 0:00:00.02

Peak level 99.6 %
Track quality 100.0 %
Test CRC 2858D79C
Copy CRC 2858D79C
Accurately ripped (confidence 5) [1E06C598]
Copy OK


All tracks accurately ripped

No errors occurred

End of status report

foobar2000 1.2 / Dynamic Range Meter 1.1.1
log date: 2016-05-05 13:55:10

––––––––––––––––––––––––––––––––––––––––
Analyzed: Question Mark and the Mysterians / The Best of Question Mark and the Mysterians - Cameo Parkway, 1966-1967
––––––––––––––––––––––––––––––––––––––––

DR Peak RMS Duration Track
––––––––––––––––––––––––––––––––––––––––
DR8 -1.61 dB -11.37 dB 2:16 01-I Need Somebody
DR8 -0.63 dB -10.85 dB 2:28 02-Stormy Monday
DR9 -1.41 dB -12.11 dB 2:31 03-You're Telling Me Lies
DR7 -1.29 dB -10.66 dB 2:13 04-Ten O'Clock
DR10 -0.10 dB -12.42 dB 3:04 05-Set Aside
DR9 -0.83 dB -10.67 dB 2:53 06-Up Side
DR9 -1.16 dB -11.42 dB 2:49 07-'8' Teen
DR9 -1.01 dB -11.73 dB 1:41 08-Don't Tease Me
DR8 -1.00 dB -11.40 dB 1:55 09-Don't Break This Heart Of Mine
DR9 -1.15 dB -11.99 dB 1:39 10-Why Me
DR9 -0.50 dB -11.33 dB 2:38 11-Midnight Hour
DR9 -0.37 dB -10.25 dB 2:59 12-96 Tears
DR10 -0.01 dB -11.29 dB 2:18 13-Girl (You Captivate Me)
DR10 -0.08 dB -11.64 dB 1:57 14-Can't Get Enough Of You, Baby
DR10 -0.12 dB -12.81 dB 2:23 15-Got To
DR10 -0.01 dB -11.30 dB 2:02 16-I'll Be Back
DR9 -0.01 dB -10.41 dB 5:31 17-Shout (Part 1 and 2)
DR10 -0.01 dB -11.42 dB 2:15 18-Hangin' On A String
DR9 -0.01 dB -11.17 dB 1:53 19-Smokes
DR10 -0.01 dB -11.65 dB 2:43 20-It's Not Easy
DR9 -0.02 dB -10.42 dB 1:58 21-Don't Hold It Against Me
DR9 -0.01 dB -10.49 dB 2:10 22-Just Like A Rose
DR10 -0.01 dB -12.08 dB 2:26 23-Do You Feel It
DR9 -0.01 dB -9.83 dB 2:37 24-Do Something To Me
DR9 -0.01 dB -10.16 dB 3:03 25-Love Me Baby (Cherry July)
DR9 -0.02 dB -11.05 dB 2:30 26-Midnight Hour [Unreleased Version]
DR10 -0.03 dB -12.24 dB 3:04 27-96 Tears [Unreleased Version]
––––––––––––––––––––––––––––––––––––––––

Number of tracks: 27
Official DR value: DR9

Samplerate: 44100 Hz
Channels: 2
Bits per sample: 16
Bitrate: 965 kbps
Codec: FLAC
================================================================================

? & The Mysterians (Question Mark And The Mysterians) - The Best Of ? & The Mysterians: Cameo Parkway 1966-1967 (2005)

? & The Mysterians (Question Mark And The Mysterians) - The Best Of ? & The Mysterians: Cameo Parkway 1966-1967 (2005)

All thanks to original releaser - oldrocker

More interesting music in My Blog