Subcategories
Tags
Language
Tags

Robert Noehren - ...Premieres (1987) {Delos International} **[RE-UP]**

Posted By: TestTickles
Robert Noehren - ...Premieres (1987) {Delos International} **[RE-UP]**

Robert Noehren - …Premieres (1987) {Delos International}
EAC Rip | FLAC with CUE and log | scans | 341 mb
MP3 CBR 320kbps | RAR | 175 mb
Genre: classical

Robert Noehren Premieres is a 1987 album by organist Robert Noehren. It is mainly a solo recording but he gets help in song number 8. This disc was released by Delos International.

Robert Noehren - ...Premieres (1987) {Delos International} **[RE-UP]**

1. Charles-Marie Widor: Allegro, from the Sixth Symphony for Organ
2. Johannes Brahms: Herzlich thut mich verlangen, Op. 122, No. 9
3. Johannes Brahms: O wie selig seid irh doch, ihr Frommen, Op. 122, No. 6
4. Johann Sebastian Bach: Prelude and Fugue in A minor
5. Johann Sebastian Bach: Chorale
6. Jehan Alain: Variations on a Theme by Clement Jannequin
7. Paul Hindemith: Sonata No. 1
8. Sigfrid Karg-Elert: Fuge, Kanzone und Epilog, Op. 85, No. 3
9. Olivier Messiaen: Dieu parmi nous (La Nativite du Seigneur, 1935)

Robert Noehren-organ
Marla Smith-violin (track 8)
The Women Of The Choir Of Mariner's Church, Detroit-vocals (track 8)

Produced & engineered by John Eargle
Assistant engineer: Jerome Stine

EAC extraction logfile from 4. March 2017, 14:24 for CD
Robert Noehren / Robert Noehren Premieres

Used drive : TSSTcorpDVD+-RW TS-H653B Adapter: 2 ID: 0
Read mode : Secure with NO C2, accurate stream, disable cache
Read offset correction : 6
Overread into Lead-In and Lead-Out : No

Used output format : Internal WAV Routines
44.100 Hz; 16 Bit; Stereo

Other options :
Fill up missing offset samples with silence : Yes
Delete leading and trailing silent blocks : No
Native Win32 interface for Win NT & 2000


Track 1
Filename C:\Documents and Settings\Desktop\Robert Noehren - …Premieres (1987) [FLAC] {Delos International}\01 - Charles-Marie Widor- Allegro, from the Sixth Symphony for Organ.wav

Pre-gap length 0:00:02.00

Peak level 69.2 %
Track quality 99.9 %
Test CRC 3BC55302
Copy CRC 3BC55302
Copy OK

Track 2
Filename C:\Documents and Settings\Desktop\Robert Noehren - …Premieres (1987) [FLAC] {Delos International}\02 - Johannes Brahms- Herzlich thut mich verlangen, Op. 122, No. 9.wav

Pre-gap length 0:00:00.50

Peak level 23.7 %
Track quality 100.0 %
Test CRC 07FAF7CB
Copy CRC 07FAF7CB
Copy OK

Track 3
Filename C:\Documents and Settings\Desktop\Robert Noehren - …Premieres (1987) [FLAC] {Delos International}\03 - Johannes Brahms- O wie selig seid irh doch, ihr Frommen, Op. 122, No. 6.wav

Pre-gap length 0:00:00.49

Peak level 13.4 %
Track quality 99.9 %
Test CRC 1CB6D7E4
Copy CRC 1CB6D7E4
Copy OK

Track 4
Filename C:\Documents and Settings\Desktop\Robert Noehren - …Premieres (1987) [FLAC] {Delos International}\04 - Johann Sebastian Bach- Prelude and Fugue in A minor.wav

Pre-gap length 0:00:00.50

Peak level 54.2 %
Track quality 99.9 %
Test CRC BE865516
Copy CRC BE865516
Copy OK

Track 5
Filename C:\Documents and Settings\Desktop\Robert Noehren - …Premieres (1987) [FLAC] {Delos International}\05 - Johann Sebastian Bach- Chorale.wav

Pre-gap length 0:00:00.50

Peak level 14.5 %
Track quality 100.0 %
Test CRC 76FEFC9B
Copy CRC 76FEFC9B
Copy OK

Track 6
Filename C:\Documents and Settings\Desktop\Robert Noehren - …Premieres (1987) [FLAC] {Delos International}\06 - Jehan Alain- Variations on a Theme by Clement Jannequin.wav

Pre-gap length 0:00:00.49

Peak level 13.4 %
Track quality 100.0 %
Test CRC D2CBB873
Copy CRC D2CBB873
Copy OK

Track 7
Filename C:\Documents and Settings\Desktop\Robert Noehren - …Premieres (1987) [FLAC] {Delos International}\07 - Paul Hindemith- Sonata No. 1.wav

Pre-gap length 0:00:00.50

Peak level 49.8 %
Track quality 99.9 %
Test CRC 90F467B1
Copy CRC 90F467B1
Copy OK

Track 8
Filename C:\Documents and Settings\Desktop\Robert Noehren - …Premieres (1987) [FLAC] {Delos International}\08 - Sigfrid Karg-Elert- Fuge, Kanzone und Epilog, Op. 85, No. 3.wav

Pre-gap length 0:00:00.49

Peak level 62.3 %
Track quality 99.9 %
Test CRC 9F20511F
Copy CRC 9F20511F
Copy OK

Track 9
Filename C:\Documents and Settings\Desktop\Robert Noehren - …Premieres (1987) [FLAC] {Delos International}\09 - Olivier Messiaen- Dieu parmi nous (La Nativite du Seigneur, 1935).wav

Pre-gap length 0:00:00.50

Peak level 65.0 %
Track quality 99.9 %
Test CRC 3BBD804E
Copy CRC 3BBD804E
Copy OK

No errors occured


End of status report


Robert Noehren - ...Premieres (1987) {Delos International} **[RE-UP]**