Tags
Language
Tags
June 2024
Su Mo Tu We Th Fr Sa
26 27 28 29 30 31 1
2 3 4 5 6 7 8
9 10 11 12 13 14 15
16 17 18 19 20 21 22
23 24 25 26 27 28 29
30 1 2 3 4 5 6

RCO - Anthology of the Royal Concertgebouw Orchestra, Volume 6, 1990-2000 (2011) {14CD Box Set, RCO 11004} (Complete Artwork)

Posted By: ruskaval
RCO - Anthology of the Royal Concertgebouw Orchestra, Volume 6, 1990-2000 (2011) {14CD Box Set, RCO 11004} (Complete Artwork)

RCO - Anthology of the Royal Concertgebouw Orchestra, Volume 6, 1990-2000 (2011) {14CD Box Set, RCO 11004} (Complete Artwork)
XLD rip (secure mode) | FLAC (tracks)+CUE+LOG -> 4.36 Gb | MP3 @320 -> 2.40 Gb
Full Artwork @ 300 dpi (jpg) -> 141 Mb | 5% repair rar
© 1990-2000, 2011 Radio Netherlands Music / RCO LIve | RCO 11004
Classical / Orchestral

I bought this shortly after my first visit to the Concertgebouw itself, when I was bowled over by the hall's superb acoustics and atmosphere. So these live broadcast recordings were pungent evocations of the experience. But even without that, this is a box worth having, if you can afford it. The first two discs alone are dynamite: a marvellously dramatic, idiomatic account of Bartok's Bluebeard's Castle with Ivan Fischer and Hungarian soloists, followed by one of the best Mahler Fifths I've heard, from Tennstedt in 1990.
RCO - Anthology of the Royal Concertgebouw Orchestra, Volume 6, 1990-2000 (2011) {14CD Box Set, RCO 11004} (Complete Artwork)

Depending on your preferences, you may or may not find other things here to match these two performances. But there's something for everyone, actually. Sanderling provides an excellent Bruckner Third and an even better Shostakovich Fifth. Dutoit and soloists excel in Dutilleux's 'L'arbre des songes' and Messiaen's 'Trois petites Liturgies'. There's lots more, including Schoenberg from Boulez, Mozart from Harnoncourt, Schubert from Gardiner, and Berio conducting his own Sinfonia in 1997. And all performed by one of the world's greatest orchestras.
RCO - Anthology of the Royal Concertgebouw Orchestra, Volume 6, 1990-2000 (2011) {14CD Box Set, RCO 11004} (Complete Artwork)


Works on This Recording

1.
Bluebeard's Castle, Op. 11/Sz 48 by Béla Bartók
Performer: Ildiko Komlósi (Mezzo Soprano), Kolos Kovacs (Baritone)
Conductor: Iván Fischer
Orchestra/Ensemble: Royal Concertgebouw Orchestra
Period: 20th Century
Written: 1911/1918; Budapest, Hungary
2.
Concerto for Piano no 3, Sz 119 by Béla Bartók
Performer: Martha Argerich (Piano)
Conductor: Claus Peter Flor
Orchestra/Ensemble: Royal Concertgebouw Orchestra
Period: 20th Century
Written: 1945; USA
3.
Symphony no 6 in F major, Op. 68 "Pastoral" by Ludwig van Beethoven
Conductor: Wolfgang Sawallisch
Orchestra/Ensemble: Royal Concertgebouw Orchestra
Written: 1808
4.
Sinfonia for Eight Voices and Orchestra by Luciano Berio
Conductor: Luciano Berio
Orchestra/Ensemble: Royal Concertgebouw Orchestra, Swingle Singers
Period: 20th Century
Written: 1968-1969
5.
Les nuits d'été, Op. 7 by Hector Berlioz
Performer: Ann Murray (Mezzo Soprano)
Conductor: Bernard Haitink
Orchestra/Ensemble: Royal Concertgebouw Orchestra
Period: Romantic
Written: 1840-1841; France
6.
Tragic Overture, Op. 81 by Johannes Brahms
Conductor: Nikolaus Harnoncourt
Orchestra/Ensemble: Royal Concertgebouw Orchestra
Period: Romantic
Written: 1880; Austria
7.
Symphony no 3 in D minor, WAB 103 by Anton Bruckner
Conductor: Kurt Sanderling
Orchestra/Ensemble: Royal Concertgebouw Orchestra
Period: Romantic
Written: Vienna, Austria
8.
Liriche Greche (13) by Luigi Dallapiccola
Performer: Lucy Shelton (Soprano)
Conductor: Reinbert De Leeuw
Orchestra/Ensemble: Royal Concertgebouw Orchestra
Period: 20th Century
Written: 1942; Italy
9.
Prélude à l'après-midi d'un faune by Claude Debussy
Conductor: Jean Fournet
Orchestra/Ensemble: Royal Concertgebouw Orchestra
Period: 20th Century
Written: 1892-1894; France
10.
Hymne an die Nacht no 2 by Alphons Diepenbrock
Performer: Nathalie Stutzmann (Alto)
Conductor: Riccardo Chailly
Orchestra/Ensemble: Royal Concertgebouw Orchestra
Period: Romantic
Written: 1899/1909; Netherlands (Holland
11.
Concerto for Violin "L'arbre des songes" by Henri Dutilleux
Performer: Isabelle van Keulen (Violin)
Conductor: Charles Dutoit
Orchestra/Ensemble: Royal Concertgebouw Orchestra
Period: 20th Century
Written: 1985; France
12.
Symphony no 2 in E flat major, Op. 63 by Sir Edward Elgar
Conductor: André Previn
Orchestra/Ensemble: Royal Concertgebouw Orchestra
Period: Romantic
Written: 1909-1911; England
13.
Coptic Light by Morton Feldman
Conductor: Peter Eötvös
Orchestra/Ensemble: Royal Concertgebouw Orchestra
Period: 20th Century
Written: 1986; USA
14.
Symphonic Metamorphosis on Themes of Carl Maria von Weber by Paul Hindemith
Conductor: Riccardo Chailly
Orchestra/Ensemble: Royal Concertgebouw Orchestra
Period: 20th Century
Written: 1943; USA
15.
First Orchestral Set "Three Places in New England" by Charles Ives
Conductor: John Adams
Orchestra/Ensemble: Royal Concertgebouw Orchestra
Period: 20th Century
Written: circa 1912-1921; USA
16.
Concerto for Piano by Theo Loevendie
Performer: Ronald Brautigam (Piano)
Conductor: André Previn
Orchestra/Ensemble: Royal Concertgebouw Orchestra
17.
Concerto for Orchestra by Witold Lutoslawski
Conductor: Stanislaw Skrowaczewski
Orchestra/Ensemble: Royal Concertgebouw Orchestra
Period: 20th Century
Written: 1954; Poland
18.
Symphony no 5 in C sharp minor by Gustav Mahler
Conductor: Klaus Tennstedt
Orchestra/Ensemble: Royal Concertgebouw Orchestra
Period: Romantic
Written: 1901-1902; Vienna, Austria
19.
Concerto for 7 Winds, Percussion and Strings by Frank Martin
Conductor: Riccardo Chailly
Orchestra/Ensemble: Royal Concertgebouw Orchestra
Period: 20th Century
Written: 1949; Switzerland
20.
Petites liturgies (3) de la Présence Divine by Olivier Messiaen
Performer: Jean Laurendeau (Ondes Martenot), Marc-André Hamelin (Piano)
Conductor: Charles Dutoit
Orchestra/Ensemble: Royal Concertgebouw Orchestra, Netherlands Radio Women's Chorus
Period: 20th Century
Written: 1944; France
21.
Symphony no 40 in G minor, K 550 by Wolfgang Amadeus Mozart
Conductor: Nikolaus Harnoncourt
Orchestra/Ensemble: Royal Concertgebouw Orchestra
Period: Classical
Written: 1788; Vienna, Austria
22.
Zes symfonische epigrammen by Willem Pijper
Conductor: Bernard Haitink
Orchestra/Ensemble: Royal Concertgebouw Orchestra
Period: 20th Century
Written: 1928
23.
Ma mère l'oye by Maurice Ravel
Conductor: Bernard Haitink
Orchestra/Ensemble: Royal Concertgebouw Orchestra
Period: 20th Century
Written: France
24.
Verklärte Nacht for String Orchestra, Op. 4 by Arnold Schoenberg
Conductor: Pierre Boulez
Orchestra/Ensemble: Royal Concertgebouw Orchestra
Period: 20th Century
Written: 1899/1943; Vienna, Austria
25.
Pieces (5) for Orchestra, Op. 16 by Arnold Schoenberg
Conductor: Mariss Jansons
Orchestra/Ensemble: Royal Concertgebouw Orchestra
Period: 20th Century
Written: 1909; Vienna, Austria
26.
Vom ewigen Leben by Franz Schreker
Performer: Claudia Barainsky (Soprano)
Conductor: Gerd Albrecht
Orchestra/Ensemble: Royal Concertgebouw Orchestra
Period: 20th Century
Written: 1927; Austria
27.
Symphony no 9 in C major, D 944 "Great" by Franz Schubert
Conductor: John Eliot Gardiner
Orchestra/Ensemble: Royal Concertgebouw Orchestra
Period: Romantic
Written: ?1825-28; Vienna, Austria
28.
Fantasie for Violin and Orchestra in C major, Op. 131 by Robert Schumann
Performer: Thomas Zehetmair (Violin)
Conductor: Nikolaus Harnoncourt
Orchestra/Ensemble: Royal Concertgebouw Orchestra
Period: Romantic
Written: 1853; Germany
29.
Symphony no 1 in F minor, Op. 10 by Dmitri Shostakovich
Conductor: Sir Georg Solti
Orchestra/Ensemble: Royal Concertgebouw Orchestra
Period: 20th Century
Written: 1924-1925; USSR
30.
Symphony no 4 in A minor, Op. 63 by Jean Sibelius
Conductor: Paavo Berglund
Orchestra/Ensemble: Royal Concertgebouw Orchestra
Period: 20th Century
Written: 1911; Finland
31.
Symphony no 5 in D minor, Op. 47 by Dmitri Shostakovich
Conductor: Kurt Sanderling
Orchestra/Ensemble: Royal Concertgebouw Orchestra
Period: 20th Century
Written: 1937; USSR
32.
Tod und Verklärung, Op. 24 by Richard Strauss
Conductor: Kurt Masur
Orchestra/Ensemble: Royal Concertgebouw Orchestra
Period: Romantic
Written: 1888-1889; Germany
33.
Le baiser de la fée: Divertimento for Orchestra by Igor Stravinsky
Conductor: Gennadi Rozhdestvensky
Orchestra/Ensemble: Royal Concertgebouw Orchestra
Period: 20th Century
Written: 1934; France
34.
A Flock Descends into the Pentagonal Garden by Toru Takemitsu
Conductor: John Adams
Orchestra/Ensemble: Royal Concertgebouw Orchestra
Period: 20th Century
Written: 1977; Japan
35.
Rienzi: Overture by Richard Wagner
Conductor: Mariss Jansons
Orchestra/Ensemble: Royal Concertgebouw Orchestra
Period: Romantic
Written: 1840-1843; Germany
36.
Sinfonische Gesänge, Op. 20 by Alexander von Zemlinsky
Performer: Willard White (Bass)
Conductor: Riccardo Chailly
Orchestra/Ensemble: Royal Concertgebouw Orchestra
Period: 20th Century
Written: 1929; Vienna, Austria
37.
Concerto for Trumpet in C major "Nobody knows de trouble I see" by Bernd Alois Zimmermann
Performer: Peter Masseurs (Trumpet)
Conductor: Edo de Waart
Orchestra/Ensemble: Royal Concertgebouw Orchestra
Period: 20th Century
Written: 1954; Germany

X Lossless Decoder version 20141109 (148.0)

XLD extraction logfile from 2014-11-23 23:23:37 +0100

Royal Concertgebouw Orchestra / Anthology of the Royal Concertgebouw Orchestra Vol. 6 - Live. The Radio Recordings 1990-2000 [RCO Live]

Used drive : TSSTcorp CDDVDW SE-S084D (revision TS01)
Media type : Pressed CD

Ripper mode : XLD Secure Ripper
Disable audio cache : OK for the drive with a cache less than 1375KiB
Make use of C2 pointers : NO
Read offset correction : 6
Max retry count : 100
Gap status : Analyzed, Appended (except HTOA)

TOC of the extracted CD
Track | Start | Length | Start sector | End sector
––––––––––––––––––––––––––––-
1 | 00:00:00 | 02:00:34 | 0 | 9033
2 | 02:00:34 | 12:50:25 | 9034 | 66808
3 | 14:50:59 | 03:54:74 | 66809 | 84432
4 | 18:45:58 | 03:59:74 | 84433 | 102431
5 | 22:45:57 | 02:04:72 | 102432 | 111803
6 | 24:50:54 | 04:35:10 | 111804 | 132438
7 | 29:25:64 | 06:24:08 | 132439 | 161246
8 | 35:49:72 | 12:29:24 | 161247 | 217445
9 | 48:19:21 | 09:28:17 | 217446 | 260062

AccurateRip Summary (DiscID: 00117b6b-0081e971-700d8b09)
Track 01 : OK (v2, confidence 11/11)
Track 02 : OK (v2, confidence 11/11)
Track 03 : OK (v2, confidence 11/11)
Track 04 : OK (v2, confidence 11/11)
Track 05 : OK (v2, confidence 11/11)
Track 06 : OK (v2, confidence 11/11)
Track 07 : OK (v2, confidence 11/11)
Track 08 : OK (v2, confidence 10/10)
Track 09 : OK (v2, confidence 11/11)
->All tracks accurately ripped.

All Tracks
Album gain : 2.99 dB
Peak : 0.999908
Statistics
Read error : 0
Jitter error (maybe fixed) : 0
Retry sector count : 0
Damaged sector count : 0

Track 01
Filename : /Volumes/4TB 2/CD rips/Various/Anthology of the Royal Concertgebouw Orchestra Vol. 6 - Live. The Radio Recordings 1990-2000 [RCO Live]/CD 1/01 Bluebeard's Castle Op. 11: Prologue.flac
Pre-gap length : 00:02:00

Track gain : 22.47 dB
Peak : 0.168335
CRC32 hash (test run) : 08AF5551
CRC32 hash : 08AF5551
CRC32 hash (skip zero) : 0F6BF148
AccurateRip v1 signature : 42F8D78D
AccurateRip v2 signature : 2AFF0A58
->Accurately ripped (v2, confidence 11/11)
Statistics
Read error : 0
Jitter error (maybe fixed) : 0
Retry sector count : 0
Damaged sector count : 0

Track 02
Filename : /Volumes/4TB 2/CD rips/Various/Anthology of the Royal Concertgebouw Orchestra Vol. 6 - Live. The Radio Recordings 1990-2000 [RCO Live]/CD 1/02 Bluebeard's Castle Op. 11: Opening scene.flac

Track gain : 6.83 dB
Peak : 0.732483
CRC32 hash (test run) : 3E73BDB8
CRC32 hash : 3E73BDB8
CRC32 hash (skip zero) : 6372242C
AccurateRip v1 signature : 515F3F13
AccurateRip v2 signature : 0F3B618C
->Accurately ripped (v2, confidence 11/11)
Statistics
Read error : 0
Jitter error (maybe fixed) : 0
Retry sector count : 0
Damaged sector count : 0

Track 03
Filename : /Volumes/4TB 2/CD rips/Various/Anthology of the Royal Concertgebouw Orchestra Vol. 6 - Live. The Radio Recordings 1990-2000 [RCO Live]/CD 1/03 Bluebeard's Castle Op. 11: The torture chamber.flac

Track gain : 4.85 dB
Peak : 0.570435
CRC32 hash (test run) : BADAF664
CRC32 hash : BADAF664
CRC32 hash (skip zero) : 52FED686
AccurateRip v1 signature : EBBC5C12
AccurateRip v2 signature : 1A56F4E4
->Accurately ripped (v2, confidence 11/11)
Statistics
Read error : 0
Jitter error (maybe fixed) : 0
Retry sector count : 0
Damaged sector count : 0

Track 04
Filename : /Volumes/4TB 2/CD rips/Various/Anthology of the Royal Concertgebouw Orchestra Vol. 6 - Live. The Radio Recordings 1990-2000 [RCO Live]/CD 1/04 Bluebeard's Castle Op. 11: The armory.flac

Track gain : 5.79 dB
Peak : 0.482819
CRC32 hash (test run) : 0E20B0FF
CRC32 hash : 0E20B0FF
CRC32 hash (skip zero) : A4061827
AccurateRip v1 signature : B504CE0E
AccurateRip v2 signature : 055F26B6
->Accurately ripped (v2, confidence 11/11)
Statistics
Read error : 0
Jitter error (maybe fixed) : 0
Retry sector count : 0
Damaged sector count : 0

Track 05
Filename : /Volumes/4TB 2/CD rips/Various/Anthology of the Royal Concertgebouw Orchestra Vol. 6 - Live. The Radio Recordings 1990-2000 [RCO Live]/CD 1/05 Bluebeard's Castle Op. 11: The treasury.flac

Track gain : 7.52 dB
Peak : 0.295776
CRC32 hash (test run) : 52D8670B
CRC32 hash : 52D8670B
CRC32 hash (skip zero) : D4F2DE89
AccurateRip v1 signature : EA1E3E93
AccurateRip v2 signature : 75C16BB7
->Accurately ripped (v2, confidence 11/11)
Statistics
Read error : 0
Jitter error (maybe fixed) : 0
Retry sector count : 0
Damaged sector count : 0

Track 06
Filename : /Volumes/4TB 2/CD rips/Various/Anthology of the Royal Concertgebouw Orchestra Vol. 6 - Live. The Radio Recordings 1990-2000 [RCO Live]/CD 1/06 Bluebeard's Castle Op. 11: The garden.flac

Track gain : 1.47 dB
Peak : 0.772400
CRC32 hash (test run) : 9467461C
CRC32 hash : 9467461C
CRC32 hash (skip zero) : E2A96454
AccurateRip v1 signature : 5A1B7B41
AccurateRip v2 signature : D2F56C8E
->Accurately ripped (v2, confidence 11/11)
Statistics
Read error : 0
Jitter error (maybe fixed) : 0
Retry sector count : 0
Damaged sector count : 0

Track 07
Filename : /Volumes/4TB 2/CD rips/Various/Anthology of the Royal Concertgebouw Orchestra Vol. 6 - Live. The Radio Recordings 1990-2000 [RCO Live]/CD 1/07 Bluebeard's Castle Op. 11: The kingdom.flac

Track gain : -0.96 dB
Peak : 0.867249
CRC32 hash (test run) : DE91C3C7
CRC32 hash : DE91C3C7
CRC32 hash (skip zero) : 196079C5
AccurateRip v1 signature : 8A8466F1
AccurateRip v2 signature : 8A0B36B0
->Accurately ripped (v2, confidence 11/11)
Statistics
Read error : 0
Jitter error (maybe fixed) : 0
Retry sector count : 0
Damaged sector count : 0

Track 08
Filename : /Volumes/4TB 2/CD rips/Various/Anthology of the Royal Concertgebouw Orchestra Vol. 6 - Live. The Radio Recordings 1990-2000 [RCO Live]/CD 1/08 Bluebeard's Castle Op. 11: The pool of tears.flac

Track gain : 4.10 dB
Peak : 0.999908
CRC32 hash (test run) : BD56CE49
CRC32 hash : BD56CE49
CRC32 hash (skip zero) : 4BAF45DC
AccurateRip v1 signature : 8DEAF207
AccurateRip v2 signature : 5046F0C5
->Accurately ripped (v2, confidence 10/10)
Statistics
Read error : 0
Jitter error (maybe fixed) : 0
Retry sector count : 0
Damaged sector count : 0

Track 09
Filename : /Volumes/4TB 2/CD rips/Various/Anthology of the Royal Concertgebouw Orchestra Vol. 6 - Live. The Radio Recordings 1990-2000 [RCO Live]/CD 1/09 Bluebeard's Castle Op. 11: The wives.flac

Track gain : 5.06 dB
Peak : 0.722412
CRC32 hash (test run) : 17534DE9
CRC32 hash : 17534DE9
CRC32 hash (skip zero) : 072542CD
AccurateRip v1 signature : 2BF1CAB9
AccurateRip v2 signature : 83B43251
->Accurately ripped (v2, confidence 11/11)
Statistics
Read error : 0
Jitter error (maybe fixed) : 0
Retry sector count : 0
Damaged sector count : 0

No errors occurred

End of status report

––-BEGIN XLD SIGNATURE––-
kD84tpuIyzbr7vBWIgsqngoKXv_zTrATBAGhMxYVfl9wrn5OarNClNVhRrR0fjuCTB4ivNfBIeVo388LhTRnxKiQcUi3gfYi6BFDTtS
––-END XLD SIGNATURE––-
X Lossless Decoder version 20141109 (148.0)

XLD extraction logfile from 2014-11-24 12:20:50 +0100

Royal Concertgebouw Orchestra / Anthology of the Royal Concertgebouw Orchestra Vol. 6 - Live. The Radio Recordings 1990-2000 [RCO Live]

Used drive : TSSTcorp CDDVDW SE-S084D (revision TS01)
Media type : Pressed CD

Ripper mode : XLD Secure Ripper
Disable audio cache : OK for the drive with a cache less than 1375KiB
Make use of C2 pointers : NO
Read offset correction : 6
Max retry count : 100
Gap status : Analyzed, Appended (except HTOA)

TOC of the extracted CD
Track | Start | Length | Start sector | End sector
––––––––––––––––––––––––––––-
1 | 00:00:00 | 10:58:69 | 0 | 49418
2 | 10:58:69 | 04:05:38 | 49419 | 67831
3 | 15:04:32 | 08:15:54 | 67832 | 105010
4 | 23:20:11 | 04:15:59 | 105011 | 124194
5 | 27:35:70 | 05:02:47 | 124195 | 146891
6 | 32:38:42 | 12:58:68 | 146892 | 205309
7 | 45:37:35 | 31:21:06 | 205310 | 346390

AccurateRip Summary (DiscID: 000ff23a-006228ec-5c120a07)
Track 01 : OK (v2, confidence 10/10)
Track 02 : OK (v2, confidence 10/10)
Track 03 : OK (v2, confidence 10/10)
Track 04 : OK (v2, confidence 10/10)
Track 05 : OK (v2, confidence 10/10)
Track 06 : OK (v2, confidence 10/10)
Track 07 : OK (v2, confidence 10/10)
->All tracks accurately ripped.

All Tracks
Album gain : -0.46 dB
Peak : 0.999939
Statistics
Read error : 0
Jitter error (maybe fixed) : 0
Retry sector count : 0
Damaged sector count : 0

Track 01
Filename : /Volumes/4TB 2/CD rips/Various/Anthology of the Royal Concertgebouw Orchestra Vol. 6 - Live. The Radio Recordings 1990-2000 [RCO Live]/CD 8/01 Prélude à l'après-midi d'un faune.flac
Pre-gap length : 00:02:00

Track gain : 1.21 dB
Peak : 0.999939
CRC32 hash (test run) : 130270EF
CRC32 hash : 130270EF
CRC32 hash (skip zero) : 993522C0
AccurateRip v1 signature : E3D86E27
AccurateRip v2 signature : A6CB659F
->Accurately ripped (v2, confidence 10/10)
Statistics
Read error : 0
Jitter error (maybe fixed) : 0
Retry sector count : 0
Damaged sector count : 0

Track 02
Filename : /Volumes/4TB 2/CD rips/Various/Anthology of the Royal Concertgebouw Orchestra Vol. 6 - Live. The Radio Recordings 1990-2000 [RCO Live]/CD 8/02 Symphonic Metamorphosis after Themes by Carl Maria von Weber: I. Allegro.flac
Pre-gap length : 00:04:45

Track gain : -1.34 dB
Peak : 0.964813
CRC32 hash (test run) : 4F0085F2
CRC32 hash : 4F0085F2
CRC32 hash (skip zero) : A3C14858
AccurateRip v1 signature : 313065FC
AccurateRip v2 signature : 4F8C6DBF
->Accurately ripped (v2, confidence 10/10)
Statistics
Read error : 0
Jitter error (maybe fixed) : 0
Retry sector count : 0
Damaged sector count : 0

Track 03
Filename : /Volumes/4TB 2/CD rips/Various/Anthology of the Royal Concertgebouw Orchestra Vol. 6 - Live. The Radio Recordings 1990-2000 [RCO Live]/CD 8/03 Symphonic Metamorphosis after Themes by Carl Maria von Weber: II. Turandot. Scherzo.flac

Track gain : 0.08 dB
Peak : 0.862946
CRC32 hash (test run) : 2BC70A52
CRC32 hash : 2BC70A52
CRC32 hash (skip zero) : CA8986C7
AccurateRip v1 signature : 796A1BE7
AccurateRip v2 signature : EAF71CAC
->Accurately ripped (v2, confidence 10/10)
Statistics
Read error : 0
Jitter error (maybe fixed) : 0
Retry sector count : 0
Damaged sector count : 0

Track 04
Filename : /Volumes/4TB 2/CD rips/Various/Anthology of the Royal Concertgebouw Orchestra Vol. 6 - Live. The Radio Recordings 1990-2000 [RCO Live]/CD 8/04 Symphonic Metamorphosis after Themes by Carl Maria von Weber: III. Andantino.flac

Track gain : 6.54 dB
Peak : 0.421326
CRC32 hash (test run) : 9C0BFF0A
CRC32 hash : 9C0BFF0A
CRC32 hash (skip zero) : C79DDFCC
AccurateRip v1 signature : 17DD1413
AccurateRip v2 signature : CE3CE6B6
->Accurately ripped (v2, confidence 10/10)
Statistics
Read error : 0
Jitter error (maybe fixed) : 0
Retry sector count : 0
Damaged sector count : 0

Track 05
Filename : /Volumes/4TB 2/CD rips/Various/Anthology of the Royal Concertgebouw Orchestra Vol. 6 - Live. The Radio Recordings 1990-2000 [RCO Live]/CD 8/05 Symphonic Metamorphosis after Themes by Carl Maria von Weber: IV. Marsch.flac

Track gain : -1.05 dB
Peak : 0.999908
CRC32 hash (test run) : 6478A708
CRC32 hash : 6478A708
CRC32 hash (skip zero) : 7455CBBA
AccurateRip v1 signature : 2B01A502
AccurateRip v2 signature : D626CFA2
->Accurately ripped (v2, confidence 10/10)
Statistics
Read error : 0
Jitter error (maybe fixed) : 0
Retry sector count : 0
Damaged sector count : 0

Track 06
Filename : /Volumes/4TB 2/CD rips/Various/Anthology of the Royal Concertgebouw Orchestra Vol. 6 - Live. The Radio Recordings 1990-2000 [RCO Live]/CD 8/06 Concerto for Trumpet and Orchestra, 'Nobody knows de trouble I see'.flac
Pre-gap length : 00:04:46

Track gain : 0.49 dB
Peak : 0.999939
CRC32 hash (test run) : 8D99A889
CRC32 hash : 8D99A889
CRC32 hash (skip zero) : ABFE3CA5
AccurateRip v1 signature : 06D9CAD5
AccurateRip v2 signature : AEDB7652
->Accurately ripped (v2, confidence 10/10)
Statistics
Read error : 0
Jitter error (maybe fixed) : 0
Retry sector count : 0
Damaged sector count : 0

Track 07
Filename : /Volumes/4TB 2/CD rips/Various/Anthology of the Royal Concertgebouw Orchestra Vol. 6 - Live. The Radio Recordings 1990-2000 [RCO Live]/CD 8/07 Verklärte Nacht Op. 4 [arr. for strings].flac
Pre-gap length : 00:04:34

Track gain : -0.96 dB
Peak : 0.999939
CRC32 hash (test run) : 420F6B05
CRC32 hash : 420F6B05
CRC32 hash (skip zero) : 033065EB
AccurateRip v1 signature : BA60E403
AccurateRip v2 signature : CCE39829
->Accurately ripped (v2, confidence 10/10)
Statistics
Read error : 0
Jitter error (maybe fixed) : 0
Retry sector count : 0
Damaged sector count : 0

No errors occurred

End of status report

––-BEGIN XLD SIGNATURE––-
Ua7NXAnWKXnon72eoWaMPJRTYGEAWxlC8XCqil7cehaBMudVTkKKo2xfGiUpHQzvxGIQ15CEiuS4Rdd0q3lEfDhLeuUymOz6aZuHpHu
––-END XLD SIGNATURE––-
X Lossless Decoder version 20141109 (148.0)

XLD extraction logfile from 2014-11-24 15:21:29 +0100

Royal Concertgebouw Orchestra / Anthology of the Royal Concertgebouw Orchestra Vol. 6 - Live. The Radio Recordings 1990-2000 [RCO Live]

Used drive : TSSTcorp CDDVDW SE-S084D (revision TS01)
Media type : Pressed CD

Ripper mode : XLD Secure Ripper
Disable audio cache : OK for the drive with a cache less than 1375KiB
Make use of C2 pointers : NO
Read offset correction : 6
Max retry count : 100
Gap status : Analyzed, Appended (except HTOA)

TOC of the extracted CD
Track | Start | Length | Start sector | End sector
––––––––––––––––––––––––––––-
1 | 00:00:00 | 11:54:66 | 0 | 53615
2 | 11:54:66 | 17:13:09 | 53616 | 131099
3 | 29:08:00 | 05:34:38 | 131100 | 156187
4 | 34:42:38 | 14:41:43 | 156188 | 222305
5 | 49:24:06 | 12:03:49 | 222306 | 276579
6 | 61:27:55 | 04:25:42 | 276580 | 296496
7 | 65:53:22 | 11:21:02 | 296497 | 347573

AccurateRip Summary (DiscID: 0016a455-00858cee-72121a07)
Track 01 : OK (v2, confidence 10/10)
Track 02 : OK (v2, confidence 10/10)
Track 03 : OK (v2, confidence 10/10)
Track 04 : OK (v2, confidence 10/10)
Track 05 : OK (v2, confidence 10/10)
Track 06 : OK (v2, confidence 10/10)
Track 07 : OK (v2, confidence 10/10)
->All tracks accurately ripped.

All Tracks
Album gain : 2.69 dB
Peak : 0.999939
Statistics
Read error : 0
Jitter error (maybe fixed) : 0
Retry sector count : 0
Damaged sector count : 0

Track 01
Filename : /Volumes/4TB 2/CD rips/Various/Anthology of the Royal Concertgebouw Orchestra Vol. 6 - Live. The Radio Recordings 1990-2000 [RCO Live]/CD 14/01 A Flock Descends into the Pentagonal Garden.flac
Pre-gap length : 00:02:00

Track gain : 3.52 dB
Peak : 0.999939
CRC32 hash (test run) : 80645524
CRC32 hash : 80645524
CRC32 hash (skip zero) : 99769FA4
AccurateRip v1 signature : A648C39D
AccurateRip v2 signature : BD5804B1
->Accurately ripped (v2, confidence 10/10)
Statistics
Read error : 0
Jitter error (maybe fixed) : 0
Retry sector count : 0
Damaged sector count : 0

Track 02
Filename : /Volumes/4TB 2/CD rips/Various/Anthology of the Royal Concertgebouw Orchestra Vol. 6 - Live. The Radio Recordings 1990-2000 [RCO Live]/CD 14/02 Symphony No. 5 in D minor Op. 47: I. Moderato.flac
Pre-gap length : 00:04:51

Track gain : 4.45 dB
Peak : 0.798462
CRC32 hash (test run) : 931F91A8
CRC32 hash : 931F91A8
CRC32 hash (skip zero) : 66A3E76B
AccurateRip v1 signature : CDEC429E
AccurateRip v2 signature : B05BE096
->Accurately ripped (v2, confidence 10/10)
Statistics
Read error : 0
Jitter error (maybe fixed) : 0
Retry sector count : 0
Damaged sector count : 0

Track 03
Filename : /Volumes/4TB 2/CD rips/Various/Anthology of the Royal Concertgebouw Orchestra Vol. 6 - Live. The Radio Recordings 1990-2000 [RCO Live]/CD 14/03 Symphony No. 5 in D minor Op. 47: II. Allegretto.flac

Track gain : 2.42 dB
Peak : 0.734924
CRC32 hash (test run) : 2A0873FA
CRC32 hash : 2A0873FA
CRC32 hash (skip zero) : 159F0767
AccurateRip v1 signature : 1394F1E6
AccurateRip v2 signature : 0B9144B9
->Accurately ripped (v2, confidence 10/10)
Statistics
Read error : 0
Jitter error (maybe fixed) : 0
Retry sector count : 0
Damaged sector count : 0

Track 04
Filename : /Volumes/4TB 2/CD rips/Various/Anthology of the Royal Concertgebouw Orchestra Vol. 6 - Live. The Radio Recordings 1990-2000 [RCO Live]/CD 14/04 Symphony No. 5 in D minor Op. 47: III. Largo.flac

Track gain : 5.27 dB
Peak : 0.486084
CRC32 hash (test run) : A4856C4B
CRC32 hash : A4856C4B
CRC32 hash (skip zero) : 852A6C9A
AccurateRip v1 signature : 5F242E00
AccurateRip v2 signature : C3B7EB79
->Accurately ripped (v2, confidence 10/10)
Statistics
Read error : 0
Jitter error (maybe fixed) : 0
Retry sector count : 0
Damaged sector count : 0

Track 05
Filename : /Volumes/4TB 2/CD rips/Various/Anthology of the Royal Concertgebouw Orchestra Vol. 6 - Live. The Radio Recordings 1990-2000 [RCO Live]/CD 14/05 Symphony No. 5 in D minor Op. 47: IV. Allegro non troppo.flac

Track gain : 0.74 dB
Peak : 0.999939
CRC32 hash (test run) : 68F158FA
CRC32 hash : 68F158FA
CRC32 hash (skip zero) : 111CCF89
AccurateRip v1 signature : B35C9C04
AccurateRip v2 signature : 86F0B1B8
->Accurately ripped (v2, confidence 10/10)
Statistics
Read error : 0
Jitter error (maybe fixed) : 0
Retry sector count : 0
Damaged sector count : 0

Track 06
Filename : /Volumes/4TB 2/CD rips/Various/Anthology of the Royal Concertgebouw Orchestra Vol. 6 - Live. The Radio Recordings 1990-2000 [RCO Live]/CD 14/06 Vom ewigen Leben: I.flac
Pre-gap length : 00:04:45

Track gain : 1.19 dB
Peak : 0.793854
CRC32 hash (test run) : 91DB3319
CRC32 hash : 91DB3319
CRC32 hash (skip zero) : 4D49B07E
AccurateRip v1 signature : 0167969F
AccurateRip v2 signature : D6F0A81F
->Accurately ripped (v2, confidence 10/10)
Statistics
Read error : 0
Jitter error (maybe fixed) : 0
Retry sector count : 0
Damaged sector count : 0

Track 07
Filename : /Volumes/4TB 2/CD rips/Various/Anthology of the Royal Concertgebouw Orchestra Vol. 6 - Live. The Radio Recordings 1990-2000 [RCO Live]/CD 14/07 Vom ewigen Leben: II.flac

Track gain : 3.44 dB
Peak : 0.999908
CRC32 hash (test run) : BC4CD1CA
CRC32 hash : BC4CD1CA
CRC32 hash (skip zero) : 26E1EFCA
AccurateRip v1 signature : 57F9887A
AccurateRip v2 signature : 132B43C5
->Accurately ripped (v2, confidence 10/10)
Statistics
Read error : 0
Jitter error (maybe fixed) : 0
Retry sector count : 0
Damaged sector count : 0

No errors occurred

End of status report

––-BEGIN XLD SIGNATURE––-
d7FLgvQYLkkN1fNWdstIrQsxESYKwPMUujEdJ3DmGj3qvEBpCKIEmQIXWLHWxsKP2S88qk.wBPWsn19z7JLQjW8XJc14LlyHVWEMGEK
––-END XLD SIGNATURE––-


RCO - Anthology of the Royal Concertgebouw Orchestra, Volume 6, 1990-2000 (2011) {14CD Box Set, RCO 11004} (Complete Artwork)

RCO - Anthology of the Royal Concertgebouw Orchestra, Volume 6, 1990-2000 (2011) {14CD Box Set, RCO 11004} (Complete Artwork)

RCO - Anthology of the Royal Concertgebouw Orchestra, Volume 6, 1990-2000 (2011) {14CD Box Set, RCO 11004} (Complete Artwork)

RCO - Anthology of the Royal Concertgebouw Orchestra, Volume 6, 1990-2000 (2011) {14CD Box Set, RCO 11004} (Complete Artwork)

RCO - Anthology of the Royal Concertgebouw Orchestra, Volume 6, 1990-2000 (2011) {14CD Box Set, RCO 11004} (Complete Artwork)


see more Royal Concertgebouw Orchestra…

NEXT -> more Royal Concertgebouw Orchestra on the way…


===