Subcategories

REO Speedwagon - The Second Decade Of Rock And Roll 1981 To 1991 (1991)

Posted By: Designol
REO Speedwagon - The Second Decade Of Rock And Roll 1981 To 1991 (1991)

REO Speedwagon - The Second Decade Of Rock And Roll 1981 To 1991 (1991)
EAC | FLAC | Image (Cue&Log) ~ 559 Mb | Mp3 (CBR320) ~ 195 Mb | Scans included
Rock, Hard Rock, Arena Rock, Soft Rock | Label: Epic | # EK 48527 | 01:16:15

Fans of live material will thoroughly enjoy this handpicked hit-and-miss 18-track compilation of REO Speedwagon's hits recorded during the band's mid- to late-'80s tours. Most of the songs work well in a live environment, with songs like "Tough Guys," "I Do' Wanna Know," and "Keep the Fire Burning" coming out on top, harnessing the most energy while keeping with their original form. Only six of the tracks are from the studio, with "Shakin' It Loose" being the most spirited, as the others are mediocre REO efforts ("L.I.A.R," "Live Every Moment," "Love Is a Rock"). As a hits package, though, The Second Decade of Rock and Roll should be spared, especially since their best song, "Keep on Loving You," has been replaced by a poorly ventured reggae version that sounds silly and out of place. While the ballads are kept to a minimum, some of their less accomplished material could have been replaced with some of their '70s work from Tuna Fish or even REO. Tracks like "Live It Up" and "One Too Many Girlfriends" represent their late-'80s disappointments in The Earth, a Small Man, His Dog, and a Chicken and Life As We Know It, sounding a wee bit uninspired. For what it's worth, Doughty's Hammond organ revitalizes much of the live material while, on the other hand, the absence of Gary Richrath's feverish guitar playing is sadly missed on a few of the newer tunes. The Second Decade shouldn't be deemed crucial, as only a few of its tracks are truly worthy of owning.

Review by Mike DeGagne, Allmusic.com

REO Speedwagon - The Second Decade Of Rock And Roll 1981 To 1991 (1991)



Tracklist:

01. Don't Let Him Go (4:15)
02. Tough Guys (3:38)
03. Take It On The Run (4:17)
04. Keep The Fire Burnin' (4:38)
05. Roll With The Changes (5:23)
06. I Do'Wanna Know (4:14)
07. Can't Fight This Feeling (4:55)
08. Live Every Moment (4:58)
09. That Ain't Love (4:19)
10. One Too Many Girlfriends (3:56)
11. Variety Tonight (3:46)
12. Back On The Road Again (6:38)
13. Keep On Loving You '89 (Reggae Version) (3:40)
14. Love Is A Rock (5:34)
15. All Heaven Broke Loose (4:15)
16. L.I.A.R (3:08)
17. Live It Up (4:41)


Exact Audio Copy V1.0 beta 3 from 29. August 2011

EAC extraction logfile from 28. July 2012, 9:17

REO Speedwagon / The Second Decade Of Rock And Roll 1981-1991

Used drive : MATSHITADVD-RAM UJ-850S Adapter: 1 ID: 0

Read mode : Secure
Utilize accurate stream : Yes
Defeat audio cache : Yes
Make use of C2 pointers : No

Read offset correction : 102
Overread into Lead-In and Lead-Out : No
Fill up missing offset samples with silence : Yes
Delete leading and trailing silent blocks : No
Null samples used in CRC calculations : Yes
Used interface : Native Win32 interface for Win NT & 2000

Used output format : User Defined Encoder
Selected bitrate : 128 kBit/s
Quality : High
Add ID3 tag : No
Command line compressor : C:\Program Files\Exact Audio Copy\FLAC\FLAC.EXE
Additional command line options : -V -8 -T "Date=%year%" -T "Genre=%genre%" %source%


TOC of the extracted CD

Track | Start | Length | Start sector | End sector
––––––––––––––––––––––––––––-
1 | 0:00.00 | 4:15.10 | 0 | 19134
2 | 4:15.10 | 3:37.45 | 19135 | 35454
3 | 7:52.55 | 4:16.40 | 35455 | 54694
4 | 12:09.20 | 4:38.28 | 54695 | 75572
5 | 16:47.48 | 5:23.02 | 75573 | 99799
6 | 22:10.50 | 4:14.15 | 99800 | 118864
7 | 26:24.65 | 4:55.20 | 118865 | 141009
8 | 31:20.10 | 4:58.18 | 141010 | 163377
9 | 36:18.28 | 4:19.02 | 163378 | 182804
10 | 40:37.30 | 3:55.55 | 182805 | 200484
11 | 44:33.10 | 3:45.43 | 200485 | 217402
12 | 48:18.53 | 6:38.25 | 217403 | 247277
13 | 54:57.03 | 3:39.70 | 247278 | 263772
14 | 58:36.73 | 5:33.62 | 263773 | 288809
15 | 64:10.60 | 4:14.68 | 288810 | 307927
16 | 68:25.53 | 3:07.40 | 307928 | 321992
17 | 71:33.18 | 4:41.27 | 321993 | 343094


Range status and errors

Selected range

Filename C:\Users\Игорь\Desktop\Новая папка\REO Speedwagon - The Second Decade Of Rock And Roll 1981-1991.wav

Peak level 94.0 %
Extraction speed 2.7 X
Range quality 100.0 %
Test CRC FDF6380F
Copy CRC FDF6380F
Copy OK

No errors occurred


AccurateRip summary

Track 1 accurately ripped (confidence 6) [B588C432] (AR v1)
Track 2 accurately ripped (confidence 6) [19C83D60] (AR v1)
Track 3 accurately ripped (confidence 7) [0EB54FF2] (AR v1)
Track 4 accurately ripped (confidence 6) [65CBE31A] (AR v1)
Track 5 accurately ripped (confidence 6) [1D4BC169] (AR v1)
Track 6 accurately ripped (confidence 6) [29ED5D6F] (AR v1)
Track 7 accurately ripped (confidence 6) [F636E483] (AR v1)
Track 8 accurately ripped (confidence 6) [5564C2E0] (AR v1)
Track 9 accurately ripped (confidence 5) [373670B9] (AR v1)
Track 10 accurately ripped (confidence 6) [BA92CA55] (AR v1)
Track 11 accurately ripped (confidence 6) [4A48B61C] (AR v1)
Track 12 accurately ripped (confidence 6) [31D2E26D] (AR v1)
Track 13 accurately ripped (confidence 6) [A7225089] (AR v1)
Track 14 accurately ripped (confidence 6) [003CB80A] (AR v1)
Track 15 accurately ripped (confidence 5) [6A10F5A6] (AR v1)
Track 16 accurately ripped (confidence 5) [63625555] (AR v1)
Track 17 accurately ripped (confidence 6) [9188ED7F] (AR v1)

All tracks accurately ripped

End of status report

==== Log checksum 254CB4FC83D2E292C78F3CF2DBBFB2D8A95DC49D359F3F085AB00CE4752F932C ====

[CUETools log; Date: 24.08.2018 23:53:17; Version: 2.1.4]
[CTDB TOCID: 57YSu3PEGtOzw.0mDGRCqOouCqY-] found.
Track | CTDB Status
1 | (32/32) Accurately ripped
2 | (32/32) Accurately ripped
3 | (32/32) Accurately ripped
4 | (32/32) Accurately ripped
5 | (32/32) Accurately ripped
6 | (32/32) Accurately ripped
7 | (32/32) Accurately ripped
8 | (29/32) Accurately ripped
9 | (31/32) Accurately ripped
10 | (32/32) Accurately ripped
11 | (32/32) Accurately ripped
12 | (32/32) Accurately ripped
13 | (32/32) Accurately ripped
14 | (31/32) Accurately ripped
15 | (31/32) Accurately ripped
16 | (32/32) Accurately ripped
17 | (32/32) Accurately ripped
[AccurateRip ID: 002f0509-025695c0-fa11de11] found.
Track [ CRC | V2 ] Status
01 [b588c432|9163a822] (06+06/41) Accurately ripped
02 [19c83d60|ad365805] (06+06/42) Accurately ripped
03 [0eb54ff2|f7a4855f] (07+06/42) Accurately ripped
04 [65cbe31a|818329b6] (06+06/42) Accurately ripped
05 [1d4bc169|067675b0] (06+06/42) Accurately ripped
06 [29ed5d6f|1d690085] (06+06/42) Accurately ripped
07 [f636e483|3ac0bc03] (06+06/41) Accurately ripped
08 [5564c2e0|bcc3dc80] (06+06/40) Accurately ripped
09 [373670b9|3ff906aa] (05+06/39) Accurately ripped
10 [ba92ca55|717ffd42] (06+06/40) Accurately ripped
11 [4a48b61c|b5b568e2] (06+06/42) Accurately ripped
12 [31d2e26d|732c22e2] (06+06/42) Accurately ripped
13 [a7225089|55ab2666] (06+06/42) Accurately ripped
14 [003cb80a|fc67b279] (06+06/41) Accurately ripped
15 [6a10f5a6|5f23ba27] (05+05/40) Accurately ripped
16 [63625555|4c0a3b2a] (05+06/41) Accurately ripped
17 [9188ed7f|eaf47788] (06+06/42) Accurately ripped
Offsetted by 10:
01 [b9ba12b4] (04/41) Accurately ripped
02 [3da32b8e] (04/42) Accurately ripped
03 [937c866a] (04/42) Accurately ripped
04 [1c44addc] (04/42) Accurately ripped
05 [7a4a9677] (04/42) Accurately ripped
06 [c9502420] (04/42) Accurately ripped
07 [b65c6427] (04/41) Accurately ripped
08 [c7338ed5] (04/40) Accurately ripped
09 [bc94ce8b] (04/39) Accurately ripped
10 [6cd039f9] (03/40) Accurately ripped
11 [e9002879] (04/42) Accurately ripped
12 [78b458aa] (04/42) Accurately ripped
13 [1f3398f5] (04/42) Accurately ripped
14 [7332f1f3] (04/41) Accurately ripped
15 [39bc6185] (04/40) Accurately ripped
16 [ab919e5d] (04/41) Accurately ripped
17 [38db2b8d] (04/42) Accurately ripped
Offsetted by 196:
01 [3ed8035d] (04/41) Accurately ripped
02 [d499d780] (05/42) Accurately ripped
03 [5aa7222e] (05/42) Accurately ripped
04 [b83e1ce5] (05/42) Accurately ripped
05 [dd8a09f7] (05/42) Accurately ripped
06 [9f65a622] (05/42) Accurately ripped
07 [0a8fdb0d] (05/41) Accurately ripped
08 [ce1f2d69] (04/40) Accurately ripped
09 [1bdce656] (04/39) Accurately ripped
10 [e5fdaea3] (05/40) Accurately ripped
11 [e84e2c7e] (05/42) Accurately ripped
12 [c11c753e] (05/42) Accurately ripped
13 [5b825c96] (05/42) Accurately ripped
14 [95ff774e] (05/41) Accurately ripped
15 [710aff08] (05/40) Accurately ripped
16 [2090d12b] (05/41) Accurately ripped
17 [ffb438f5] (05/42) Accurately ripped
Offsetted by 368:
01 [28a051f5] (03/41) Accurately ripped
02 [cb3b9556] (03/42) Accurately ripped
03 [4c3737d6] (03/42) Accurately ripped
04 [95cca3bb] (03/42) Accurately ripped
05 [df7addc3] (03/42) Accurately ripped
06 [6febbf05] (03/42) Accurately ripped
07 [4cc2ad2b] (03/41) Accurately ripped
08 [93ab31b1] (03/40) Accurately ripped
09 [ee2261e8] (03/39) Accurately ripped
10 [80028bfe] (03/40) Accurately ripped
11 [78479c24] (03/42) Accurately ripped
12 [ffcb3e2f] (03/42) Accurately ripped
13 [1fe2c232] (03/42) Accurately ripped
14 [880c4d44] (03/41) Accurately ripped
15 [7fd0d35a] (03/40) Accurately ripped
16 [bc9fa405] (03/41) Accurately ripped
17 [46ea91ce] (03/42) Accurately ripped

Track Peak [ CRC32 ] [W/O NULL] [ LOG ]
– 94,0 [FDF6380F] [EF56E3CA] CRC32
01 94,0 [67289278] [FB19A096]
02 94,0 [0D998343] [C7071A3B]
03 94,0 [90F76925] [08915D19]
04 93,4 [AE7683D7] [7CA3AFD9]
05 93,0 [1039D30D] [02831ECE]
06 94,0 [302127CE] [2E09BE0F]
07 85,5 [AB783BA2] [FB8FA53A]
08 94,0 [CE20DCD1] [550752C0]
09 83,8 [4A15A402] [68A38DC0]
10 84,3 [C7329953] [F3653738]
11 78,8 [3812A43F] [63FC2151]
12 91,8 [42161867] [1BE540F7]
13 94,0 [60EB6EF1] [94766938]
14 87,2 [84F6BAA8] [D89476C7]
15 94,0 [FB165CB9] [F57BA73B]
16 94,0 [CE8AF711] [8879F4C8]
17 94,0 [C4904A9E] [F5012EC2]

foobar2000 1.2 / Dynamic Range Meter 1.1.1
log date: 2018-08-24 23:39:28

––––––––––––––––––––––––––––––––––––––––
Analyzed: REO Speedwagon / The Second Decade Of Rock And Roll 1981-1991
––––––––––––––––––––––––––––––––––––––––

DR Peak RMS Duration Track
––––––––––––––––––––––––––––––––––––––––
DR10 -0.54 dB -11.76 dB 4:15 01-Don't Let Him Go
DR9 -0.54 dB -11.22 dB 3:38 02-Tough Guys
DR10 -0.54 dB -12.36 dB 4:17 03-Take It On The Run
DR11 -0.59 dB -13.95 dB 4:38 04-Keep The Fire Burnin'
DR10 -0.62 dB -12.79 dB 5:23 05-Roll With The Changes
DR10 -0.54 dB -11.74 dB 4:14 06-I Do'Wanna Know
DR12 -1.35 dB -15.91 dB 4:55 07-Can't Fight This Feeling
DR10 -0.54 dB -13.10 dB 4:58 08-Live Every Moment
DR8 -1.53 dB -11.40 dB 4:19 09-That Ain't Love
DR9 -1.48 dB -11.96 dB 3:56 10-One Too Many Girlfriends
DR9 -2.06 dB -12.83 dB 3:46 11-Variety Tonight
DR9 -0.74 dB -12.39 dB 6:38 12-Back On The Road Again
DR11 -0.54 dB -14.70 dB 3:40 13-Keep On Loving You '89 (Reggae Version)
DR9 -1.19 dB -12.98 dB 5:34 14-Love Is A Rock
DR10 -0.54 dB -12.55 dB 4:15 15-All Heaven Broke Loose
DR9 -0.54 dB -12.01 dB 3:08 16-L.I.A.R
DR10 -0.54 dB -12.30 dB 4:41 17-Live It Up
––––––––––––––––––––––––––––––––––––––––

Number of tracks: 17
Official DR value: DR10

Samplerate: 44100 Hz
Channels: 2
Bits per sample: 16
Bitrate: 987 kbps
Codec: FLAC
================================================================================

REO Speedwagon - The Second Decade Of Rock And Roll 1981 To 1991 (1991)

REO Speedwagon - The Second Decade Of Rock And Roll 1981 To 1991 (1991)