Tags
Language
Tags

Rafael Kubelik - Dvořák: Overtures, Symphonic Poems, Symphonic Variations (1992)

Posted By: tirexiss
Rafael Kubelik - Dvořák: Overtures, Symphonic Poems, Symphonic Variations (1992)

Rafael Kubelik - Dvořák: Overtures, Symphonic Poems, Symphonic Variations (2006)
EAC | FLAC (image+.cue, log) | Covers Included | 02:37:12 | 751 MB
Genre: Classical | Label: Deutsche Grammophon | Catalog: 435074

One of the very greatest collections of Dvorák recordings in the catalog, this set contains the four late tone poems based on folk legends, all of the major overtures (including the In Nature's Realm, Carnival, and Othello trilogy), and the magnificent Symphonic Variations. That's over two and a half hours of the some of the most colorful, appealing music in the history of the universe, all magnificently performed and recorded. If you don't own this set, you haven't lived. – David Hurwitz

Rafael Kubelik - Dvořák: Overtures, Symphonic Poems, Symphonic Variations (1992)

Track List:

Antonín Dvořák (1841-1904)

CD 1:

01. My Home (Domov muj), concert overture (arr. from Josef Kajetán Tyl, B. 125), B. 125a (Op. 62) [0:09:45.00]
02. Hussite Overture (Husitska dramaticka ouvertura) for orchestra, B. 132 (Op. 67) [0:12:49.00]
03. In Nature's Realm (V prírode), concert overture, B. 168 (Op. 91) [0:14:23.00]
04. Carnival (Karneval), concert overture, B. 169 (Op. 92) [0:09:01.00]
05. Othello, concert overture, B. 174 (Op. 93) [0:14:14.00]
06. The Water Goblin (Vodník), symphonic poem, B. 195 (Op. 107) [0:18:16.00]

CD 2:
01. The Noon Witch (Polednice), symphonic poem, B. 196 (Op. 108) [0:13:16.00]
02. The Golden Spinning Wheel (Zlatý kolovrat), symphonic poem, B. 197 (Op. 109) [0:26:13.00]
03. The Wild Dove (Holoubek), symphonic poem for orchestra, B. 198 (Op. 110) [0:18:57.50]
04. Symphonic Variations for orchestra (on -I am a Fiddler- B. 66-3), B. 70 (Op. 78) [0:20:15.25]

Performers:
Sinfonie-Orchester des Bayerischen Rundfunks
Rafael Kubelik - conductor


Exact Audio Copy V1.0 beta 3 from 29. August 2011

EAC extraction logfile from 28. August 2013, 14:16

Rafael Kubelik / Dvorak - Overtures, Symphonic Poems, Symphonic Variations - Rafael Kubelik (Disc 1)

Used drive : TSSTcorpCDDVDW SH-222BB Adapter: 2 ID: 1

Read mode : Secure
Utilize accurate stream : Yes
Defeat audio cache : Yes
Make use of C2 pointers : No

Read offset correction : 6
Overread into Lead-In and Lead-Out : No
Fill up missing offset samples with silence : Yes
Delete leading and trailing silent blocks : No
Null samples used in CRC calculations : Yes
Used interface : Native Win32 interface for Win NT & 2000

Used output format : User Defined Encoder
Selected bitrate : 1024 kBit/s
Quality : High
Add ID3 tag : No
Command line compressor : C:\Program Files\Exact Audio Copy\Flac\flac.exe
Additional command line options : -8 -V -T "TITLE=%title%" -T "ARTIST=%artist%" -T "ALBUMARTIST=%albumartist%" -T "ALBUM=%albumtitle%" -T "DATE=%year%" -T "TRACKNUMBER=%tracknr%" -T "TRACKTOTAL=%numtracks%" -T "GENRE=%genre%" -T "COMMENT=%comment%" -T "PERFORMER=%albuminterpret%" -T "COMPOSER=%composer%" %source% -o %dest%


TOC of the extracted CD

Track | Start | Length | Start sector | End sector
––––––––––––––––––––––––––––-
1 | 0:00.33 | 9:45.00 | 33 | 43907
2 | 9:45.33 | 12:49.00 | 43908 | 101582
3 | 22:34.33 | 14:23.00 | 101583 | 166307
4 | 36:57.33 | 9:01.00 | 166308 | 206882
5 | 45:58.33 | 14:14.00 | 206883 | 270932
6 | 60:12.33 | 18:16.00 | 270933 | 353132


Range status and errors

Selected range

Filename G:\Ripped general\[2522] Dvorak – Overtures, Symphonic Poems, Symphonic Variations – Rafael Kubelik\cd1\Dvorak - Overtures, Symphonic Poems, Symphonic Variations - Rafael Kubelik (Disc 1).wav

Peak level 97.7 %
Extraction speed 2.3 X
Range quality 99.9 %
Test CRC A9730D42
Copy CRC A9730D42
Copy OK

No errors occurred


AccurateRip summary

Track 1 accurately ripped (confidence 5) [F88E45D8] (AR v2)
Track 2 accurately ripped (confidence 5) [F0B4948D] (AR v2)
Track 3 accurately ripped (confidence 5) [C6DE86DA] (AR v2)
Track 4 accurately ripped (confidence 5) [3A3FCFBA] (AR v2)
Track 5 accurately ripped (confidence 4) [3B1A5978] (AR v2)
Track 6 accurately ripped (confidence 5) [781475C2] (AR v2)

All tracks accurately ripped

End of status report


Exact Audio Copy V1.0 beta 3 from 29. August 2011

EAC extraction logfile from 28. August 2013, 16:02

Rafael Kubelik / Dvorak - Overtures, Symphonic Poems, Symphonic Variations - Rafael Kubelik (Disc 2)

Used drive : TSSTcorpCDDVDW SH-222BB Adapter: 2 ID: 1

Read mode : Secure
Utilize accurate stream : Yes
Defeat audio cache : Yes
Make use of C2 pointers : No

Read offset correction : 6
Overread into Lead-In and Lead-Out : No
Fill up missing offset samples with silence : Yes
Delete leading and trailing silent blocks : No
Null samples used in CRC calculations : Yes
Used interface : Native Win32 interface for Win NT & 2000

Used output format : User Defined Encoder
Selected bitrate : 1024 kBit/s
Quality : High
Add ID3 tag : No
Command line compressor : C:\Program Files\Exact Audio Copy\Flac\flac.exe
Additional command line options : -8 -V -T "TITLE=%title%" -T "ARTIST=%artist%" -T "ALBUMARTIST=%albumartist%" -T "ALBUM=%albumtitle%" -T "DATE=%year%" -T "TRACKNUMBER=%tracknr%" -T "TRACKTOTAL=%numtracks%" -T "GENRE=%genre%" -T "COMMENT=%comment%" -T "PERFORMER=%albuminterpret%" -T "COMPOSER=%composer%" %source% -o %dest%


TOC of the extracted CD

Track | Start | Length | Start sector | End sector
––––––––––––––––––––––––––––-
1 | 0:00.33 | 13:16.00 | 33 | 59732
2 | 13:16.33 | 26:13.00 | 59733 | 177707
3 | 39:29.33 | 18:57.50 | 177708 | 263032
4 | 58:27.08 | 20:15.25 | 263033 | 354182


Range status and errors

Selected range

Filename G:\Ripped general\[2522] Dvorak – Overtures, Symphonic Poems, Symphonic Variations – Rafael Kubelik\cd2\Dvorak - Overtures, Symphonic Poems, Symphonic Variations - Rafael Kubelik (Disc 2).wav

Peak level 99.8 %
Extraction speed 2.3 X
Range quality 100.0 %
Test CRC 6DE9A4EF
Copy CRC 6DE9A4EF
Copy OK

No errors occurred


AccurateRip summary

Track 1 accurately ripped (confidence 4) [013B173E] (AR v2)
Track 2 accurately ripped (confidence 4) [CD72EB7E] (AR v2)
Track 3 accurately ripped (confidence 4) [8DD1ABE0] (AR v2)
Track 4 accurately ripped (confidence 4) [42F890AB] (AR v2)

All tracks accurately ripped

End of status report

Thanks to the Original ripper (unknown)!

Welcome to my blog!

Download: