Tags
Language
Tags

Rafael Kubelik - Mahler: 10 Symphonies (2000) (10 CDs Box Set)

Posted By: murena
Rafael Kubelik - Mahler: 10 Symphonies (2000) (10 CDs Box Set)

Rafael Kubelik - Mahler: 10 Symphonies (2000) (10 CDs Box Set)
EAC Rip | FLAC (Image+.cue, log) | 10 CDs, 11:02:57 min | 2,9 Gb | Scans->14 mb
Genre: Classical / Label: Deutsche Grammophon

Rafael Kubelik's highly chromatic, poetic Mahler recordings have been staples in Duetsche Grammophon's catalogue since their inception. Tempos overall tend to be quicker than the norm (Symphony No. 8 for instance fits conveniently on one CD), yet never at the expense of glossing over the composers renowned wealth of inner details. Many Mahler aficionados still regard Kubelik's readings here of the Symphonies No. 1 and No. 7 as reference recordings. Distinguished soloists include Dietrich Fischer-Dieskau, Edith Mathis, Norma Proctor, Franz Crass, and Julia Hamari. The Bavarian Radio Symphony Orchestra as well as the various outstanding choirs employed throughout the cycle couldn't be more in sync with Kubelik's inspired visionary interpretations.

Rafael Kubelik - Mahler: 10 Symphonies (2000) (10 CDs Box Set)

CDs:
01. Symphony No. 1 "Titan"
02. Symphony No. 2 "Resurrection"
03. Symphony No. 3: Movements / Satz / Mouvements 1-5
04. Symphony No. 3 / Symphony No. 10: Movement 6 / Andante - Adagio
05. Symphony No. 4
06. Symphony No. 5
07. Symphony No. 6 "Tragic"
08. Symphony No. 7
09. Symphony No. 8 "Symphony Of A Thousand"
10. Symphony No. 9

CD1
Symphonie Nr. 1 'Titan'
1. Langsam. Schleppend - Im Anfang Sehr Gemachlich
2. Kraftig Bewegt, Doch Nicht Zu Schnell - Trio. Recht Gemachlich
3. Feierlich Und Gemessen, Ohne Zu Schleppen
4. Sturmisch Bewegt

CD2
Symphonie Nr. 2 'Auferstehungs-Symphonie'
1. Allegro Maestoso
2. Andante Moderato
3. Scherzo. In Ruhig Fliebender Bewegung
4. 'Urlicht'. Sehr Feierlich, Aber schlicht
5. Im Tempo Des Scherzo. Wild Herausfahrend
6. Langsam. Misterioso
Edith Mathis - soprano
Norma Procter - contralto
Chor des Bayerischen Rundfunks

CD3
Symphonie Nr. 3
1. Kraftig. Entschieden
2. Tempo Di Menuetto. Sehr Mabig
3. Comodo. Scherzando. Ohne Hast
4. Sehr Langsam. Misterioso. Durchaus ppp - 'O Mensch! Gib Acht.
5. Lustig Im Tempo Und Keck Im Ausdruck - 'Es Sungen Drei Engel einen suben Gesang

CD4
Symphonie No. 3
1. Langsam. Ruhevoll. Empfunden
Marjorie Thomas - contralto
Tolzer Knabenchor
Chor des Bayerischen Rundfunks
2. Symphonie No. 10. Andante - Adagio
Elisie Morison - soprano
Rudolf Koeckert - violin solo

CD5
Symphonie No. 4
1. Bedachtig. Nicht Eilen
2. In Gemachlicher Bewegung.
3. Ruhevoll
4. Sehr Behaglich - 'Wir Genieben Die Himmlischen Freuden'

CD6
Symphonie Nr. 5
1. Trauermarsch. In Gemessenem Schritt. Streng. Wie Ein Kon…
2. Stumisch Bewegt. Mit GrцЯter Vehemenz
3. Scherzo. Krдftig, Nicht Zu Schnell
4. Adagietto. Sehr Langsam - Attacca
5. Rondo-Finale. Allergo - Allegro Giocoso. Frisch

CD7
Symphonie Nr. 6 'Tragische'
1. Allegro Energico, Ma Non Troppo.
2. Scherzo. Wuchtig
3. Andante Moderato
4. Finale. Allegro Moderato - Allegro Energico

CD8
Symphonie Nr. 7
1. Langsam (Adagio) - Allegro Risoluto, Ma Non Troppo
2. Nachtmusik. Allegro Moderato
3. Scherzo. Schattenhaft
4. Nachtmusik. Andante Amoroso
5. Rondo-Finale. Tempo I (Allegro Ordinario)

CD9
Symphonie Nr. 8 'Symphonie Der Tausend'
1. Hymnus 'Veni, Creator Spiritus
2. Poco adagio - piu mosso
3. Auberst langsam. Adagissimo
Martina Arroyo, Edith Mathis, Erna Spoorenberg - soprano
Julia Hamari, Norma Procter - contralto
Donald Grobe - tenor
Dietrich Fischer-Dieskau- baritone
Franz Crass - bass
Chor des Bayerischen Rundfunks
Chor des Norddeutschen Rundfunks
Chor des Westdeutschen Rundfunks
Knaben des Regensburger Domchors
Munchener Motettenchor
Eberhard Kraus - organ

CD10
Symphonie Nr. 9
1. Andante Comodo
2. Im Tempo Eines Gemachlichen Landlers.
3. Rondo-Burleske. Allegro Assai. Sehr Trotzig
4. Adagio. Sehr Langsam Und Noch Zuruckhaltend


CD1
Exact Audio Copy V0.99 prebeta 4 from 23. January 2008

EAC extraction logfile from 4. March 2010, 16:21

Mahler - Kubelik - Symphonie-Orchester Des Bayerischen Rundfunks / 10 Symphonien

Used drive : ASUS DRW-1814BLT Adapter: 2 ID: 2

Read mode : Secure
Utilize accurate stream : Yes
Defeat audio cache : Yes
Make use of C2 pointers : No

Read offset correction : 6
Overread into Lead-In and Lead-Out : No
Fill up missing offset samples with silence : Yes
Delete leading and trailing silent blocks : No
Null samples used in CRC calculations : Yes
Used interface : Native Win32 interface for Win NT & 2000

Used output format : Internal WAV Routines
Sample format : 44.100 Hz; 16 Bit; Stereo

TOC of the extracted CD

Track | Start | Length | Start sector | End sector
––––––––––––––––––––––––––––-
1 | 0:00.33 | 14:38.70 | 33 | 65952
2 | 14:39.28 | 7:03.65 | 65953 | 97742
3 | 21:43.18 | 10:37.27 | 97743 | 145544
4 | 32:20.45 | 17:39.63 | 145545 | 225032

Range status and errors

Selected range

Filename D:\EAC\Mahler - Kubelik - Symphonie-Orchester Des Bayerischen Rundfunks - 10 Symphonien.wav

Peak level 98.4 %
Range quality 100.0 %
Copy CRC 661EE788
Copy OK

No errors occurred

AccurateRip summary

Track 1 accurately ripped (confidence 6) [4763B251]
Track 2 accurately ripped (confidence 6) [C92DD828]
Track 3 accurately ripped (confidence 6) [338488A2]
Track 4 accurately ripped (confidence 6) [86ACF191]

All tracks accurately ripped

End of status report


CD2
Exact Audio Copy V0.99 prebeta 4 from 23. January 2008

EAC extraction logfile from 4. March 2010, 15:24

Mahler - R. Kubelik - Symphonie-Orchester Des Bayerischen Rundfunks / 10 Symphonien

Used drive : ASUS DRW-1814BLT Adapter: 2 ID: 2

Read mode : Secure
Utilize accurate stream : Yes
Defeat audio cache : Yes
Make use of C2 pointers : No

Read offset correction : 6
Overread into Lead-In and Lead-Out : No
Fill up missing offset samples with silence : Yes
Delete leading and trailing silent blocks : No
Null samples used in CRC calculations : Yes
Used interface : Native Win32 interface for Win NT & 2000

Used output format : Internal WAV Routines
Sample format : 44.100 Hz; 16 Bit; Stereo

TOC of the extracted CD

Track | Start | Length | Start sector | End sector
––––––––––––––––––––––––––––-
1 | 0:00.33 | 19:44.07 | 33 | 88839
2 | 19:44.40 | 10:35.08 | 88840 | 136472
3 | 30:19.48 | 10:07.00 | 136473 | 181997
4 | 40:26.48 | 4:55.57 | 181998 | 204179
5 | 45:22.30 | 17:32.13 | 204180 | 283092
6 | 62:54.43 | 13:30.12 | 283093 | 343854

Range status and errors

Selected range

Filename D:\EAC\Mahler - R. Kubelik - Symphonie-Orchester Des Bayerischen Rundfunks - 10 Symphonien.wav

Peak level 99.5 %
Range quality 100.0 %
Copy CRC 63DCC0CB
Copy OK

No errors occurred

AccurateRip summary

Track 1 accurately ripped (confidence 4) [AFB44AEC]
Track 2 accurately ripped (confidence 4) [AE28075B]
Track 3 accurately ripped (confidence 4) [E7AF8746]
Track 4 accurately ripped (confidence 4) [4A90FAAA]
Track 5 accurately ripped (confidence 4) [9C165865]
Track 6 accurately ripped (confidence 4) [62110400]

All tracks accurately ripped

End of status report


CD3
Exact Audio Copy V0.99 prebeta 4 from 23. January 2008

EAC extraction logfile from 4. March 2010, 12:56

Mahler - R. Kubelik - Symphonie-Orchester Des Bayerischen Rundfunks / 10 Symphonien

Used drive : ASUS DRW-1814BLT Adapter: 2 ID: 2

Read mode : Secure
Utilize accurate stream : Yes
Defeat audio cache : Yes
Make use of C2 pointers : No

Read offset correction : 6
Overread into Lead-In and Lead-Out : No
Fill up missing offset samples with silence : Yes
Delete leading and trailing silent blocks : No
Null samples used in CRC calculations : Yes
Used interface : Native Win32 interface for Win NT & 2000

Used output format : Internal WAV Routines
Sample format : 44.100 Hz; 16 Bit; Stereo

TOC of the extracted CD

Track | Start | Length | Start sector | End sector
––––––––––––––––––––––––––––-
1 | 0:00.33 | 31:11.70 | 33 | 140427
2 | 31:12.28 | 9:44.67 | 140428 | 184294
3 | 40:57.20 | 17:02.13 | 184295 | 260957
4 | 57:59.33 | 9:22.35 | 260958 | 303142
5 | 67:21.68 | 4:15.70 | 303143 | 322337

Range status and errors

Selected range

Filename D:\EAC\Mahler - R. Kubelik - Symphonie-Orchester Des Bayerischen Rundfunks - 10 Symphonien.wav

Peak level 99.8 %
Range quality 100.0 %
Copy CRC 5C14EBA6
Copy OK

No errors occurred

AccurateRip summary

Track 1 accurately ripped (confidence 4) [D4D158EF]
Track 2 accurately ripped (confidence 4) [49D85747]
Track 3 accurately ripped (confidence 4) [D1E45F3F]
Track 4 accurately ripped (confidence 4) [62B9AEC8]
Track 5 accurately ripped (confidence 4) [8D4B8537]

All tracks accurately ripped

End of status report


CD4
Exact Audio Copy V0.99 prebeta 4 from 23. January 2008

EAC extraction logfile from 4. March 2010, 12:03

Mahler - R. Kubelik - Symphonie-Orchester Des Bayerischen Rundfunks / 10 Symphonien

Used drive : ASUS DRW-1814BLT Adapter: 2 ID: 2

Read mode : Secure
Utilize accurate stream : Yes
Defeat audio cache : Yes
Make use of C2 pointers : No

Read offset correction : 6
Overread into Lead-In and Lead-Out : No
Fill up missing offset samples with silence : Yes
Delete leading and trailing silent blocks : No
Null samples used in CRC calculations : Yes
Used interface : Native Win32 interface for Win NT & 2000

Used output format : Internal WAV Routines
Sample format : 44.100 Hz; 16 Bit; Stereo

TOC of the extracted CD

Track | Start | Length | Start sector | End sector
––––––––––––––––––––––––––––-
1 | 0:00.33 | 22:10.25 | 33 | 99807
2 | 22:10.58 | 23:56.32 | 99808 | 207539

Range status and errors

Selected range

Filename D:\EAC\Mahler - R. Kubelik - Symphonie-Orchester Des Bayerischen Rundfunks - 10 Symphonien.wav

Peak level 89.8 %
Range quality 100.0 %
Copy CRC D8BE82F5
Copy OK

No errors occurred

AccurateRip summary

Track 1 accurately ripped (confidence 2) [6B015270]
Track 2 accurately ripped (confidence 2) [88481994]

All tracks accurately ripped

End of status report


CD5
Exact Audio Copy V0.99 prebeta 4 from 23. January 2008

EAC extraction logfile from 3. March 2010, 23:02

Mahler - R. Kubelik - Symphonie-Orchester Des Bayerischen Rundfunks / 10 Symphonien

Used drive : ASUS DRW-1814BLT Adapter: 2 ID: 2

Read mode : Secure
Utilize accurate stream : Yes
Defeat audio cache : Yes
Make use of C2 pointers : No

Read offset correction : 6
Overread into Lead-In and Lead-Out : No
Fill up missing offset samples with silence : Yes
Delete leading and trailing silent blocks : No
Null samples used in CRC calculations : Yes
Used interface : Native Win32 interface for Win NT & 2000

Used output format : Internal WAV Routines
Sample format : 44.100 Hz; 16 Bit; Stereo

TOC of the extracted CD

Track | Start | Length | Start sector | End sector
––––––––––––––––––––––––––––-
1 | 0:00.33 | 15:52.30 | 33 | 71462
2 | 15:52.63 | 9:08.55 | 71463 | 112617
3 | 25:01.43 | 18:47.67 | 112618 | 197209
4 | 43:49.35 | 8:01.05 | 197210 | 233289

Range status and errors

Selected range

Filename D:\EAC\Mahler - R. Kubelik - Symphonie-Orchester Des Bayerischen Rundfunks - 10 Symphonien.wav

Peak level 90.1 %
Range quality 100.0 %
Copy CRC 9AA0A53E
Copy OK

No errors occurred

AccurateRip summary

Track 1 accurately ripped (confidence 2) [32C95E73]
Track 2 accurately ripped (confidence 3) [EDBE7524]
Track 3 accurately ripped (confidence 3) [32190073]
Track 4 accurately ripped (confidence 3) [D64D039B]

All tracks accurately ripped

End of status report


CD6
Exact Audio Copy V0.99 prebeta 4 from 23. January 2008

EAC extraction logfile from 3. March 2010, 21:57

Mahler - R. Kubelik - Symphonie-Orchester Des Bayerischen Rundfunks / 10 Symphonien

Used drive : ASUS DRW-1814BLT Adapter: 2 ID: 2

Read mode : Secure
Utilize accurate stream : Yes
Defeat audio cache : Yes
Make use of C2 pointers : No

Read offset correction : 6
Overread into Lead-In and Lead-Out : No
Fill up missing offset samples with silence : Yes
Delete leading and trailing silent blocks : No
Null samples used in CRC calculations : Yes
Used interface : Native Win32 interface for Win NT & 2000

Used output format : Internal WAV Routines
Sample format : 44.100 Hz; 16 Bit; Stereo

TOC of the extracted CD

Track | Start | Length | Start sector | End sector
––––––––––––––––––––––––––––-
1 | 0:00.33 | 11:42.62 | 33 | 52744
2 | 11:43.20 | 13:57.73 | 52745 | 115592
3 | 25:41.18 | 17:22.32 | 115593 | 193774
4 | 43:03.50 | 9:44.55 | 193775 | 237629
5 | 52:48.30 | 15:27.10 | 237630 | 307164

Range status and errors

Selected range

Filename D:\EAC\Mahler - R. Kubelik - Symphonie-Orchester Des Bayerischen Rundfunks - 10 Symphonien.wav

Peak level 99.0 %
Range quality 100.0 %
Copy CRC 286A14B6
Copy OK

No errors occurred

AccurateRip summary

Track 1 accurately ripped (confidence 7) [7E661815]
Track 2 accurately ripped (confidence 8) [2BE3C9B4]
Track 3 accurately ripped (confidence 8) [C534141E]
Track 4 accurately ripped (confidence 7) [D61FA37C]
Track 5 accurately ripped (confidence 8) [F4F90CDD]

All tracks accurately ripped

End of status report


CD7
Exact Audio Copy V0.99 prebeta 4 from 23. January 2008

EAC extraction logfile from 3. March 2010, 17:47

Mahler - R. Kubelik - Symphonie-Orchester Des Bayerischen Rundfunks / 10 Symphonien

Used drive : ASUS DRW-1814BLT Adapter: 2 ID: 2

Read mode : Secure
Utilize accurate stream : Yes
Defeat audio cache : Yes
Make use of C2 pointers : No

Read offset correction : 6
Overread into Lead-In and Lead-Out : No
Fill up missing offset samples with silence : Yes
Delete leading and trailing silent blocks : No
Null samples used in CRC calculations : Yes
Used interface : Native Win32 interface for Win NT & 2000

Used output format : Internal WAV Routines
Sample format : 44.100 Hz; 16 Bit; Stereo

TOC of the extracted CD

Track | Start | Length | Start sector | End sector
––––––––––––––––––––––––––––-
1 | 0:00.33 | 21:11.67 | 33 | 95424
2 | 21:12.25 | 11:45.18 | 95425 | 148317
3 | 32:57.43 | 14:42.15 | 148318 | 214482
4 | 47:39.58 | 26:36.57 | 214483 | 334239

Range status and errors

Selected range

Copy aborted

End of status report

––––––––––––––––––––––––––––––

Exact Audio Copy V0.99 prebeta 4 from 23. January 2008

EAC extraction logfile from 3. March 2010, 17:59

Mahler - R. Kubelik - Symphonie-Orchester Des Bayerischen Rundfunks / 10 Symphonien

Used drive : ASUS DRW-1814BLT Adapter: 2 ID: 2

Read mode : Secure
Utilize accurate stream : Yes
Defeat audio cache : Yes
Make use of C2 pointers : No

Read offset correction : 6
Overread into Lead-In and Lead-Out : No
Fill up missing offset samples with silence : Yes
Delete leading and trailing silent blocks : No
Null samples used in CRC calculations : Yes
Used interface : Native Win32 interface for Win NT & 2000

Used output format : Internal WAV Routines
Sample format : 44.100 Hz; 16 Bit; Stereo

TOC of the extracted CD

Track | Start | Length | Start sector | End sector
––––––––––––––––––––––––––––-
1 | 0:00.33 | 21:11.67 | 33 | 95424
2 | 21:12.25 | 11:45.18 | 95425 | 148317
3 | 32:57.43 | 14:42.15 | 148318 | 214482
4 | 47:39.58 | 26:36.57 | 214483 | 334239

Range status and errors

Selected range

Filename D:\EAC\Mahler - R. Kubelik - Symphonie-Orchester Des Bayerischen Rundfunks - 10 Symphonien.wav

Peak level 97.2 %
Range quality 99.9 %
Copy CRC 0AF2576E
Copy OK

No errors occurred

AccurateRip summary

Track 1 accurately ripped (confidence 13) [6F8CA242]
Track 2 accurately ripped (confidence 14) [AD3D7249]
Track 3 accurately ripped (confidence 14) [E7CCF269]
Track 4 accurately ripped (confidence 13) [82E9C7ED]

All tracks accurately ripped

End of status report


CD8
Exact Audio Copy V0.99 prebeta 4 from 23. January 2008

EAC extraction logfile from 3. March 2010, 17:11

Mahler - R. Kubelik - Symphonie-Orchester Des Bayerischen Rundfunks / 10 Symphonien

Used drive : ASUS DRW-1814BLT Adapter: 2 ID: 2

Read mode : Secure
Utilize accurate stream : Yes
Defeat audio cache : Yes
Make use of C2 pointers : No

Read offset correction : 6
Overread into Lead-In and Lead-Out : No
Fill up missing offset samples with silence : Yes
Delete leading and trailing silent blocks : No
Null samples used in CRC calculations : Yes
Used interface : Native Win32 interface for Win NT & 2000

Used output format : Internal WAV Routines
Sample format : 44.100 Hz; 16 Bit; Stereo

TOC of the extracted CD

Track | Start | Length | Start sector | End sector
––––––––––––––––––––––––––––-
1 | 0:00.33 | 19:46.12 | 33 | 88994
2 | 19:46.45 | 14:48.25 | 88995 | 155619
3 | 34:34.70 | 9:26.13 | 155620 | 198082
4 | 44:01.08 | 12:02.50 | 198083 | 252282
5 | 56:03.58 | 16:42.00 | 252283 | 327432

Range status and errors

Selected range

Filename D:\EAC\Mahler - R. Kubelik - Symphonie-Orchester Des Bayerischen Rundfunks - 10 Symphonien.wav

Peak level 94.1 %
Range quality 100.0 %
Copy CRC 0A5E51C0
Copy OK

No errors occurred

AccurateRip summary

Track 1 accurately ripped (confidence 2) [A2323C5C]
Track 2 accurately ripped (confidence 2) [77302ABA]
Track 3 accurately ripped (confidence 2) [2EB1C91D]
Track 4 accurately ripped (confidence 2) [875AB70B]
Track 5 accurately ripped (confidence 2) [00D7E88D]

All tracks accurately ripped

End of status report


CD9
Exact Audio Copy V0.99 prebeta 4 from 23. January 2008

EAC extraction logfile from 2. March 2010, 15:22

Mahler - R. Kubelik - Symphonie-Orchester Des Bayerischen Rundfunks / 10 Symphonien

Used drive : ASUS DRW-1814BLT Adapter: 2 ID: 2

Read mode : Secure
Utilize accurate stream : Yes
Defeat audio cache : Yes
Make use of C2 pointers : No

Read offset correction : 6
Overread into Lead-In and Lead-Out : No
Fill up missing offset samples with silence : Yes
Delete leading and trailing silent blocks : No
Null samples used in CRC calculations : Yes
Used interface : Native Win32 interface for Win NT & 2000

Used output format : Internal WAV Routines
Sample format : 44.100 Hz; 16 Bit; Stereo

TOC of the extracted CD

Track | Start | Length | Start sector | End sector
––––––––––––––––––––––––––––-
1 | 0:00.33 | 22:09.00 | 33 | 99707
2 | 22:09.33 | 27:51.62 | 99708 | 225094
3 | 50:01.20 | 24:23.13 | 225095 | 334832

Range status and errors

Selected range

Filename D:\EAC\Mahler - R. Kubelik - Symphonie-Orchester Des Bayerischen Rundfunks - 10 Symphonien.wav

Peak level 92.4 %
Range quality 100.0 %
Copy CRC D3A67C76
Copy OK

No errors occurred

AccurateRip summary

Track 1 accurately ripped (confidence 3) [AF9E488F]
Track 2 accurately ripped (confidence 3) [7F9B6CBE]
Track 3 accurately ripped (confidence 3) [0BE10CDA]

All tracks accurately ripped

End of status report


CD10
Exact Audio Copy V0.99 prebeta 4 from 23. January 2008

EAC extraction logfile from 2. March 2010, 11:54

Mahler - R. Kubelik - Symphonie-Orchester Des Bayerischen Rundfunks / 10 Symphonien

Used drive : ASUS DRW-1814BLT Adapter: 2 ID: 2

Read mode : Secure
Utilize accurate stream : Yes
Defeat audio cache : Yes
Make use of C2 pointers : No

Read offset correction : 6
Overread into Lead-In and Lead-Out : No
Fill up missing offset samples with silence : Yes
Delete leading and trailing silent blocks : No
Null samples used in CRC calculations : Yes
Used interface : Native Win32 interface for Win NT & 2000

Used output format : Internal WAV Routines
Sample format : 44.100 Hz; 16 Bit; Stereo

TOC of the extracted CD

Track | Start | Length | Start sector | End sector
––––––––––––––––––––––––––––-
1 | 0:00.33 | 26:03.52 | 33 | 117309
2 | 26:04.10 | 16:04.73 | 117310 | 189682
3 | 42:09.08 | 13:24.57 | 189683 | 250039
4 | 55:33.65 | 21:45.73 | 250040 | 347987

Range status and errors

Selected range

Filename D:\EAC\Mahler - R. Kubelik - Symphonie-Orchester Des Bayerischen Rundfunks - 10 Symphonien.wav

Peak level 100.0 %
Range quality 100.0 %
Copy CRC 66869956
Copy OK

No errors occurred

AccurateRip summary

Track 1 accurately ripped (confidence 12) [994D0341]
Track 2 accurately ripped (confidence 12) [8448A62A]
Track 3 accurately ripped (confidence 11) [EA41E260]
Track 4 accurately ripped (confidence 11) [FEF357B5]

All tracks accurately ripped

End of status report

Rafael Kubelik - Mahler: 10 Symphonies (2000) (10 CDs Box Set)


Thanks to the original ripper.

**Follow My Music Blog**