Subcategories
Tags
Language
Tags

Rainbow: Live Albums Collection (1976-1977)

Posted By: v3122
Rainbow: Live Albums Collection (1976-1977)

Rainbow: Live Albums Collection (1976-1977)
EAC | Flac(Image) + Cue + Log& MP3 CBR 320Kbps
Hard Rock | 11CD | ~ 3413 or 1236 Mb | Scans(png, 300dpi) -> 576 Mb

~ Live In Köln 1976; Live In Dusseldorf 1976; Live In Nurnberg 1976; Live in Germany; On Stage 1977; Live In Munich 1977 ~

The brainchild of former Deep Purple guitarist Ritchie Blackmore, Rainbow quickly developed into one of the '70s most successful heavy metal bands behind charismatic front man Ronnie James Dio. Together, the duo would produce a string of acclaimed albums which are still considered classics of the genre. But the group would change their musical approach numerous times following the singer's departure, eventually confusing and alienating much of their audience. Releasing eight albums during it's decade long run, the band finally came to an end when Blackmore departed to rejoin his old Deep Purple comrades in a full-fledged reunion in 1984. And while the impact of Rainbow's influence has faded with the intervening decades, theirs was a crucial chapter in the development of heavy metal and hard rock.

Disillusioned and fed up with the chaotic state of Deep Purple in the mid-'70s, guitarist Ritchie Blackmore made the stunning announcement in May of 1975 that he was quitting the group he had founded and led for over seven years in order to start from scratch. Teaming up with up-and-coming American vocalist Ronnie James Dio, Blackmore built Rainbow around the singer's former band Elf, minus their guitarist David Feinstein. Featuring bassist Craig Gruber, keyboard player Mickey Lee Soule, and drummer Gary Driscoll, the group's 1975 debut Ritchie Blackmore's Rainbow was quickly embraced by European fans and yielded their first hit single, "Man on the Silver Mountain." Blackmore and Dio were dissatisfied with the album's sound, however, and decided to re-vamp Rainbow (by then sufficiently established to do without Blackmore's name) by drafting bassist Jimmy Bain, keyboard player Tony Carey, and former Jeff Beck Group drummer Cozy Powell. It was with this lineup that they entered Musicland studios in February 1976 to record the landmark Rising opus – once voted the greatest heavy metal album of all time in a 1981 Kerrang! magazine readers' poll. Capturing Blackmore and Dio at the peak of their creative powers, Rising chronicled both the guitarist's neo-classical metal compositions at their most ambitious, and the singer's growing fixation with fantasy lyrical themes – a blueprint he would adopt for his entire career thereafter. Following its release, the band embarked upon a successful world tour, culminating in a sold out European jaunt which spawned a best-selling live album entitled On Stage, released in 1977.

By the time they returned with the equally acclaimed Long Live Rock'n'Roll album in 1978 (featuring bassist Bob Daisley and keyboard player David Stone), Rainbow had established themselves as one of Europe's best-selling groups and top concert draws. But the volatile relationship between Blackmore and Dio had already begun to deteriorate, as the American-born singer became increasingly frustrated of standing in the guitarist's shadow – even in his own country, where the group was now fully committed to breaking big. To make matters worse, Blackmore had been so impressed with "Long Live Rock'n'Roll"'s success as a single, that he began to consider altering the band's sound in order to pursue a more mainstream hard rock approach (a direction which Dio wanted no part of). A chance meeting with Tony Iommi of Black Sabbath (only recently divorced for good from unreliable front man Ozzy Osbourne) helped the singer make up his mind, and Dio officially quit Rainbow in early 1979 to join the Sabs.

Finding a suitable replacement for the charismatic singer proved a serious dilemma, and when Blackmore eventually recruited former Marbles vocalist Graham Bonnett, his decision came with an all-around re-tooling of Rainbow's sound, not to mention, once again, the band's membership, which now included former Deep Purple cohort Roger Glover and keyboard player Don Airey. With the release of 1979's Down to Earth, gone were the mystical themes and epic metal compositions, replaced by a more streamlined commercial hard rock style. But despite containing two of Rainbow's biggest singles, "All Night Long" and "Since You've been Gone" (the second, written by former Argent singer Russ Ballard), the album sputtered in stores, selling far less than the group's previous, Dio-fronted efforts. Bonnett also failed to meet Blackmore's lofty expectations on stage, and after a single, disastrously drunken performance at the inaugural Castle Donington Monsters of Rock Festival in the summer of 1980, the singer was unceremoniously given the boot.

Once again strapped for a vocalist, Blackmore found his man in American singer Joe Lynn Turner, who along with new drummer Bobby Rondinelli signaled a true career rebirth for Rainbow. Wishing to shed the group's overblown, Dio-associated Euro-metal sound of days past once and for all, the new Rainbow lineup was made to order for another bid at widespread acceptance in America. The first product of this new direction, 1981's well received Difficult to Cure helped the group regain some of their momentum and yielded their highest-charting single ever, another Russ Ballard-penned track entitled "I Surrender." In fact, the record's title track – a sprawling, ten-minute metallic blitzkrieg through Beethoven's Symphony No. 9 – was the only throwback to Rainbow's highbrow metal origins. Released in 1982, Straight Between the Eyes failed to chart any successful singles, however, and the band's appeal began to nose-dive, along with Blackmore's increasingly uninventive, risk-free song writing. 1983's Bent out of Shape (featuring new members in keyboard player David Rosenthal and drummer Chuck Burgi) fared no better, and after accepting the fact that Rainbow's best days were behind them, Blackmore finally relented to take part in the long-rumored and hoped for re-formation of Deep Purple's classic Mark II lineup. Typically, the guitarist refused to go out quietly, and Rainbow were backed by a full symphony orchestra for their final March 1984 performance in Japan.

A posthumous live release, entitled Finyl Vinyl, was compiled in 1986, and though he would briefly resurrect the Ritchie Blackmore's Rainbow moniker after quitting Purple for the second time in 1994 (even recording an album called Stranger in Us All"), this incarnation would be short-lived. Blackmore was last heard from performing with his purported fiancé Candice Night in the medieval folk duo Blackmore's Night.

by Eduardo Rivadavia, AMG
Rainbow: Live Albums Collection (1976-1977):

Rainbow: Live Albums Collection (1976-1977)

CD01-02: Rainbow - Live In Köln (1976)
EAC | Flac(Image) + Cue + Log & MP3 CBR 320Kbps
2006 | AFM Rec.,T2CD0105 | ~ 620 or 237 Mb | Scans(png, 300dpi) -> 56 Mb
Hard Rock

Indispensable two CD set recorded live in Cologne on September 9, 1976 during their tour to support the Rainbow Rising album. The band during this gig featured Ronnie James Dio, Cozy Powell, Tony Carey, Jimmy Bain and, of course, Ritchie Blackmore. Eight tracks including 'Kill The King', 'Man On The Silver Mountain', Stargazer' and 'Mistreated'.

~ amazon
Tracklist CD1:

01. Intro (Over the Rainbow)
02. Kill the King
03. Mistreated
04. Sixteenth Century Greensleeves
05. Catch the Rainbow
06. Man on the Silver Mountain

Exact Audio Copy V1.0 beta 3 from 29. August 2011

EAC extraction logfile from 4. October 2013, 15:11

Rainbow / Deutschland Tournee 1976: 1976-09-25, Kölner Sporthalle, Cologne, Germany

Used drive : SONY BD RW BDX-S600U Adapter: 1 ID: 0

Read mode : Secure
Utilize accurate stream : Yes
Defeat audio cache : Yes
Make use of C2 pointers : No

Read offset correction : 48
Overread into Lead-In and Lead-Out : No
Fill up missing offset samples with silence : Yes
Delete leading and trailing silent blocks : No
Null samples used in CRC calculations : Yes
Used interface : Native Win32 interface for Win NT & 2000

Used output format : User Defined Encoder
Selected bitrate : 128 kBit/s
Quality : High
Add ID3 tag : No
Command line compressor : C:\Program Files (x86)\Exact Audio Copy\Flac\flac.exe
Additional command line options : -V -8 -T "Date=%year%" -T "Genre=%genre%" %source%


TOC of the extracted CD

Track | Start | Length | Start sector | End sector
––––––––––––––––––––––––––––-
1 | 0:00.00 | 1:19.43 | 0 | 5967
2 | 1:19.43 | 4:36.00 | 5968 | 26667
3 | 5:55.43 | 15:02.51 | 26668 | 94368
4 | 20:58.19 | 8:15.08 | 94369 | 131501
5 | 29:13.27 | 14:03.20 | 131502 | 194746
6 | 43:16.47 | 12:48.64 | 194747 | 252410


Range status and errors

Selected range

Filename D:\Rainbow Discography\Live\1976. Rainbow - Live In Köln\1976. Rainbow - Live In Köln (Hummingbird,AFM Rec.,T2CD0105,EU)\disc1\Rainbow - Deutschland Tournee 1976- 1976-09-25, Kölner Sporthalle, Cologne, Germany.wav

Peak level 100.0 %
Extraction speed 6.9 X
Range quality 99.9 %
Test CRC 1869B09F
Copy CRC 1869B09F
Copy OK

No errors occurred


AccurateRip summary

Track 1 accurately ripped (confidence 10) [6744F2A7] (AR v2)
Track 2 accurately ripped (confidence 10) [F8D37E32] (AR v2)
Track 3 accurately ripped (confidence 10) [9AB7A278] (AR v2)
Track 4 accurately ripped (confidence 10) [178F6034] (AR v2)
Track 5 accurately ripped (confidence 10) [DB8CAE32] (AR v2)
Track 6 accurately ripped (confidence 9) [B882A3EA] (AR v2)

All tracks accurately ripped

End of status report

Tracklist CD2:

01. Stargazer
02. Still I'm Sad
03. Do You Close Your Eyes

Exact Audio Copy V1.0 beta 3 from 29. August 2011

EAC extraction logfile from 4. October 2013, 15:29

Rainbow / Deutschland Tournee 1976: 1976-09-25, Kölner Sporthalle, Cologne, Germany

Used drive : SONY BD RW BDX-S600U Adapter: 1 ID: 0

Read mode : Secure
Utilize accurate stream : Yes
Defeat audio cache : Yes
Make use of C2 pointers : No

Read offset correction : 48
Overread into Lead-In and Lead-Out : No
Fill up missing offset samples with silence : Yes
Delete leading and trailing silent blocks : No
Null samples used in CRC calculations : Yes
Used interface : Native Win32 interface for Win NT & 2000

Used output format : User Defined Encoder
Selected bitrate : 128 kBit/s
Quality : High
Add ID3 tag : No
Command line compressor : C:\Program Files (x86)\Exact Audio Copy\Flac\flac.exe
Additional command line options : -V -8 -T "Date=%year%" -T "Genre=%genre%" %source%


TOC of the extracted CD

Track | Start | Length | Start sector | End sector
––––––––––––––––––––––––––––-
1 | 0:00.00 | 16:55.53 | 0 | 76177
2 | 16:55.53 | 15:49.60 | 76178 | 147412
3 | 32:45.38 | 11:16.56 | 147413 | 198168


Range status and errors

Selected range

Filename D:\Rainbow Discography\Live\1976. Rainbow - Live In Köln\1976. Rainbow - Live In Köln (Hummingbird,AFM Rec.,T2CD0105,EU)\disc2\Rainbow - Deutschland Tournee 1976- 1976-09-25, Kölner Sporthalle, Cologne, Germany.wav

Peak level 100.0 %
Extraction speed 6.3 X
Range quality 100.0 %
Test CRC F6FEA19D
Copy CRC F6FEA19D
Copy OK

No errors occurred


AccurateRip summary

Track 1 accurately ripped (confidence 7) [F00B4DBE] (AR v2)
Track 2 accurately ripped (confidence 6) [7C3041FA] (AR v2)
Track 3 accurately ripped (confidence 7) [D996D4EF] (AR v2)

All tracks accurately ripped

End of status report

==================

Rainbow: Live Albums Collection (1976-1977)

CD03-04: Rainbow - Live In Dusseldorf (1976)
EAC | Flac(Image) + Cue + Log & MP3 CBR 320Kbps
2006 | AFM Rec., T2CD0110 | ~ 560 or 138 Mb | Scans(png, 300dpi) -> 67 Mb
Hard Rock

Repressing of this two CD set released to celebrate the 30th anniversary of Rainbow's first world tour. Recorded September 27th, 1976, it's astonishing to hear the crowd chanting Ritchie onto the stage football terrace style - and he doesn't disappoint. Ronnie James Dio is in very strong form, confident enough to be taking liberties with the phrasing, whilst keeping on top of it all. Newly remixed from the original concert tapes. The eight page booklet details the band's history along with many rare unseen photos of this period.

~ amazon
Tracklist CD1:

01. Intro (Over the Rainbow)
02. Kill the King
03. Mistreated
04. Sixteenth Century Greensleeves
05. Catch the Rainbow
06. Man on the Silver Mountain

Exact Audio Copy V1.0 beta 3 from 29. August 2011

EAC extraction logfile from 15. October 2013, 19:10

Rainbow / Deutschland Tournee 1976: 1976-09-27, Düsseldorf Philipshalle 2, Dusseldorf, Germany

Used drive : SONY BD RW BDX-S600U Adapter: 2 ID: 0

Read mode : Secure
Utilize accurate stream : Yes
Defeat audio cache : Yes
Make use of C2 pointers : No

Read offset correction : 48
Overread into Lead-In and Lead-Out : No
Fill up missing offset samples with silence : Yes
Delete leading and trailing silent blocks : No
Null samples used in CRC calculations : Yes
Used interface : Native Win32 interface for Win NT & 2000

Used output format : User Defined Encoder
Selected bitrate : 128 kBit/s
Quality : High
Add ID3 tag : No
Command line compressor : C:\Program Files (x86)\Exact Audio Copy\Flac\flac.exe
Additional command line options : -V -8 -T "Date=%year%" -T "Genre=%genre%" %source%


TOC of the extracted CD

Track | Start | Length | Start sector | End sector
––––––––––––––––––––––––––––-
1 | 0:00.00 | 2:15.09 | 0 | 10133
2 | 2:15.09 | 4:48.43 | 10134 | 31776
3 | 7:03.52 | 13:41.07 | 31777 | 93358
4 | 20:44.59 | 7:09.04 | 93359 | 125537
5 | 27:53.63 | 14:35.46 | 125538 | 191208
6 | 42:29.34 | 12:56.14 | 191209 | 249422


Range status and errors

Selected range

Filename D:\Rainbow Discography\Live\1976. Rainbow - Live In Dusseldorf\1976. Rainbow - Live In Dusseldorf (Hummingbird,AFM Rec.,T2CD0110,EU)\Rainbow - Deutschland Tournee 1976- 1976-09-27, Düsseldorf Philipshalle 2, Dusseldorf, Germany.wav

Peak level 100.0 %
Extraction speed 6.7 X
Range quality 99.9 %
Test CRC ADF90377
Copy CRC ADF90377
Copy OK

No errors occurred


AccurateRip summary

Track 1 accurately ripped (confidence 5) [4545474F] (AR v2)
Track 2 accurately ripped (confidence 5) [03D72A44] (AR v2)
Track 3 accurately ripped (confidence 4) [CBAF5B52] (AR v2)
Track 4 accurately ripped (confidence 4) [FBE06CFB] (AR v2)
Track 5 accurately ripped (confidence 4) [77B8E9A6] (AR v2)
Track 6 accurately ripped (confidence 4) [8E0C5A5E] (AR v2)

All tracks accurately ripped

End of status report

Tracklist CD2:

01. Stargazer
02. Still I'm Sad

Exact Audio Copy V1.0 beta 3 from 29. August 2011

EAC extraction logfile from 15. October 2013, 19:20

Rainbow / Deutschland Tournee 1976: 1976-09-27, Düsseldorf Philipshalle 2, Dusseldorf, Germany

Used drive : SONY BD RW BDX-S600U Adapter: 2 ID: 0

Read mode : Secure
Utilize accurate stream : Yes
Defeat audio cache : Yes
Make use of C2 pointers : No

Read offset correction : 48
Overread into Lead-In and Lead-Out : No
Fill up missing offset samples with silence : Yes
Delete leading and trailing silent blocks : No
Null samples used in CRC calculations : Yes
Used interface : Native Win32 interface for Win NT & 2000

Used output format : User Defined Encoder
Selected bitrate : 128 kBit/s
Quality : High
Add ID3 tag : No
Command line compressor : C:\Program Files (x86)\Exact Audio Copy\Flac\flac.exe
Additional command line options : -V -8 -T "Date=%year%" -T "Genre=%genre%" %source%


TOC of the extracted CD

Track | Start | Length | Start sector | End sector
––––––––––––––––––––––––––––-
1 | 0:00.00 | 16:03.38 | 0 | 72262
2 | 16:03.38 | 18:06.42 | 72263 | 153754


Range status and errors

Selected range

Filename D:\Rainbow Discography\Live\1976. Rainbow - Live In Dusseldorf\1976. Rainbow - Live In Dusseldorf (Hummingbird,AFM Rec.,T2CD0110,EU)\disc2\Rainbow - Deutschland Tournee 1976- 1976-09-27, Düsseldorf Philipshalle 2, Dusseldorf, Germany.wav

Peak level 100.0 %
Extraction speed 13.7 X
Range quality 100.0 %
Test CRC 976D955E
Copy CRC 976D955E
Copy OK

No errors occurred


AccurateRip summary

Track 1 accurately ripped (confidence 4) [62C0A112] (AR v2)
Track 2 accurately ripped (confidence 4) [8DB04610] (AR v2)

All tracks accurately ripped

End of status report

==================

Rainbow: Live Albums Collection (1976-1977)

CD05-06: Rainbow - Live In Nurnberg (1976)
EAC | Flac(Image) + Cue + Log & MP3 CBR 320Kbps
2006 | AFM Rec., T2CD0111 | ~ 544 or 217 Mb | Scans(png, 300dpi) -> 54 Mb
Hard Rock

2007 two CD archive release, a superb live show from the hard rockin' Rainbow recorded at the Nurnberg Messezentrum Halle in Germany on September 28th, 1976. Nine tracks including 'Stargazer', 'Kill The King', 'Man On The Silver Mountain' and more…

~ amazon
Tracklist CD1:

01. Intro (Over the Rainbow)
02. Kill the King
03. Mistreated
04. Sixteenth Century Greensleeves
05. Catch the Rainbow
06. Man on the Silver Mountain

Exact Audio Copy V1.0 beta 3 from 29. August 2011

EAC extraction logfile from 7. October 2013, 13:58

Rainbow / Deutschland Tournee 1976: 1976-09-28, Nurnberg, Germany

Used drive : SONY BD RW BDX-S600U Adapter: 1 ID: 0

Read mode : Secure
Utilize accurate stream : Yes
Defeat audio cache : Yes
Make use of C2 pointers : No

Read offset correction : 48
Overread into Lead-In and Lead-Out : No
Fill up missing offset samples with silence : Yes
Delete leading and trailing silent blocks : No
Null samples used in CRC calculations : Yes
Used interface : Native Win32 interface for Win NT & 2000

Used output format : User Defined Encoder
Selected bitrate : 128 kBit/s
Quality : High
Add ID3 tag : No
Command line compressor : C:\Program Files (x86)\Exact Audio Copy\Flac\flac.exe
Additional command line options : -V -8 -T "Date=%year%" -T "Genre=%genre%" %source%


TOC of the extracted CD

Track | Start | Length | Start sector | End sector
––––––––––––––––––––––––––––-
1 | 0:00.00 | 1:13.56 | 0 | 5530
2 | 1:13.56 | 4:46.06 | 5531 | 26986
3 | 5:59.62 | 12:51.20 | 26987 | 84831
4 | 18:51.07 | 8:09.53 | 84832 | 121559
5 | 27:00.60 | 13:20.67 | 121560 | 181626
6 | 40:21.52 | 13:40.02 | 181627 | 243128


Range status and errors

Selected range

Filename D:\Rainbow Discography\Live\1976. Rainbow - Live In Nurnberg\1976. Rainbow - Live In Nurnberg (Hummingbird,AFM Rec.,T2CD0111,EU)\disc1\Rainbow - Deutschland Tournee 1976- 1976-09-28, Nurnberg, Germany.wav

Peak level 100.0 %
Extraction speed 15.3 X
Range quality 100.0 %
Test CRC AD209577
Copy CRC AD209577
Copy OK

No errors occurred


AccurateRip summary

Track 1 accurately ripped (confidence 2) [1E2F64F8] (AR v2)
Track 2 accurately ripped (confidence 2) [2BC512E4] (AR v2)
Track 3 accurately ripped (confidence 2) [D630682B] (AR v2)
Track 4 accurately ripped (confidence 2) [51392FA3] (AR v2)
Track 5 accurately ripped (confidence 2) [FA94B2BC] (AR v2)
Track 6 accurately ripped (confidence 2) [4B7F31D8] (AR v2)

All tracks accurately ripped

End of status report

Tracklist CD2:

01. Stargazer
02. Still I'm Sad
03. Do You Close Your Eyes

Exact Audio Copy V1.0 beta 3 from 29. August 2011

EAC extraction logfile from 7. October 2013, 14:07

Rainbow / Deutschland Tournee 1976: 1976-09-28, Nurnberg, Germany

Used drive : SONY BD RW BDX-S600U Adapter: 1 ID: 0

Read mode : Secure
Utilize accurate stream : Yes
Defeat audio cache : Yes
Make use of C2 pointers : No

Read offset correction : 48
Overread into Lead-In and Lead-Out : No
Fill up missing offset samples with silence : Yes
Delete leading and trailing silent blocks : No
Null samples used in CRC calculations : Yes
Used interface : Native Win32 interface for Win NT & 2000

Used output format : User Defined Encoder
Selected bitrate : 128 kBit/s
Quality : High
Add ID3 tag : No
Command line compressor : C:\Program Files (x86)\Exact Audio Copy\Flac\flac.exe
Additional command line options : -V -8 -T "Date=%year%" -T "Genre=%genre%" %source%


TOC of the extracted CD

Track | Start | Length | Start sector | End sector
––––––––––––––––––––––––––––-
1 | 0:00.00 | 14:50.62 | 0 | 66811
2 | 14:50.62 | 16:38.63 | 66812 | 141724
3 | 31:29.50 | 6:42.54 | 141725 | 171928


Range status and errors

Selected range

Filename D:\Rainbow Discography\Live\1976. Rainbow - Live In Nurnberg\1976. Rainbow - Live In Nurnberg (Hummingbird,AFM Rec.,T2CD0111,EU)\disc2\Rainbow - Deutschland Tournee 1976- 1976-09-28, Nurnberg, Germany.wav

Peak level 100.0 %
Extraction speed 14.0 X
Range quality 100.0 %
Test CRC 9198C9B0
Copy CRC 9198C9B0
Copy OK

No errors occurred


AccurateRip summary

Track 1 accurately ripped (confidence 4) [F0576E14] (AR v2)
Track 2 accurately ripped (confidence 5) [4EC9CFB1] (AR v2)
Track 3 accurately ripped (confidence 5) [62B46F17] (AR v2)

All tracks accurately ripped

End of status report

==================

Rainbow: Live Albums Collection (1976-1977)

CD07-08: Rainbow - Live in Germany (1976)
EAC | Flac(Image) + Cue + Log & MP3 CBR 320Kbps
1990 | Connoisseur Collection, DP VSOP CD 155 | ~ 553 or 237 Mb | Scans(png, 300dpi) -> 78 Mb
Hard Rock

As expected, this is an excellent live album. Blackmore blazes on guitar, so much so that even his ten-minute-long solos keep the listener's attention (at least this listener's attention, anyway). Dio is also great as always, again proving himself one of the most talented singers of all time. Unfortunately, this album is rather ancillary if one already owns "On Stage" - for those songs that the albums share, the performances are nearly identical (this version featuring some slightly extended renditions). While this proves Rainbow was a very tight and consistent live band, it also robs this release of some originality. While "Live in Germany" perhaps could be considered a tad more intense than "On Stage," the difference is minute (I probably only mention it because it says so in the liner notes). Also, the production of "On Stage" is a bit better. The major selling points of this album are "Stargazer" and "Do You Close Your Eyes," which aren't included with "On Stage." While the latter song is presented well, "Stargazer" just isn't up to par with the studio version - unless my ears deceive me, there is no orchestral support and thus the song is reduced. Despite this, it's still worth a listen. Also, "Man on the Silver Mountain" is presented alone, as opposed to in a medley. Overall, this is a very good live album, but recommended only if you don't own a live Rainbow release already.

By Azmodi, amazon
Tracklist CD1:

01. Kill the King
02. Mistreated
03. Sixteenth Century Greensleeves
04. Catch the Rainbow

Exact Audio Copy V1.0 beta 3 from 29. August 2011

EAC extraction logfile from 29. September 2013, 8:33

Rainbow / Live in Germany 1976

Used drive : SONY BD RW BDX-S600U Adapter: 1 ID: 0

Read mode : Secure
Utilize accurate stream : Yes
Defeat audio cache : Yes
Make use of C2 pointers : No

Read offset correction : 48
Overread into Lead-In and Lead-Out : No
Fill up missing offset samples with silence : Yes
Delete leading and trailing silent blocks : No
Null samples used in CRC calculations : Yes
Used interface : Native Win32 interface for Win NT & 2000

Used output format : User Defined Encoder
Selected bitrate : 128 kBit/s
Quality : High
Add ID3 tag : No
Command line compressor : C:\Program Files (x86)\Exact Audio Copy\Flac\flac.exe
Additional command line options : -V -8 -T "Date=%year%" -T "Genre=%genre%" %source%


TOC of the extracted CD

Track | Start | Length | Start sector | End sector
––––––––––––––––––––––––––––-
1 | 0:00.32 | 5:32.48 | 32 | 24979
2 | 5:33.05 | 15:41.35 | 24980 | 95589
3 | 21:14.40 | 8:07.15 | 95590 | 132129
4 | 29:21.55 | 14:46.15 | 132130 | 198594


Range status and errors

Selected range

Filename D:\Rainbow Discography\Live\1976. Rainbow - Live in Germany\1976. Rainbow - Live in Germany (Connoisseur Collection, DP VSOP CD 155,England)\Rainbow - Live in Germany 1976.wav

Peak level 73.7 %
Extraction speed 13.9 X
Range quality 100.0 %
Test CRC 94BD0B38
Copy CRC 94BD0B38
Copy OK

No errors occurred


AccurateRip summary

Track 1 accurately ripped (confidence 5) [089F30B1] (AR v2)
Track 2 accurately ripped (confidence 5) [D6DC3531] (AR v2)
Track 3 accurately ripped (confidence 5) [DA7DCCDD] (AR v2)
Track 4 accurately ripped (confidence 4) [C4FB7356] (AR v2)

All tracks accurately ripped

End of status report

Tracklist CD2:

01. Man on the Silver Mountain
02. Stargazer
03. Still I'm Sad
04. Do You Close Your Eyes

Exact Audio Copy V1.0 beta 3 from 29. August 2011

EAC extraction logfile from 29. September 2013, 8:48

Rainbow / Live in Germany 1976

Used drive : SONY BD RW BDX-S600U Adapter: 1 ID: 0

Read mode : Secure
Utilize accurate stream : Yes
Defeat audio cache : Yes
Make use of C2 pointers : No

Read offset correction : 48
Overread into Lead-In and Lead-Out : No
Fill up missing offset samples with silence : Yes
Delete leading and trailing silent blocks : No
Null samples used in CRC calculations : Yes
Used interface : Native Win32 interface for Win NT & 2000

Used output format : User Defined Encoder
Selected bitrate : 128 kBit/s
Quality : High
Add ID3 tag : No
Command line compressor : C:\Program Files (x86)\Exact Audio Copy\Flac\flac.exe
Additional command line options : -V -8 -T "Date=%year%" -T "Genre=%genre%" %source%


TOC of the extracted CD

Track | Start | Length | Start sector | End sector
––––––––––––––––––––––––––––-
1 | 0:00.32 | 13:35.45 | 32 | 61201
2 | 13:36.02 | 17:00.28 | 61202 | 137729
3 | 30:36.30 | 15:05.05 | 137730 | 205609
4 | 45:41.35 | 10:09.17 | 205610 | 251301


Range status and errors

Selected range

Filename D:\Rainbow Discography\Live\1976. Rainbow - Live in Germany\1976. Rainbow - Live in Germany (Connoisseur Collection, DP VSOP CD 155,England)\disc2\Rainbow - Live in Germany 1976.wav

Peak level 75.0 %
Extraction speed 14.7 X
Range quality 100.0 %
Test CRC 6691E7EE
Copy CRC 6691E7EE
Copy OK

No errors occurred


AccurateRip summary

Track 1 accurately ripped (confidence 19) [68F7896B] (AR v2)
Track 2 accurately ripped (confidence 18) [695280DD] (AR v2)
Track 3 accurately ripped (confidence 18) [64DFA6D8] (AR v2)
Track 4 accurately ripped (confidence 18) [95575DEE] (AR v2)

All tracks accurately ripped

End of status report

==================

Rainbow: Live Albums Collection (1976-1977)

CD09: Rainbow - On Stage (1977)
EAC | Flac(Image) + Cue + Log & MP3 CBR 320Kbps
1986 | Polydor K.K., P40P 25017 | ~ 361 or 150 Mb | Scans(png, 300dpi) -> 143 Mb
Hard Rock

After having established a group he thought would hold up his requirements, Blackmore set out to express his ambition by setting up an impressive light show that included a cool-looking Rainbow. But however impressive this giant lightning fixture was, it was extremely unreliable providing many glitches and interferences on the PA and amplifiers, that it was sometimes impossible to use. So choosing between the recordings to make-up this album was probably no easy task, and this sole official live album for over two decades was rather frustrating on a few points.

Not only were there some very short album sides (the second and third were simply scandalously short), but some of Tony Carey's solos were disastrous, leading to his dismissal, being replaced by the much better classically-trained Canadian David Stone. But on this album we have to put up with Carey's completely inept performance especially on anotherwise excellent Still I'm Sad. And that track is not the only excellent version: as most of the selected songs are well-played and especially well recorded (maybe even a bit of tampering or touch-ups), which is hardly the case of the other more recent release of that era.

We are graced with a Dio version of the Purple blues Mistreated, a vastly different (extended) Catch the Rainbow, a new fantastic Kill The King (Cozy Rules) and a shining (if you except Carey) Still I'm Sad which unlike its studio version regains the vocal parts perfectly sung by Dio, even if those vocals have nothing to do with the original Yardbirds Gregorian chants. But my other main gripe is that in this selection, aside one track thrown in the Medley, there is not one track from the preceding superb Rising on which promotion tour this album is derived. And apparently, on other recordings released from that era, the same flaw occurs almost every time.

by Sean Trane, progarchives
Tracklist:

01. Intro: Over The Rainbow / Kill The King
02. Man On The Silver Mountain
03. Blues
04. Starstruck
05. Catch The Rainbow
06. Mistreated
07. Sixteenth Century Greensleeves
08. Still I'm Sad

Exact Audio Copy V1.0 beta 3 from 29. August 2011

EAC extraction logfile from 16. January 2014, 15:12

Rainbow / On Stage (P40P25017 Japan)

Used drive : SONY BD RW BDX-S600U Adapter: 2 ID: 1

Read mode : Secure
Utilize accurate stream : Yes
Defeat audio cache : Yes
Make use of C2 pointers : No

Read offset correction : 48
Overread into Lead-In and Lead-Out : No
Fill up missing offset samples with silence : Yes
Delete leading and trailing silent blocks : No
Null samples used in CRC calculations : Yes
Used interface : Native Win32 interface for Win NT & 2000

Used output format : User Defined Encoder
Selected bitrate : 128 kBit/s
Quality : High
Add ID3 tag : No
Command line compressor : C:\Program Files (x86)\Exact Audio Copy\Flac\flac.exe
Additional command line options : -V -8 -T "Date=%year%" -T "Genre=%genre%" %source%


TOC of the extracted CD

Track | Start | Length | Start sector | End sector
––––––––––––––––––––––––––––-
1 | 0:00.37 | 5:29.00 | 37 | 24711
2 | 5:29.37 | 4:15.60 | 24712 | 43896
3 | 9:45.22 | 4:02.58 | 43897 | 62104
4 | 13:48.05 | 2:57.07 | 62105 | 75386
5 | 16:45.12 | 15:34.00 | 75387 | 145436
6 | 32:19.12 | 13:01.63 | 145437 | 204074
7 | 45:21.00 | 7:35.32 | 204075 | 238231
8 | 52:56.32 | 11:01.03 | 238232 | 287809


Range status and errors

Selected range

Filename D:\Rainbow Discography\Live\1977. Rainbow - On Stage\Новая папка\Rainbow - On Stage (P40P25017 Japan).wav

Peak level 100.0 %
Extraction speed 6.8 X
Range quality 100.0 %
Test CRC B7CC7B91
Copy CRC B7CC7B91
Copy OK

No errors occurred


AccurateRip summary

Track 1 accurately ripped (confidence 3) [011E9D3D] (AR v2)
Track 2 accurately ripped (confidence 3) [003D4F0E] (AR v2)
Track 3 accurately ripped (confidence 3) [F71A8F0F] (AR v2)
Track 4 accurately ripped (confidence 3) [870F0E69] (AR v2)
Track 5 accurately ripped (confidence 2) [24C034D3] (AR v2)
Track 6 accurately ripped (confidence 3) [96974241] (AR v2)
Track 7 accurately ripped (confidence 3) [DF055BAF] (AR v2)
Track 8 accurately ripped (confidence 3) [7E6FE0F3] (AR v2)

All tracks accurately ripped

End of status report

==================

Rainbow: Live Albums Collection (1976-1977)

CD10-11: Rainbow - Live In Munich (1977)
EAC | Flac(Image) + Cue + Log) & MP3 CBR 320Kbps
2013 | Eagle Rec., EDGCD503 | ~ 775 or 256 Mb | Scans(png, 300dpi) -> 178 Mb
Hard Rock

Tracklist CD1:

01. Introduction
02. Kill The King
03. Mistreated
04. Sixteenth Century Greensleeves
05. Catch the Rainbow
06. Long Live Rock'n'Roll

Exact Audio Copy V1.0 beta 3 from 29. August 2011

Отчёт EAC об извлечении, выполненном 20. января 2014, 19:17

Rainbow / Live In Munich 1977 - Disc 1 (2013)

Дисковод: SONY CD-RW CRX230ED Adapter: 0 ID: 1

Режим чтения : Достоверность
Использование точного потока : Да
Отключение кэша аудио : Да
Использование указателей C2 : Нет

Коррекция смещения при чтении : 6
Способность читать области Lead-in и Lead-out : Нет
Заполнение пропущенных сэмплов тишиной : Да
Удаление блоков с тишиной в начале и конце : Нет
При вычислениях CRC использовались нулевые сэмплы : Да
Интерфейс : Встроенный Win32-интерфейс для Win NT/2000

Выходной формат : Внутренние WAV-операции
Формат сэмплов : 44.100 Гц; 16 бит; стерео


TOC извлечённого CD

Трек | Старт | Длительность | Начальный сектор | Конечный сектор
––––––––––––––––––––––––––––––––––-
1 | 0:00.00 | 1:44.43 | 0 | 7842
2 | 1:44.43 | 5:09.00 | 7843 | 31017
3 | 6:53.43 | 11:46.01 | 31018 | 83968
4 | 18:39.44 | 8:55.46 | 83969 | 124139
5 | 27:35.15 | 18:15.15 | 124140 | 206279
6 | 45:50.30 | 7:42.18 | 206280 | 240947


Характеристики диапазона извлечения и сообщения об ошибках

Выбранный диапазон

Имя файла E:\MusicCD\Rainbow - Live In Munich 1977 - 2013\Rainbow - Live In Munich 1977 - Disc 1 (2013).wav

Пиковый уровень 100.0 %
Скорость извлечения 8.0 X
Качество диапазона 100.0 %
CRC теста 14E3EFEC
CRC копии 14E3EFEC
Копирование… OK

Ошибок не произошло


AccurateRip: сводка

Трек 1 : извлечено точно (доверие 5) [CCCE32F6] (AR v2)
Трек 2 : извлечено точно (доверие 5) [D5A8A9BB] (AR v2)
Трек 3 : извлечено точно (доверие 5) [6E96A026] (AR v2)
Трек 4 : извлечено точно (доверие 5) [0E83DA3B] (AR v2)
Трек 5 : извлечено точно (доверие 5) [88AF4FE4] (AR v2)
Трек 6 : извлечено точно (доверие 5) [1974C309] (AR v2)

Все треки извлечены точно

Конец отчёта

Tracklist CD2:

01. Man on The Silver Mountain
02. Still I'm Sad
03. Do You Close Your Eyes

Exact Audio Copy V1.0 beta 3 from 29. August 2011

Отчёт EAC об извлечении, выполненном 20. января 2014, 19:48

Rainbow / Live In Munich 1977 - Disc 2 (2013)

Дисковод: SONY CD-RW CRX230ED Adapter: 0 ID: 1

Режим чтения : Достоверность
Использование точного потока : Да
Отключение кэша аудио : Да
Использование указателей C2 : Нет

Коррекция смещения при чтении : 6
Способность читать области Lead-in и Lead-out : Нет
Заполнение пропущенных сэмплов тишиной : Да
Удаление блоков с тишиной в начале и конце : Нет
При вычислениях CRC использовались нулевые сэмплы : Да
Интерфейс : Встроенный Win32-интерфейс для Win NT/2000

Выходной формат : Внутренние WAV-операции
Формат сэмплов : 44.100 Гц; 16 бит; стерео


TOC извлечённого CD

Трек | Старт | Длительность | Начальный сектор | Конечный сектор
––––––––––––––––––––––––––––––––––-
1 | 0:00.00 | 16:25.27 | 0 | 73901
2 | 16:25.27 | 27:32.26 | 73902 | 197827
3 | 43:57.53 | 15:35.14 | 197828 | 267966


Характеристики диапазона извлечения и сообщения об ошибках

Выбранный диапазон

Имя файла E:\MusicCD\Rainbow - Live In Munich 1977 - 2013\Rainbow - Live In Munich 1977 - Disc 2 (2013).wav

Пиковый уровень 100.0 %
Скорость извлечения 8.2 X
Качество диапазона 100.0 %
CRC теста 43A28269
CRC копии 43A28269
Копирование… OK

Ошибок не произошло


AccurateRip: сводка

Трек 1 : извлечено точно (доверие 4) [00164080] (AR v2)
Трек 2 : извлечено точно (доверие 4) [C1438F36] (AR v2)
Трек 3 : извлечено точно (доверие 4) [2D94A030] (AR v2)

Все треки извлечены точно

Конец отчёта

All thanks go to the original releasers

Rainbow in my Blog

Download Rainbow: Live Albums Collection (1976-1977):