Tags
Language
Tags

Ralf Otto, Bachorchester Mainz, Bachchor Mainz - Bach: Christmas Oratorio / Weihnachtsoratorium (2018)

Posted By: ArlegZ
Ralf Otto, Bachorchester Mainz, Bachchor Mainz - Bach: Christmas Oratorio / Weihnachtsoratorium (2018)

Ralf Otto, Bachorchester Mainz, Bachchor Mainz - Bach: Christmas Oratorio / Weihnachtsoratorium (2018)
EAC | FLAC | Image (Cue & Log) ~ 643 Mb | Total time: 145:17 | Scans included
Classical | Label: Naxos | 8.574001-02 | Recorded: 2017

J.S. Bach’s Christmas Oratorio was written for the Christmas season of 1734, and although it incorporates music from earlier works it belongs firmly among his timeless large-scale compositions. The development of the oratorio, which was to become a new musical form in Protestant church services at that time, was stimulated by Bach’s compositions, particularly by the unusual form of his six-part Christmas Oratorio. From its famously joyful opening ‘Jauchzet frohlocket’ to the arrival of the Wise Men from the East, this work’s enduring popularity has long proven its status as a choral ‘evergreen.’ For the conductor Ralf Otto, flexibility, diversity and transparency of sound have always been essential to his work with choirs and orchestras. The conductor’s reputation is based on his gift for interpreting different musical styles, from the Renaissance through the music of today. This recording follows the April 2018 release of Bach’s St. John Passion with the Bach Choir and Orchestra of Mainz conducted by Ralf Otto. MusicWeb International wrote: “the Bachchor Mainz is a fine ensemble: it shows great flexibility in those turbae which are performed at a high speed, and produces a surprisingly transparent sound, also thanks to the good acoustic of the Christuskirche in Mainz.”

Performer:
Georg Poplutz, tenor (Evangelist)
Julia Kleiter, soprano
Katharina Magiera, alto
Thomas E. Bauer, bass
Bachchor Mainz
Bachorchester Mainz
Ralf Otto, conductor

Track List:
CD1:
01. Part I: Jauchzet, frohlocket (Chorus)
02. Part I: Recitative: Es begab sich aber (Evangelist)
03. Part I: Recitative: Nun wird mein liebster Bräutigam (Alto)
04. Part I: Aria: Bereite dich, Zion (Alto)
05. Part I: Chorale: Wie soll ich dich empfangen (Chorus)
06. Part I: Recitative: Und sie gebar ihren ersten Sohn (Evangelist)
07. Part I: Chorale and Recitative: Er ist auf Erden kommen arm (Soprano, Bass)
08. Part I: Aria: Großer Herr, o starker König (Bass)
09. Part I: Chorale: Ach, mein herzliebes Jesulein (Chorus)
10. Part II: Sinfonia
11. Part II: Recitative: Und es waren Hirten (Evangelist)
12. Part II: Chorale: Brich an, o schönes Morgenlicht (Chorus)
13. Part II: Recitative: Und der Engel sprach zu ihnen (Evangelist, Soprano)
14. Part II: Recitative: Was Gott dem Abraham verheißen (Bass)
15. Part II: Aria: Frohe Hirten, eilt, ach eilet (Tenor)
16. Part II: Recitative: Und das habt zum Zeichen (Evangelist)
17. Part II: Chorale: Schaut hin, dort liegt im finstern Stall (Chorus)
18. Part II: Recitative: So geht denn hin, ihr Hirten (Bass)
19. Play Part II: Aria: Schlafe, mein Liebster (Alto)
20. Part II: Recitative: Und alsobald war da (Evangelist)
21. Part II: Ehre sei Gott in der Höhe (Chorus)
22. Part II: Recitative: So recht, ihr Engel (Bass)
23. Part II: Chorale: Wir singen dir in deinem Heer (Chorus)
24. Part III: Herrscher des Himmels (Chorus)
25. Part III: Recitative: Und da die Engel von ihnen (Evangelist)
26. Part III: Lasset uns nun gehen gen Bethlehem (Chorus)
27. Part III: Recitative: Er hat sein Volk getröst' (Bass)
28. Part III: Chorale: Dies hat er alles uns getan (Chorus)
29. Part III: Aria Duetto: Herr, dein Mitleid, dein Erbarmen (Soprano, Bass)
30. Part III: Recitative: Und sie kamen eilend (Evangelist)
31. Part III: Aria: Schließe, mein Herze (Alto)
32. Part III: Recitative: Ja, ja! mein Herz soll es bewahren (Alto)
33. Part III: Chorale: Ich will dich mit Fleiß bewahren (Chrous)
34. Part III: Recitative: Und die Hirten kehrten wieder um (Evangelist)
35. Part III: Chorale: Seid froh dieweil (Chorus)
36. Part III: Herrscher des Himmels (Chorus)
CD2:
01. Part IV: Fallt mit Danken, fallt mit Loben (Chorus)
02. Part IV: Recitative: Und da acht Tage um waren (Evangelist)
03. Part IV: Recitative and Chorale: Immanuel, o süßes Wort (Bass, Soprano)
04. Part IV: Aria: Flößt, mein Heiland (Soprano with Echo)
05. Part IV: Recitative and Chorale: Wohlan, dein Name soll allein (Bass, Soprano)
06. Part IV: Aria: Ich will nur dir zu Ehren leben (Tenor)
07. Part IV: Chorale: Jesus richte mein Beginnen (Chorus)
08. Part V: Ehre sei dir, Gott, gesungen (Chorus)
09. Part V: Recitative: Da Jesus geboren war zu Bethlehem (Evangelist)
10. Part V: Chorus and Recitative: Wo ist der neugeborne König der Jüden (Chorus, Alto)
11. Part V: Chorale: Dein Glanz all Finsternis verzehrt (Chorus)
12. Part V: Aria: Erleucht auch meine finstre Sinnen (Bass)
13. Part V: Recitative: Da das der König Herodes hörte (Evangelist)
14. Part V: Recitative: Warum wollt ihr erschrecken (Alto)
15. Part V: Recitative: Und ließ versammlen alle Hohepriester (Evangelist)
16. Part V: Aria Terzetto: Ach, wenn wird die Zeit erscheinen (Soprano, Alto, Tenor)
17. Part V: Recitative: Mein Liebster herrschet schon (Alto)
18. Part V: Chorale: Zwar ist solche Herzensstube (Chorus)
19. Part VI: Herr, wenn die stolzen Feinde schnauben (Chorus)
20. Part VI: Recitative: Da berief Herodes die Weisen heimlich (Evangelist, Herodes)
21. Part VI: Recitative: Du Falscher, suche nur den Herrn zu fällen (Soprano)
22. Part VI: Aria: Nur ein Wink von seinen Händen (Soprano)
23. Part VI: Recitative: Als sie nun den König gehöret hatten (Evangelist)
24. Part VI: Chorale: Ich steh an deiner Krippen hier (Chorus)
25. Part VI: Recitative: Und Gott befahl ihnen im Traum (Evangelist)
26. Part VI: Recitative: So geht! Genug, mein Schatz (Tenor)
27. Part VI: Aria: Nun mögt ihr stolzen Feinde schrecken (Tenor)
28. Part VI: Recitative à 4: Was will der Höllen Schrecken nun (Soprano, Alto, Tenor, Bass)
29. Part VI: Chorale: Nun seid ihr wohl gerochen (Chorus)


Exact Audio Copy V1.5 from 20. February 2020

EAC extraction logfile from 6. December 2020, 9:08

Georg Poplutz, Julia Kleiter, Katharina Magiera, Thomas E. Bauer / Christmas Oratorio (Disc 1)

Used drive : ATAPI iHAS124 F Adapter: 1 ID: 0

Read mode : Secure
Utilize accurate stream : Yes
Defeat audio cache : Yes
Make use of C2 pointers : No

Read offset correction : 6
Overread into Lead-In and Lead-Out : No
Fill up missing offset samples with silence : Yes
Delete leading and trailing silent blocks : No
Null samples used in CRC calculations : Yes
Used interface : Native Win32 interface for Win NT & 2000

Used output format : User Defined Encoder
Selected bitrate : 1024 kBit/s
Quality : High
Add ID3 tag : No
Command line compressor : C:\Program Files (x86)\Exact Audio Copy\FLAC\FLAC.EXE
Additional command line options : -6 -V -T "ARTIST=%artist%" -T "TITLE=%title%" -T "ALBUM=%albumtitle%" -T "DATE=%year%" -T "TRACKNUMBER=%tracknr%" -T "GENRE=%genre%" -T "COMMENT=%comment%" -T "BAND=%albuminterpret%" -T "ALBUMARTIST=%albuminterpret%" -T "COMPOSER=%composer%" %haslyrics%–tag-from-file=LYRICS="%lyricsfile%"%haslyrics% -T "DISCNUMBER=%cdnumber%" -T "TOTALDISCS=%totalcds%" -T "TOTALTRACKS=%numtracks%" %hascover%–picture="%coverfile%"%hascover% %source% -o %dest%


TOC of the extracted CD

Track | Start | Length | Start sector | End sector
––––––––––––––––––––––––––––-
1 | 0:00.00 | 7:29.70 | 0 | 33744
2 | 7:29.70 | 1:15.63 | 33745 | 39432
3 | 8:45.58 | 0:57.73 | 39433 | 43780
4 | 9:43.56 | 5:25.14 | 43781 | 68169
5 | 15:08.70 | 1:22.47 | 68170 | 74366
6 | 16:31.42 | 0:21.54 | 74367 | 75995
7 | 16:53.21 | 2:53.47 | 75996 | 89017
8 | 19:46.68 | 4:43.63 | 89018 | 110305
9 | 24:30.56 | 1:16.45 | 110306 | 116050
10 | 25:47.26 | 6:06.20 | 116051 | 143520
11 | 31:53.46 | 0:41.14 | 143521 | 146609
12 | 32:34.60 | 0:57.60 | 146610 | 150944
13 | 33:32.45 | 0:48.71 | 150945 | 154615
14 | 34:21.41 | 0:43.35 | 154616 | 157875
15 | 35:05.01 | 3:26.08 | 157876 | 173333
16 | 38:31.09 | 0:23.02 | 173334 | 175060
17 | 38:54.11 | 0:49.55 | 175061 | 178790
18 | 39:43.66 | 0:50.21 | 178791 | 182561
19 | 40:34.12 | 10:03.00 | 182562 | 227786
20 | 50:37.12 | 0:12.07 | 227787 | 228693
21 | 50:49.19 | 2:17.40 | 228694 | 239008
22 | 53:06.59 | 0:27.41 | 239009 | 241074
23 | 53:34.25 | 1:32.00 | 241075 | 247974
24 | 55:06.25 | 1:50.12 | 247975 | 256236
25 | 56:56.37 | 0:08.04 | 256237 | 256840
26 | 57:04.41 | 0:44.09 | 256841 | 260149
27 | 57:48.50 | 0:44.08 | 260150 | 263457
28 | 58:32.58 | 0:43.16 | 263458 | 266698
29 | 59:15.74 | 7:10.02 | 266699 | 298950
30 | 66:26.01 | 1:11.09 | 298951 | 304284
31 | 67:37.10 | 5:37.43 | 304285 | 329602
32 | 73:14.53 | 0:28.57 | 329603 | 331759
33 | 73:43.35 | 0:59.63 | 331760 | 336247
34 | 74:43.23 | 0:22.58 | 336248 | 337955
35 | 75:06.06 | 0:49.43 | 337956 | 341673
36 | 75:55.49 | 1:55.26 | 341674 | 350324


Range status and errors

Selected range

Filename C:\EACRip\Bach - Christmas Oratorio (Ralf Otto) (2018)\CD1\Bach - Christmas Oratorio (Disc 1) - Ralf Otto.wav

Peak level 94.7 %
Extraction speed 9.7 X
Range quality 100.0 %
Test CRC 7E47689F
Copy CRC 7E47689F
Copy OK

No errors occurred


AccurateRip summary

Track 1 not present in database
Track 2 not present in database
Track 3 not present in database
Track 4 not present in database
Track 5 not present in database
Track 6 not present in database
Track 7 not present in database
Track 8 not present in database
Track 9 not present in database
Track 10 not present in database
Track 11 not present in database
Track 12 not present in database
Track 13 not present in database
Track 14 not present in database
Track 15 not present in database
Track 16 not present in database
Track 17 not present in database
Track 18 not present in database
Track 19 not present in database
Track 20 not present in database
Track 21 not present in database
Track 22 not present in database
Track 23 not present in database
Track 24 not present in database
Track 25 not present in database
Track 26 not present in database
Track 27 not present in database
Track 28 not present in database
Track 29 not present in database
Track 30 not present in database
Track 31 not present in database
Track 32 not present in database
Track 33 not present in database
Track 34 not present in database
Track 35 not present in database
Track 36 not present in database

None of the tracks are present in the AccurateRip database

End of status report

–– CUETools DB Plugin V2.1.6

[CTDB TOCID: as2TyuDmaXQMrgPW1Tbfrzr5RTw-] found
Submit result: as2TyuDmaXQMrgPW1Tbfrzr5RTw- has been confirmed
Track | CTDB Status
1 | (12/12) Accurately ripped
2 | (12/12) Accurately ripped
3 | (12/12) Accurately ripped
4 | (12/12) Accurately ripped
5 | (12/12) Accurately ripped
6 | (12/12) Accurately ripped
7 | (12/12) Accurately ripped
8 | (10/12) Accurately ripped
9 | (10/12) Accurately ripped
10 | (12/12) Accurately ripped
11 | (12/12) Accurately ripped
12 | (12/12) Accurately ripped
13 | (12/12) Accurately ripped
14 | (12/12) Accurately ripped
15 | (12/12) Accurately ripped
16 | (12/12) Accurately ripped
17 | (12/12) Accurately ripped
18 | (12/12) Accurately ripped
19 | (12/12) Accurately ripped
20 | (12/12) Accurately ripped
21 | (12/12) Accurately ripped
22 | (12/12) Accurately ripped
23 | (12/12) Accurately ripped
24 | (12/12) Accurately ripped
25 | (12/12) Accurately ripped
26 | (12/12) Accurately ripped
27 | (12/12) Accurately ripped
28 | (12/12) Accurately ripped
29 | (12/12) Accurately ripped
30 | (12/12) Accurately ripped
31 | (12/12) Accurately ripped
32 | (12/12) Accurately ripped
33 | (12/12) Accurately ripped
34 | (12/12) Accurately ripped
35 | (12/12) Accurately ripped
36 | (12/12) Accurately ripped


==== Log checksum FF3BA3EE681294A530FF5B6AC41D64689D25B050B590C0FF28401BC0D5DBA724 ====


Exact Audio Copy V1.5 from 20. February 2020

EAC extraction logfile from 6. December 2020, 10:02

Georg Poplutz, Julia Kleiter, Katharina Magiera, Thomas E. Bauer / Christmas Oratorio (Disc 2)

Used drive : ATAPI iHAS124 F Adapter: 1 ID: 0

Read mode : Secure
Utilize accurate stream : Yes
Defeat audio cache : Yes
Make use of C2 pointers : No

Read offset correction : 6
Overread into Lead-In and Lead-Out : No
Fill up missing offset samples with silence : Yes
Delete leading and trailing silent blocks : No
Null samples used in CRC calculations : Yes
Used interface : Native Win32 interface for Win NT & 2000

Used output format : User Defined Encoder
Selected bitrate : 1024 kBit/s
Quality : High
Add ID3 tag : No
Command line compressor : C:\Program Files (x86)\Exact Audio Copy\FLAC\FLAC.EXE
Additional command line options : -6 -V -T "ARTIST=%artist%" -T "TITLE=%title%" -T "ALBUM=%albumtitle%" -T "DATE=%year%" -T "TRACKNUMBER=%tracknr%" -T "GENRE=%genre%" -T "COMMENT=%comment%" -T "BAND=%albuminterpret%" -T "ALBUMARTIST=%albuminterpret%" -T "COMPOSER=%composer%" %haslyrics%–tag-from-file=LYRICS="%lyricsfile%"%haslyrics% -T "DISCNUMBER=%cdnumber%" -T "TOTALDISCS=%totalcds%" -T "TOTALTRACKS=%numtracks%" %hascover%–picture="%coverfile%"%hascover% %source% -o %dest%


TOC of the extracted CD

Track | Start | Length | Start sector | End sector
––––––––––––––––––––––––––––-
1 | 0:00.00 | 5:11.35 | 0 | 23359
2 | 5:11.35 | 0:31.11 | 23360 | 25695
3 | 5:42.46 | 2:44.09 | 25696 | 38004
4 | 8:26.55 | 5:27.62 | 38005 | 62591
5 | 13:54.42 | 1:33.53 | 62592 | 69619
6 | 15:28.20 | 4:20.64 | 69620 | 89183
7 | 19:49.09 | 2:05.16 | 89184 | 98574
8 | 21:54.25 | 6:06.10 | 98575 | 126034
9 | 28:00.35 | 0:22.26 | 126035 | 127710
10 | 28:22.61 | 2:11.18 | 127711 | 137553
11 | 30:34.04 | 0:56.39 | 137554 | 141792
12 | 31:30.43 | 4:32.22 | 141793 | 162214
13 | 36:02.65 | 0:10.59 | 162215 | 163023
14 | 36:13.49 | 0:33.53 | 163024 | 165551
15 | 36:47.27 | 1:13.46 | 165552 | 171072
16 | 38:00.73 | 5:20.45 | 171073 | 195117
17 | 43:21.43 | 0:29.66 | 195118 | 197358
18 | 43:51.34 | 1:01.53 | 197359 | 201986
19 | 44:53.12 | 4:42.65 | 201987 | 223201
20 | 49:36.02 | 0:43.61 | 223202 | 226487
21 | 50:19.63 | 0:57.68 | 226488 | 230830
22 | 51:17.56 | 3:43.05 | 230831 | 247560
23 | 55:00.61 | 1:10.15 | 247561 | 252825
24 | 56:11.01 | 1:17.52 | 252826 | 258652
25 | 57:28.53 | 0:20.24 | 258653 | 260176
26 | 57:49.02 | 1:46.43 | 260177 | 268169
27 | 59:35.45 | 3:58.01 | 268170 | 286020
28 | 63:33.46 | 0:34.11 | 286021 | 288581
29 | 64:07.57 | 3:18.18 | 288582 | 303449


Range status and errors

Selected range

Filename C:\EACRip\Bach - Christmas Oratorio (Ralf Otto) (2018)\CD2\Bach - Christmas Oratorio (Disc 2) - Ralf Otto.wav

Peak level 85.0 %
Extraction speed 9.4 X
Range quality 100.0 %
Test CRC F7EAD380
Copy CRC F7EAD380
Copy OK

No errors occurred


AccurateRip summary

Track 1 not present in database
Track 2 not present in database
Track 3 not present in database
Track 4 not present in database
Track 5 not present in database
Track 6 not present in database
Track 7 not present in database
Track 8 not present in database
Track 9 not present in database
Track 10 not present in database
Track 11 not present in database
Track 12 not present in database
Track 13 not present in database
Track 14 not present in database
Track 15 not present in database
Track 16 not present in database
Track 17 not present in database
Track 18 not present in database
Track 19 not present in database
Track 20 not present in database
Track 21 not present in database
Track 22 not present in database
Track 23 not present in database
Track 24 not present in database
Track 25 not present in database
Track 26 not present in database
Track 27 not present in database
Track 28 not present in database
Track 29 not present in database

None of the tracks are present in the AccurateRip database

End of status report

–– CUETools DB Plugin V2.1.6

[CTDB TOCID: 5xDhhzinVV9zup9ZuJGgzRRzBk8-] found
Submit result: 5xDhhzinVV9zup9ZuJGgzRRzBk8- has been confirmed
Track | CTDB Status
1 | (11/11) Accurately ripped
2 | (11/11) Accurately ripped
3 | (11/11) Accurately ripped
4 | (11/11) Accurately ripped
5 | (11/11) Accurately ripped
6 | (11/11) Accurately ripped
7 | (11/11) Accurately ripped
8 | (11/11) Accurately ripped
9 | (11/11) Accurately ripped
10 | (11/11) Accurately ripped
11 | (11/11) Accurately ripped
12 | (11/11) Accurately ripped
13 | (11/11) Accurately ripped
14 | (11/11) Accurately ripped
15 | (11/11) Accurately ripped
16 | (11/11) Accurately ripped
17 | (11/11) Accurately ripped
18 | (11/11) Accurately ripped
19 | (11/11) Accurately ripped
20 | (11/11) Accurately ripped
21 | (11/11) Accurately ripped
22 | (11/11) Accurately ripped
23 | (11/11) Accurately ripped
24 | (11/11) Accurately ripped
25 | (11/11) Accurately ripped
26 | (11/11) Accurately ripped
27 | (11/11) Accurately ripped
28 | (11/11) Accurately ripped
29 | (11/11) Accurately ripped


==== Log checksum 52B74D23BE719CC7BCCE5D23B015954116F7671F9B6EF632C8C08DE8BFF4B0D9 ====

Ralf Otto, Bachorchester Mainz, Bachchor Mainz - Bach: Christmas Oratorio / Weihnachtsoratorium (2018)

Thanks to the original releaser