Tags
Language
Tags

Ralf Otto, Bachorchester Mainz, Bachchor Mainz - Bach: St John Passion / Johannes-Passion (2018)

Posted By: ArlegZ
Ralf Otto, Bachorchester Mainz, Bachchor Mainz - Bach: St John Passion / Johannes-Passion (2018)

Ralf Otto, Bachorchester Mainz, Bachchor Mainz - Bach: St John Passion / Johannes-Passion (2018)
EAC | FLAC | Image (Cue & Log) ~ 612 Mb | Total time: 132:02 | Scans included
Classical | Label: Naxos | # 8.573817-18 | Recorded: 2017

Johann Sebastian Bach’s St John Passion is, along with the St Matthew Passion, without doubt one of the most important works he ever composed. It established a new tradition for Good Friday vespers in Leipzig, and with sublime skill Bach managed to retain a spirit of church worship while creating an almost operatic narrative that movingly depicts Christ’s trial, death, and ultimate apotheosis. Bach’s numerous revisions always demand a certain amount of scholarly decision-making, and this recording of the St John Passion uses the final 1749 version that not only draws on and reinforces the best of Bach’s original concept, but incorporates the additional movements of the 1725 version.

Performer:
Georg Poplutz, tenor (Evangelist)
Yorck Felix Speer, bass (Jesus)
Julia Kleiter, soprano
Gerhild Romberger, alto
Daniel Sans, tenor (Petrus)
Matthias Winckhler, bass
Bachchor Mainz
Bachorchester Mainz
Conductor - Ralf Otto

Track List:
01. Part I. 1. Herr, unser Herrscher
02. 2a. Jesus ging mit seinen Jüngern / 2b. Jesum von Nazareth! / 2c. Jesus spricht zu ihnen / 2d. Jesum von Nazareth / 2e. Jesus antwortete
03. 3. O große Lieb, o Lieb ohn' alle Maße
04. 4. Auf daß das Wort erfüllet würde
05. 5. Dein Will gescheh, Herr Gott, zugleich
06. 6. Die Schar aber und der Oberhauptmann
07. 7. Von den Stricken meiner Sünden
08. 8. Simon Petrus aber folgete Jesu nach
09. 9. Ich folge dir gleichfalls mit freudigen Schritten
10. 10. Derselbige Jünger war dem Hohenpriester bekannt
11. 11. Wer hat dich so geschlagen
12. 12a. Und Hannas sandte ihn gebunden / 12b. Bist du nicht seiner Jünger einer? / 12c. Er leugnete aber und sprach
13. 13. Ach, mein Sinn, wo willt Du endlich hin
14. 14. Petrus, der nicht denkt zurück
15. Part II. 15. Christus, der uns selig macht
16. 16a. Da führeten sie Jesum von Kaiphas vor das Richthaus / 16b. Wäre dieser nicht ein Übeltäter / 16c. Da sprach Pilatus zu ihnen / 16d. Wir dürfen niemand töten / 16e. Auf daß erfüllet würde das Wort Jesu
17. 17. Ach großer König, groß zu allen Zeiten
18. 18a. Da sprach Pilatus zu ihm / 18b. Nicht diesen, sondern Barrabam! / 18c. Barrabas aber war ein Mörder!
19. 19. Betrachte, meine Seel, mit ängstlichem Vergnügen
20. 20. Erwäge, wie sein blutgefärbter Rücken
21. 21a. Und die Kriegsknechte flochten eine Krone von Dornen / 21b. Sei gegrüßet, lieber Jüdenkönig! / 21c. Und gaben ihm Backenstreiche / 21d. Kreuzige, kreuzige! / 21e. Pilatus sprach zu ihnen / 21f: Wir haben ein Gesetz / 21g. Da Pilatus das Wort hörete
22. 22. Durch dein Gefängnis, Gottes Sohn
23. 23a. Die Jüden aber schrieen und sprachen / 23b. Lässet du diesen los / 23c. Da Pilatus das Wort hörete / 23d. Weg, weg mit dem / 23e. Spricht Pilatus zu ihnen / 23f. Wir haben keinen König denn den Kaiser / 23g. Da überantwortete e
24. 24. Eilt, ihr angefochtnen Seelen - Wohin ?
25. 25a. Allda kreuzigten sie ihn, 25b. Schreibe nicht: der Jüden König. / 25c. Pilatus antwortet
26. 26. In meines Herzens Grunde
CD2:
01. 27a. Die Kriegsknechte aber, da sie Jesum gekreuziget hatten / 27b. Chorus: Lasset uns den nicht zerteilen / 27c. Auf daß erfrüllet würde die Schrift
02. 28. Er nahm alles wohl in acht
03. 29. Und von Stund an nahm sie der Jünger zu sich
04. 30. Es ist vollbracht!
05. 31. Und neiget das Haupt und verschied
06. 32. Mein teurer Heiland, Iaß dich fragen - Jesu, der du warest tot
07. 33. Und siehe da, der Vorhang im Tempel zerriß
08. 34. Mein Herz, in dem die ganze Welt
09. 35. Zerfließe, mein Herze
10. 36. Die Jüden aber, dieweil es der Rüsttag war
11. 37. O hilf, Christe, Gottes Sohn
12. 38. Darnach bat Pilatum Joseph von Arimathia
13. 39. Ruht wohl, ihr heiligen Gebeine
14. 40. Ach Herr, laß dein lieb Engelein
St John Passion, BWV 245, Appendix - Additional movements of the 1725 version
15. O Mensch, bewein dein Sünde groß (Replaces the chorus No. 1, Herr, under Herrscher')
16. Himmel, reiße, Welt, erbebe Choral: Jesu, dein Passion (Inserted between No. 11 (Choral: Wer hat dich so gescglagen)) and No. 12
17. Zerschmettert mich, inr Felsen und ihr Hügel (Replaces the aria No. 13, Ach, mein Sinn')
18. Ach windet euch nicht so geplagte Seelen (Replaces the arias No. 19, Betrachte, meine Seel' and No. 20, Erwäge, wie sein blutgefärbter Rücken)
19. Christe, du Lamm Gottes (Replaces the choral No. 40, Ach Herr, laß dein lieb Engelein')


Exact Audio Copy V1.3 from 2. September 2016

EAC extraction logfile from 5. March 2019, 16:42

Georg Poplutz, Yorck Felix Speer, Julia Kleiter, Gerhild Romberger, Daniel Sans, Matthias Winckhler; Ralf Otto / Bach - St John Passion (Johannes-Passion (1749 Version) (Disc 1)

Used drive : ATAPI iHAS124 F Adapter: 1 ID: 0

Read mode : Secure
Utilize accurate stream : Yes
Defeat audio cache : Yes
Make use of C2 pointers : No

Read offset correction : 6
Overread into Lead-In and Lead-Out : No
Fill up missing offset samples with silence : Yes
Delete leading and trailing silent blocks : No
Null samples used in CRC calculations : Yes
Used interface : Native Win32 interface for Win NT & 2000

Used output format : User Defined Encoder
Selected bitrate : 1024 kBit/s
Quality : High
Add ID3 tag : No
Command line compressor : C:\Program Files (x86)\Exact Audio Copy\FLAC\FLAC.EXE
Additional command line options : -6 -V -T "ARTIST=%artist%" -T "TITLE=%title%" -T "ALBUM=%albumtitle%" -T "DATE=%year%" -T "TRACKNUMBER=%tracknr%" -T "GENRE=%genre%" -T "COMMENT=%comment%" -T "BAND=%albuminterpret%" -T "ALBUMARTIST=%albuminterpret%" -T "COMPOSER=%composer%" %haslyrics%–tag-from-file=LYRICS="%lyricsfile%"%haslyrics% -T "DISCNUMBER=%cdnumber%" -T "TOTALDISCS=%totalcds%" -T "TOTALTRACKS=%numtracks%" %hascover%–picture="%coverfile%"%hascover% %source% -o %dest%


TOC of the extracted CD

Track | Start | Length | Start sector | End sector
––––––––––––––––––––––––––––-
1 | 0:00.00 | 8:54.42 | 0 | 40091
2 | 8:54.42 | 2:25.62 | 40092 | 51028
3 | 11:20.29 | 0:54.40 | 51029 | 55118
4 | 12:14.69 | 1:05.01 | 55119 | 59994
5 | 13:19.70 | 0:53.19 | 59995 | 63988
6 | 14:13.14 | 0:40.01 | 63989 | 66989
7 | 14:53.15 | 4:35.29 | 66990 | 87643
8 | 19:28.44 | 0:11.47 | 87644 | 88515
9 | 19:40.16 | 3:25.73 | 88516 | 103963
10 | 23:06.14 | 3:02.32 | 103964 | 117645
11 | 26:08.46 | 1:31.72 | 117646 | 124542
12 | 27:40.43 | 1:57.57 | 124543 | 133374
13 | 29:38.25 | 2:32.45 | 133375 | 144819
14 | 32:10.70 | 1:14.00 | 144820 | 150369
15 | 33:24.70 | 1:04.68 | 150370 | 155237
16 | 34:29.63 | 3:58.20 | 155238 | 173107
17 | 38:28.08 | 1:21.51 | 173108 | 179233
18 | 39:49.59 | 1:54.23 | 179234 | 187806
19 | 41:44.07 | 2:14.52 | 187807 | 197908
20 | 43:58.59 | 7:22.21 | 197909 | 231079
21 | 51:21.05 | 5:27.48 | 231080 | 255652
22 | 56:48.53 | 1:12.46 | 255653 | 261098
23 | 58:01.24 | 3:53.62 | 261099 | 278635
24 | 61:55.11 | 3:59.65 | 278636 | 296625
25 | 65:55.01 | 2:01.11 | 296626 | 305711
26 | 67:56.12 | 1:07.52 | 305712 | 310788


Range status and errors

Selected range

Filename C:\EACRip\00 - EASTER\Bach - St John Passion (Johannes-Passion (1749 Version) (Ralf Otto) (2017)\CD1\Bach - St John Passion (Johannes-Passion (1749 Version) (Disc 1) - Ralf Otto.wav

Peak level 99.2 %
Extraction speed 8.1 X
Range quality 100.0 %
Test CRC D276398B
Copy CRC D276398B
Copy OK

No errors occurred


AccurateRip summary

Track 1 not present in database
Track 2 not present in database
Track 3 not present in database
Track 4 not present in database
Track 5 not present in database
Track 6 not present in database
Track 7 not present in database
Track 8 not present in database
Track 9 not present in database
Track 10 not present in database
Track 11 not present in database
Track 12 not present in database
Track 13 not present in database
Track 14 not present in database
Track 15 not present in database
Track 16 not present in database
Track 17 not present in database
Track 18 not present in database
Track 19 not present in database
Track 20 not present in database
Track 21 not present in database
Track 22 not present in database
Track 23 not present in database
Track 24 not present in database
Track 25 not present in database
Track 26 not present in database

None of the tracks are present in the AccurateRip database

End of status report

–– CUETools DB Plugin V2.1.6

[CTDB TOCID: DP8YSFJLJhmW7dsvjYO1hR0jdqU-] found
Submit result: DP8YSFJLJhmW7dsvjYO1hR0jdqU- has been confirmed
Track | CTDB Status
1 | (3/3) Accurately ripped
2 | (3/3) Accurately ripped
3 | (3/3) Accurately ripped
4 | (3/3) Accurately ripped
5 | (3/3) Accurately ripped
6 | (3/3) Accurately ripped
7 | (3/3) Accurately ripped
8 | (3/3) Accurately ripped
9 | (3/3) Accurately ripped
10 | (3/3) Accurately ripped
11 | (3/3) Accurately ripped
12 | (3/3) Accurately ripped
13 | (3/3) Accurately ripped
14 | (3/3) Accurately ripped
15 | (3/3) Accurately ripped
16 | (3/3) Accurately ripped
17 | (3/3) Accurately ripped
18 | (3/3) Accurately ripped
19 | (3/3) Accurately ripped
20 | (3/3) Accurately ripped
21 | (3/3) Accurately ripped
22 | (3/3) Accurately ripped
23 | (3/3) Accurately ripped
24 | (3/3) Accurately ripped
25 | (3/3) Accurately ripped
26 | (3/3) Accurately ripped


==== Log checksum 7DDE7D12C93541F099482EC1B9C8D63F8CDA355EBEF106C017ECEAFD579EF380 ====


Exact Audio Copy V1.3 from 2. September 2016

EAC extraction logfile from 5. March 2019, 17:41

Georg Poplutz, Yorck Felix Speer, Julia Kleiter, Gerhild Romberger, Daniel Sans, Matthias Winckhler; Ralf Otto / Bach - St John Passion (Johannes-Passion (1749 Version) (Disc 2)

Used drive : ATAPI iHAS124 F Adapter: 1 ID: 0

Read mode : Secure
Utilize accurate stream : Yes
Defeat audio cache : Yes
Make use of C2 pointers : No

Read offset correction : 6
Overread into Lead-In and Lead-Out : No
Fill up missing offset samples with silence : Yes
Delete leading and trailing silent blocks : No
Null samples used in CRC calculations : Yes
Used interface : Native Win32 interface for Win NT & 2000

Used output format : User Defined Encoder
Selected bitrate : 1024 kBit/s
Quality : High
Add ID3 tag : No
Command line compressor : C:\Program Files (x86)\Exact Audio Copy\FLAC\FLAC.EXE
Additional command line options : -6 -V -T "ARTIST=%artist%" -T "TITLE=%title%" -T "ALBUM=%albumtitle%" -T "DATE=%year%" -T "TRACKNUMBER=%tracknr%" -T "GENRE=%genre%" -T "COMMENT=%comment%" -T "BAND=%albuminterpret%" -T "ALBUMARTIST=%albuminterpret%" -T "COMPOSER=%composer%" %haslyrics%–tag-from-file=LYRICS="%lyricsfile%"%haslyrics% -T "DISCNUMBER=%cdnumber%" -T "TOTALDISCS=%totalcds%" -T "TOTALTRACKS=%numtracks%" %hascover%–picture="%coverfile%"%hascover% %source% -o %dest%


TOC of the extracted CD

Track | Start | Length | Start sector | End sector
––––––––––––––––––––––––––––-
1 | 0:00.00 | 3:40.56 | 0 | 16555
2 | 3:40.56 | 1:03.63 | 16556 | 21343
3 | 4:44.44 | 1:22.10 | 21344 | 27503
4 | 6:06.54 | 5:12.47 | 27504 | 50950
5 | 11:19.26 | 0:28.16 | 50951 | 53066
6 | 11:47.42 | 4:05.69 | 53067 | 71510
7 | 15:53.36 | 0:24.47 | 71511 | 73357
8 | 16:18.08 | 0:48.25 | 73358 | 76982
9 | 17:06.33 | 7:15.53 | 76983 | 109660
10 | 24:22.11 | 2:04.23 | 109661 | 118983
11 | 26:26.34 | 0:59.09 | 118984 | 123417
12 | 27:25.43 | 1:54.15 | 123418 | 131982
13 | 29:19.58 | 7:10.40 | 131983 | 164272
14 | 36:30.23 | 2:18.20 | 164273 | 174642
15 | 38:48.43 | 5:49.45 | 174643 | 200862
16 | 44:38.13 | 3:54.54 | 200863 | 218466
17 | 48:32.67 | 4:36.29 | 218467 | 239195
18 | 53:09.21 | 5:28.00 | 239196 | 263795
19 | 58:37.21 | 4:20.31 | 263796 | 283326


Range status and errors

Selected range

Filename C:\EACRip\00 - EASTER\Bach - St John Passion (Johannes-Passion (1749 Version) (Ralf Otto) (2017)\CD2\Bach - St John Passion (Johannes-Passion (1749 Version) (Disc 2) - Ralf Otto.wav

Peak level 93.8 %
Extraction speed 9.0 X
Range quality 100.0 %
Test CRC 7B95D907
Copy CRC 7B95D907
Copy OK

No errors occurred


AccurateRip summary

Track 1 not present in database
Track 2 not present in database
Track 3 not present in database
Track 4 not present in database
Track 5 not present in database
Track 6 not present in database
Track 7 not present in database
Track 8 not present in database
Track 9 not present in database
Track 10 not present in database
Track 11 not present in database
Track 12 not present in database
Track 13 not present in database
Track 14 not present in database
Track 15 not present in database
Track 16 not present in database
Track 17 not present in database
Track 18 not present in database
Track 19 not present in database

None of the tracks are present in the AccurateRip database

End of status report

–– CUETools DB Plugin V2.1.6

[CTDB TOCID: BE_f8pYDUk9bMqqwN.z8Ee63YgI-] found
Submit result: BE_f8pYDUk9bMqqwN.z8Ee63YgI- has been confirmed
Track | CTDB Status
1 | (3/3) Accurately ripped
2 | (3/3) Accurately ripped
3 | (3/3) Accurately ripped
4 | (3/3) Accurately ripped
5 | (3/3) Accurately ripped
6 | (3/3) Accurately ripped
7 | (3/3) Accurately ripped
8 | (3/3) Accurately ripped
9 | (3/3) Accurately ripped
10 | (3/3) Accurately ripped
11 | (3/3) Accurately ripped
12 | (3/3) Accurately ripped
13 | (3/3) Accurately ripped
14 | (3/3) Accurately ripped
15 | (3/3) Accurately ripped
16 | (3/3) Accurately ripped
17 | (3/3) Accurately ripped
18 | (3/3) Accurately ripped
19 | (3/3) Accurately ripped


==== Log checksum 82B8E640FCB0FDDAC4A91BA928A3D62C22CF8DAF2E7FE2355B5A9726EA5902C4 ====

Ralf Otto, Bachorchester Mainz, Bachchor Mainz - Bach: St John Passion / Johannes-Passion (2018)

Thanks to the original releaser