Tags
Language
Tags

Ralf Otto, Concerto Köln, Vokalensemble Frankfurt - Bach: Weihnachts-Oratorium (1991)

Posted By: ArlegZ
Ralf Otto, Concerto Köln, Vokalensemble Frankfurt - Bach: Weihnachts-Oratorium (1991)

Ralf Otto, Concerto Köln, Vokalensemble Frankfurt - Bach: Weihnachts-Oratorium (1991)
EAC | FLAC | Image (Cue & Log) ~ 646 Mb | Total time: 140:42 | Scans included
Classical | Label: Capriccio | 60 025-2 | Recorded: 1991

The Vowel- ensemble Frankfurt must certainly be invited to the Top ensembles in the choral field can be counted. Besides perfect intonation, homogeneous choir sound and very good text processing constancy touches particularly pleasantly a beautiful, round, soft and completely natural- …light-sounding phrasing.
–A. Hirth in FonoForum

Performer:
Ruth Ziesak, soprano
Monica Groop, alto
Christoph Prégardien, tenor
Klaus Mertens, bass
Vokalensemble Frankfurt
Concerto Köln
Ralf Otto, conductor

Track List:
CD1:
Kantate 1: Am 1. Weihnachtsfeiertage
01. Coro "Jauchzet, Frohlocket"
02. Recitativo: "Es Begab Sich Aber Zu Der Zeit" (Evangelist)
03. Recitativo: "Nun Wird Mein Liebster Bräutigam" (Alt)
04. Aria: "Bereite Dich, Zion" (Alt)
05. Choral: "Wie Soll Ich Dich Empfangen"
06. Recitativo: "Und Sie Gebar Ihren Ersten Sohn" (Evangelist)
07. Choral, Recitativo: "Er Ist Auf Erden Kommen Arm" (Chor-Sopran), "Wer Kann Die Liebe Recht Erhöhn) (Baß)
08. Aria: "Großer Herr Und Starker König" (Baß)
09. Choral: "Ach, Mein Herzliebes Jesulein!"
Kantate 2: Am 2. Weihnachtsfeiertage
10. Sinfonia: Hirtenmusik
11. Recitativo: "Und Es Waren Hirten In Derselben Gegend" (Evangelist)
12. Choral: "Brich An, O Schönes Morgenlicht"
13. Recitativo: "Und Der Engel Sprach Zu Ihnen" (Evangelist)
14. Recitativo: "Was Gott Dem Abraham Verheißen" (Baß)
15. Aria: "Frohe Hirten, Eilt, Ach Eilet!" (Tenor)
16. Recitativo: "Und Das Habt Zum Zeichen" (Sopran)
17. Choral: "Schaut Hin! Dort Liegt Im Finstern Stall"
18. Recitativo: "So Geht Denn Hin! Ihr Hirten, Geht" (Baß)
19. Aria: "Schlafe, Mein Liebster, Genieße Der Ruh" (Alt)
20. Recitativo: "Und Alsobald War Da Bei Dem Engel" (Evangelist)
21. Coro: "Ehre Sei Gott In Der Höhe"
22. Recitativo: "So Recht, Ihr Engel, Jauchzt Und Singet" (Baß)
23. Choral: "Wir Singen Dir In Deinem Heer"
Kantate 3: Am 3. Weihnachtsfeiertage
24. Coro "Herrscher Des Himmels, Erhöre Das Lallen"
25. Recitativo: "Und Da Die Engel Von Ihnen Gen Himmel Fuhren" (Evangelist)
26. Coro: "Lasset Uns Nun Gehen Gen Bethlehem"
27. Recitativo: "Er Hat Sein Volk Getröst" (Baß)
28. Choral "Dies Hat Er Alles Uns Getan"
29. Duetto: "Herr, Dein Mitleid, Dein Erbarmen" (Sopran, Baß)
30. Recitativo: "Und Sie Kamen Eilend, Und Funden Beide" (Evangelist)
31. Aria: "Schließe, Mein Herze, Dies Selige Wunder" (Alt)
32. Recitativo: "Ja, Ja! Mein Herz Soll Es Bewahren" (Alt)
33. Choral: "Ich Will Dich Mit Fleiß Bewahren"
34. Recitativo: "Und Die Hirten Kehrten Wieder Um" (Evangelist)
35. Choral: "Seid Froh, Dieweil Daß Euer Heil"
36. Coro (Da Capo) "Herrscher Des Himmels, Erhöre Das Lallen"
CD2:
Kantate 4: Am Neujahrstage
01. Coro: "Fallt Mit Danken, Fallt Mit Loben"
02. Recitativo: "Und Da Acht Tage Um Waren" (Evangelist)
03. Recitativo, Choral: "Immanuel, O Süßes Wort!" (Baß, Chor-Sopran)
04. Aria: "Flößt, Mein Heiland, Flößt Dein Namen" (Sopran)
05. Recitativo, Arioso: "Wohlan! Dein Name Soll Allein" (Baß, Chor-Sopran)
06. Aria: "Ich Will Nur Dir Zu Ehren Leben" (Tenor)
07. Choral: "Jesus Richte Mein Beginnen"
Kantate 5: Am Sonntag Nach Neujahr
08. Coro: "Ehre Sei Dir, Gott"
09. Recitativo: "Da Jesus Geboren War Zu Bethlehem" (Evangelist)
10. Coro, Recitativo: "Wo Ist Der Neugeborne König" (Chor, Alt)
11. Choral: "Dein Glanz All' Finsternis Verzehrt"
12. Aria: "Erleucht' Auch Meine Finstre Sinnen" (Baß)
13. Recitativo: "Da Das Der König Herodes Hörte" (Evangelist)
14. Recitativo: "Warum Wollt Ihr Erschrecken?" (Alt)
15. Recitativo: "Und Ließ Versammeln Alle Hohenpriester" (Evangelist)
16. Terzetto: "Ach! Wann Wird Die Zeit Erscheinen?" (Sopran, Tenor, Alt)
17. Recitativo: "Mein Liebster Herrschet Schon" (Alt)
18. Choral: "Zwar Ist Solche Herzensstube"
Kantate 6: Am Feste Der Erscheinung Christi
19. Coro: "Herr, Wenn Die Stolzen Feinde Schnauben"
20. Recitativo: "Da Berief Herodes Die Weisen Heimlich" (Evangelist, Baß)
21. Recitativo: "Du Falscher, Suche Nur Den Herrn Zu Fällen" (Sopran)
22. Aria: "Nur Ein Wink Von Seinen Händen" (Sopran)
23. Recitativo: "Als Sie Nun Den König Gehöret Hatten" (Evangelist)
24. Choral: "Ich Steh' An Deiner Krippen Hier"
25. Recitativo: "Und Gott Befahl Ihnen Im Traum" (Evangelist)
26. Recitativo: "So Geht! Genug, Mein Schatz Geht Nicht" (Tenor)
27. Aria: "Nun Mögt Ihr Stolzen Feinde Schrecken" (Tenor)
28. Recitativo "Was Will Der Hölle Schrecken Nun" (Sopran, Tenor, Alt, Baß)
29. Choral: "Nun Seid Ihr Wohl Gerochen"


Exact Audio Copy V1.5 from 20. February 2020

EAC extraction logfile from 16. December 2020, 13:01

Ruth Ziesak, Monica Groop, Christoph Pregardien, Klaus Mertens / Weihnachts-Oratorium (Disc 1)

Used drive : ATAPI iHAS124 F Adapter: 1 ID: 0

Read mode : Secure
Utilize accurate stream : Yes
Defeat audio cache : Yes
Make use of C2 pointers : No

Read offset correction : 6
Overread into Lead-In and Lead-Out : No
Fill up missing offset samples with silence : Yes
Delete leading and trailing silent blocks : No
Null samples used in CRC calculations : Yes
Used interface : Native Win32 interface for Win NT & 2000

Used output format : User Defined Encoder
Selected bitrate : 1024 kBit/s
Quality : High
Add ID3 tag : No
Command line compressor : C:\Program Files (x86)\Exact Audio Copy\FLAC\FLAC.EXE
Additional command line options : -6 -V -T "ARTIST=%artist%" -T "TITLE=%title%" -T "ALBUM=%albumtitle%" -T "DATE=%year%" -T "TRACKNUMBER=%tracknr%" -T "GENRE=%genre%" -T "COMMENT=%comment%" -T "BAND=%albuminterpret%" -T "ALBUMARTIST=%albuminterpret%" -T "COMPOSER=%composer%" %haslyrics%–tag-from-file=LYRICS="%lyricsfile%"%haslyrics% -T "DISCNUMBER=%cdnumber%" -T "TOTALDISCS=%totalcds%" -T "TOTALTRACKS=%numtracks%" %hascover%–picture="%coverfile%"%hascover% %source% -o %dest%


TOC of the extracted CD

Track | Start | Length | Start sector | End sector
––––––––––––––––––––––––––––-
1 | 0:00.38 | 7:27.55 | 38 | 33617
2 | 7:28.18 | 1:11.42 | 33618 | 38984
3 | 8:39.60 | 0:52.55 | 38985 | 42939
4 | 9:32.40 | 4:52.70 | 42940 | 64909
5 | 14:25.35 | 1:11.68 | 64910 | 70302
6 | 15:37.28 | 0:23.37 | 70303 | 72064
7 | 16:00.65 | 2:51.28 | 72065 | 84917
8 | 18:52.18 | 4:22.50 | 84918 | 104617
9 | 23:14.68 | 1:17.45 | 104618 | 110437
10 | 24:32.38 | 5:34.42 | 110438 | 135529
11 | 30:07.05 | 0:40.35 | 135530 | 138564
12 | 30:47.40 | 1:02.05 | 138565 | 143219
13 | 31:49.45 | 0:41.05 | 143220 | 146299
14 | 32:30.50 | 0:46.08 | 146300 | 149757
15 | 33:16.58 | 3:27.22 | 149758 | 165304
16 | 36:44.05 | 0:18.30 | 165305 | 166684
17 | 37:02.35 | 0:45.28 | 166685 | 170087
18 | 37:47.63 | 0:51.07 | 170088 | 173919
19 | 38:38.70 | 9:26.33 | 173920 | 216402
20 | 48:05.28 | 0:11.15 | 216403 | 217242
21 | 48:16.43 | 2:17.50 | 217243 | 227567
22 | 50:34.18 | 0:26.32 | 227568 | 229549
23 | 51:00.50 | 1:21.63 | 229550 | 235687
24 | 52:22.38 | 1:51.65 | 235688 | 244077
25 | 54:14.28 | 0:08.35 | 244078 | 244712
26 | 54:22.63 | 0:42.70 | 244713 | 247932
27 | 55:05.58 | 0:42.62 | 247933 | 251144
28 | 55:48.45 | 0:46.50 | 251145 | 254644
29 | 56:35.20 | 6:48.73 | 254645 | 285317
30 | 63:24.18 | 1:13.72 | 285318 | 290864
31 | 64:38.15 | 5:11.40 | 290865 | 314229
32 | 69:49.55 | 0:23.48 | 314230 | 316002
33 | 70:13.28 | 0:56.15 | 316003 | 320217
34 | 71:09.43 | 0:22.37 | 320218 | 321904
35 | 71:32.05 | 0:46.73 | 321905 | 325427
36 | 72:19.03 | 1:52.40 | 325428 | 333867


Range status and errors

Selected range

Filename C:\EACRip\Bach - Weihnachts-Oratorium (Concerto Koln, Ralf Otto) (1991)\CD1\Bach - Weihnachts-Oratorium (Disc 1) - Concerto Koln, Ralf Otto.wav

Peak level 89.3 %
Extraction speed 6.8 X
Range quality 99.9 %
Test CRC 5583A020
Copy CRC 5583A020
Copy OK

No errors occurred


AccurateRip summary

Track 1 accurately ripped (confidence 9) [0C5B48D3] (AR v2)
Track 2 accurately ripped (confidence 9) [E50A4E3B] (AR v2)
Track 3 accurately ripped (confidence 9) [29626EDE] (AR v2)
Track 4 accurately ripped (confidence 9) [1F1FD68D] (AR v2)
Track 5 accurately ripped (confidence 9) [DAC485BF] (AR v2)
Track 6 accurately ripped (confidence 9) [C6B4F4D0] (AR v2)
Track 7 accurately ripped (confidence 9) [B695087E] (AR v2)
Track 8 accurately ripped (confidence 9) [FB04C5F4] (AR v2)
Track 9 accurately ripped (confidence 9) [A65475BB] (AR v2)
Track 10 accurately ripped (confidence 9) [6CB8928C] (AR v2)
Track 11 accurately ripped (confidence 9) [8B8B9B36] (AR v2)
Track 12 accurately ripped (confidence 9) [2DDF7F7D] (AR v2)
Track 13 accurately ripped (confidence 9) [1F0EF2A3] (AR v2)
Track 14 accurately ripped (confidence 9) [CA146B94] (AR v2)
Track 15 accurately ripped (confidence 9) [2160296A] (AR v2)
Track 16 accurately ripped (confidence 9) [8E619E05] (AR v2)
Track 17 accurately ripped (confidence 9) [0C919CB5] (AR v2)
Track 18 accurately ripped (confidence 9) [2A764A83] (AR v2)
Track 19 accurately ripped (confidence 9) [386B4778] (AR v2)
Track 20 accurately ripped (confidence 9) [C743A979] (AR v2)
Track 21 accurately ripped (confidence 9) [0FBFCB83] (AR v2)
Track 22 accurately ripped (confidence 9) [C14F3617] (AR v2)
Track 23 accurately ripped (confidence 9) [3E313B73] (AR v2)
Track 24 accurately ripped (confidence 9) [DD73F92C] (AR v2)
Track 25 accurately ripped (confidence 9) [BA38B54B] (AR v2)
Track 26 accurately ripped (confidence 9) [D664856A] (AR v2)
Track 27 accurately ripped (confidence 9) [1403F90A] (AR v2)
Track 28 accurately ripped (confidence 9) [572B289F] (AR v2)
Track 29 accurately ripped (confidence 9) [CDBDC2A3] (AR v2)
Track 30 accurately ripped (confidence 9) [41D1ECE1] (AR v2)
Track 31 accurately ripped (confidence 9) [9D427D12] (AR v2)
Track 32 accurately ripped (confidence 9) [8D5AC319] (AR v2)
Track 33 accurately ripped (confidence 9) [9A8470A2] (AR v2)
Track 34 accurately ripped (confidence 9) [BD3B7CFC] (AR v2)
Track 35 accurately ripped (confidence 9) [0DD08E3F] (AR v2)
Track 36 accurately ripped (confidence 9) [AD3DE5FD] (AR v2)

All tracks accurately ripped

End of status report

–– CUETools DB Plugin V2.1.6

[CTDB TOCID: G5W55TC1zuDKFQYEh.0z8tvywE4-] found
Submit result: G5W55TC1zuDKFQYEh.0z8tvywE4- has been confirmed
Track | CTDB Status
1 | (71/73) Accurately ripped
2 | (72/73) Accurately ripped
3 | (72/73) Accurately ripped
4 | (72/73) Accurately ripped
5 | (72/73) Accurately ripped
6 | (72/73) Accurately ripped
7 | (72/73) Accurately ripped
8 | (72/73) Accurately ripped
9 | (72/73) Accurately ripped
10 | (71/73) Accurately ripped
11 | (72/73) Accurately ripped
12 | (72/73) Accurately ripped
13 | (72/73) Accurately ripped
14 | (72/73) Accurately ripped
15 | (72/73) Accurately ripped
16 | (72/73) Accurately ripped
17 | (71/73) Accurately ripped
18 | (71/73) Accurately ripped
19 | (70/73) Accurately ripped
20 | (72/73) Accurately ripped
21 | (71/73) Accurately ripped
22 | (72/73) Accurately ripped
23 | (72/73) Accurately ripped
24 | (72/73) Accurately ripped
25 | (72/73) Accurately ripped
26 | (72/73) Accurately ripped
27 | (71/73) Accurately ripped
28 | (72/73) Accurately ripped
29 | (64/73) Accurately ripped
30 | (70/73) Accurately ripped
31 | (70/73) Accurately ripped
32 | (72/73) Accurately ripped
33 | (67/73) Accurately ripped
34 | (67/73) Accurately ripped
35 | (65/73) Accurately ripped
36 | (64/73) Accurately ripped


==== Log checksum 78F8EF47E26462BE103AEDF9A2C58FBC7A01C9031ECAE601143BC6D8B8BC9A42 ====


Exact Audio Copy V1.5 from 20. February 2020

EAC extraction logfile from 16. December 2020, 13:59

Ruth Ziesak, Monica Groop, Christoph Pregardien, Klaus Mertens / Weihnachts-Oratorium (Disc 2)

Used drive : ATAPI iHAS124 F Adapter: 1 ID: 0

Read mode : Secure
Utilize accurate stream : Yes
Defeat audio cache : Yes
Make use of C2 pointers : No

Read offset correction : 6
Overread into Lead-In and Lead-Out : No
Fill up missing offset samples with silence : Yes
Delete leading and trailing silent blocks : No
Null samples used in CRC calculations : Yes
Used interface : Native Win32 interface for Win NT & 2000

Used output format : User Defined Encoder
Selected bitrate : 1024 kBit/s
Quality : High
Add ID3 tag : No
Command line compressor : C:\Program Files (x86)\Exact Audio Copy\FLAC\FLAC.EXE
Additional command line options : -6 -V -T "ARTIST=%artist%" -T "TITLE=%title%" -T "ALBUM=%albumtitle%" -T "DATE=%year%" -T "TRACKNUMBER=%tracknr%" -T "GENRE=%genre%" -T "COMMENT=%comment%" -T "BAND=%albuminterpret%" -T "ALBUMARTIST=%albuminterpret%" -T "COMPOSER=%composer%" %haslyrics%–tag-from-file=LYRICS="%lyricsfile%"%haslyrics% -T "DISCNUMBER=%cdnumber%" -T "TOTALDISCS=%totalcds%" -T "TOTALTRACKS=%numtracks%" %hascover%–picture="%coverfile%"%hascover% %source% -o %dest%


TOC of the extracted CD

Track | Start | Length | Start sector | End sector
––––––––––––––––––––––––––––-
1 | 0:00.38 | 4:55.32 | 38 | 22194
2 | 4:55.70 | 0:29.63 | 22195 | 24432
3 | 5:25.58 | 2:31.02 | 24433 | 35759
4 | 7:56.60 | 5:34.35 | 35760 | 60844
5 | 13:31.20 | 1:35.00 | 60845 | 67969
6 | 15:06.20 | 4:30.05 | 67970 | 88224
7 | 19:36.25 | 2:05.08 | 88225 | 97607
8 | 21:41.33 | 6:03.65 | 97608 | 124897
9 | 27:45.23 | 0:20.12 | 124898 | 126409
10 | 28:05.35 | 1:54.18 | 126410 | 134977
11 | 29:59.53 | 0:47.37 | 134978 | 138539
12 | 30:47.15 | 4:18.35 | 138540 | 157924
13 | 35:05.50 | 0:10.35 | 157925 | 158709
14 | 35:16.10 | 0:29.05 | 158710 | 160889
15 | 35:45.15 | 1:15.00 | 160890 | 166514
16 | 37:00.15 | 4:49.55 | 166515 | 188244
17 | 41:49.70 | 0:28.68 | 188245 | 190412
18 | 42:18.63 | 0:52.47 | 190413 | 194359
19 | 43:11.35 | 5:09.28 | 194360 | 217562
20 | 48:20.63 | 0:47.02 | 217563 | 221089
21 | 49:07.65 | 0:50.30 | 221090 | 224869
22 | 49:58.20 | 4:09.33 | 224870 | 243577
23 | 54:07.53 | 1:07.10 | 243578 | 248612
24 | 55:14.63 | 1:11.02 | 248613 | 253939
25 | 56:25.65 | 0:22.58 | 253940 | 255647
26 | 56:48.48 | 1:46.72 | 255648 | 263669
27 | 58:35.45 | 4:06.13 | 263670 | 282132
28 | 62:41.58 | 0:34.45 | 282133 | 284727
29 | 63:16.28 | 3:16.72 | 284728 | 299499


Range status and errors

Selected range

Filename C:\EACRip\Bach - Weihnachts-Oratorium (Concerto Koln, Ralf Otto) (1991)\CD2\Bach - Weihnachts-Oratorium (Disc 2) - Concerto Koln, Ralf Otto.wav

Peak level 82.7 %
Extraction speed 8.9 X
Range quality 99.9 %
Test CRC 4FEBBFB5
Copy CRC 4FEBBFB5
Copy OK

No errors occurred


AccurateRip summary

Track 1 accurately ripped (confidence 10) [49B6BFB9] (AR v2)
Track 2 accurately ripped (confidence 10) [290EDAA3] (AR v2)
Track 3 accurately ripped (confidence 10) [82C10D15] (AR v2)
Track 4 accurately ripped (confidence 10) [C4222703] (AR v2)
Track 5 accurately ripped (confidence 10) [2412EE1B] (AR v2)
Track 6 accurately ripped (confidence 10) [BD36CE42] (AR v2)
Track 7 accurately ripped (confidence 10) [97160B27] (AR v2)
Track 8 accurately ripped (confidence 10) [A1F5415D] (AR v2)
Track 9 accurately ripped (confidence 10) [E19131DA] (AR v2)
Track 10 accurately ripped (confidence 10) [2F117189] (AR v2)
Track 11 accurately ripped (confidence 10) [1DFD7659] (AR v2)
Track 12 accurately ripped (confidence 10) [7D5EA4AF] (AR v2)
Track 13 accurately ripped (confidence 10) [DF2D20F1] (AR v2)
Track 14 accurately ripped (confidence 10) [89AAD772] (AR v2)
Track 15 accurately ripped (confidence 10) [9731C650] (AR v2)
Track 16 accurately ripped (confidence 10) [F7AB022F] (AR v2)
Track 17 accurately ripped (confidence 10) [6D2AA426] (AR v2)
Track 18 accurately ripped (confidence 10) [C6D4B830] (AR v2)
Track 19 accurately ripped (confidence 10) [1B1FEE3B] (AR v2)
Track 20 accurately ripped (confidence 10) [1EFEEA56] (AR v2)
Track 21 accurately ripped (confidence 10) [EB12537B] (AR v2)
Track 22 accurately ripped (confidence 10) [EF030A3A] (AR v2)
Track 23 accurately ripped (confidence 10) [925EAD37] (AR v2)
Track 24 accurately ripped (confidence 10) [C9AD9B1B] (AR v2)
Track 25 accurately ripped (confidence 10) [4FB218BB] (AR v2)
Track 26 accurately ripped (confidence 10) [CA5C4D2B] (AR v2)
Track 27 accurately ripped (confidence 10) [AC6ADF2C] (AR v2)
Track 28 accurately ripped (confidence 10) [D1FAB589] (AR v2)
Track 29 accurately ripped (confidence 10) [7C0E7926] (AR v2)

All tracks accurately ripped

End of status report

–– CUETools DB Plugin V2.1.6

[CTDB TOCID: DdVGNT2uL29un5VD0hDzYIxvsCg-] found
Submit result: DdVGNT2uL29un5VD0hDzYIxvsCg- has been confirmed
Track | CTDB Status
1 | (102/103) Accurately ripped
2 | (102/103) Accurately ripped
3 | (102/103) Accurately ripped
4 | (101/103) Accurately ripped
5 | (102/103) Accurately ripped
6 | (102/103) Accurately ripped
7 | (101/103) Accurately ripped, or (1/103) differs in 12 samples @02:00:11-02:00:13,02:00:19-02:00:20,02:00:26-02:00:27,02:03:31-02:03:32,02:03:38-02:03:39,02:03:46-02:03:47
8 | (102/103) Accurately ripped
9 | (102/103) Accurately ripped
10 | (102/103) Accurately ripped
11 | (102/103) Accurately ripped
12 | (102/103) Accurately ripped
13 | (102/103) Accurately ripped
14 | (102/103) Accurately ripped
15 | (102/103) Accurately ripped
16 | (102/103) Accurately ripped
17 | (102/103) Accurately ripped
18 | (102/103) Accurately ripped
19 | (102/103) Accurately ripped
20 | (101/103) Accurately ripped
21 | (102/103) Accurately ripped
22 | (101/103) Accurately ripped
23 | (102/103) Accurately ripped
24 | (102/103) Accurately ripped
25 | (102/103) Accurately ripped
26 | (102/103) Accurately ripped
27 | (102/103) Accurately ripped
28 | (101/103) Accurately ripped
29 | ( 93/103) Accurately ripped, or (1/103) differs in 3 samples @00:27:36, or (7/103) differs in 752 samples @02:41:18-02:41:19


==== Log checksum 7A0205ECE64B8052BBB59B7AC6A3CC60B39D25E50085348F2C13A8E495831115 ====

Ralf Otto, Concerto Köln, Vokalensemble Frankfurt - Bach: Weihnachts-Oratorium (1991)

Thanks to the original releaser