Tags
Language
Tags
May 2024
Su Mo Tu We Th Fr Sa
28 29 30 1 2 3 4
5 6 7 8 9 10 11
12 13 14 15 16 17 18
19 20 21 22 23 24 25
26 27 28 29 30 31 1

Ray Charles - A Message From The People (1972) [2009, Remastered Reissue]

Posted By: BlondStyle
Ray Charles - A Message From The People (1972) [2009, Remastered Reissue]

Ray Charles - A Message From The People (1972) [2009, Remastered Reissue]
R&B, Soul/Funk, Soul-Jazz, Swingbeat | EAC Rip | FLAC, Img+CUE+LOG+Scans (JPEG) | 38:34 | 231,52 Mb
Label: Concord Records (EU) | Cat.# 0888072314061 | Released: 2009-05-05 (1972)

Ray Charles's time on ABC Records was about more than adding strings, choirs, and country tunes to his approach. By 1972's "A Message From The People", he was turning out tracks full of funky soul, largely devoid of the overproduction plaguing much of his ABC discography. As was so often the case with Ray, a gospel feel mixed with R&B locomotion is the engine that drives things here, but he also uses it to transform Melanie's "What Have They Done to My Song, Ma" into a syncopated strut, and bring a Sunday Baptist church feel to the Dion hit "Abraham, Martin and John."
~Review by Jim Allen

Ray Charles - A Message From The People (1972) [2009, Remastered Reissue]


Release of this album: 1972, April [LP Tangerine Records, Cat.# ABCX 755, USA]
Release of this CD: 2009, May, 5 [CD Concord Records (EU), Cat.# 0888072314061 / UPC: 888072314061]
℗ 2009, The Ray Charles Foundation under license to Concord Music Group, Inc.
© 2009 Concord Music Group, Inc.
Made in the EU



Credits:

Arranged By – Mike Post, Quincy Jones, Sid Feller
Cover [Conceived By] – Joe Adams
Engineer [Recording] – David Braithwaite
Graphics – Don Niehaus
Painting – Al Willis
Photography By [Liner] – Joe Adams
Producer – Ray Charles


Tracklist:

01. "Lift Every Voice And Sing" (03:10)
(Traditional)
02. "Seems Like I Gotta Do Wrong" (04:14)
(Dee Ervin, L. Farr)
03. "Heaven Help Us All" (04:09)
(Ronald Miller)
04. "There'll Be No Peace Without All Men As One" (03:51)
(Sadye Shepard)
05. "Hey Mister" (03:58)
(Betty Lapcevic)
06. "What Have They Done To My Song, Ma" (03:44)
(Melanie Safka)
07. "Abraham, Martin And John" (04:55)
(Dick Holler)
08. "Take Me Home, Country Roads" (03:35)
(D. Danoff, J. Denver, T. Nivert)
09. "Every Saturday Night" (03:24)
(A. Collins)
10. "America The Beautiful" (03:35)
(Traditional)

Recorded at RPM/Tangerine Studios, Los Angeles, in 1972

Exact Audio Copy V0.99 prebeta 4 from 23. January 2008

EAC extraction logfile from 27. December 2009, 12:06

Ray Charles / A Message from the People

Used drive : SONY CD-RW CRX230ED Adapter: 3 ID: 1

Read mode : Secure
Utilize accurate stream : Yes
Defeat audio cache : Yes
Make use of C2 pointers : No

Read offset correction : 6
Overread into Lead-In and Lead-Out : No
Fill up missing offset samples with silence : Yes
Delete leading and trailing silent blocks : No
Null samples used in CRC calculations : Yes
Used interface : Installed external ASPI interface

Used output format : User Defined Encoder
Selected bitrate : 1024 kBit/s
Quality : High
Add ID3 tag : No
Command line compressor : C:\Program Files\FLAC\flac.exe
Additional command line options : -8 -V -T "ARTIST=%a" -T "TITLE=%t" -T "ALBUM=%g" -T "DATE=%y" -T "TRACKNUMBER=%n" -T "GENRE=%m" -T "COMMENT=EAC FLAC -8" %s

TOC извлечённого CD

Трек | Старт | Длительность | Начальный сектор | Конечный сектор
––––––––––––––––––––––––––––––––––-
1 | 0:00.00 | 3:09.44 | 0 | 14218
2 | 3:09.44 | 4:14.28 | 14219 | 33296
3 | 7:23.72 | 4:08.59 | 33297 | 51955
4 | 11:32.56 | 3:51.32 | 51956 | 69312
5 | 15:24.13 | 3:57.65 | 69313 | 87152
6 | 19:22.03 | 3:44.12 | 87153 | 103964
7 | 23:06.15 | 4:54.46 | 103965 | 126060
8 | 28:00.61 | 3:35.03 | 126061 | 142188
9 | 31:35.64 | 3:23.71 | 142189 | 157484
10 | 34:59.60 | 3:34.39 | 157485 | 173573

Характеристики диапазона извлечения и сообщения об ошибках

Выбранный диапазон

Имя файла C:\Ray Charles - A Message from the People.wav

Пиковый уровень 99.9 %
Качество диапазона 100.0 %
CRC теста F1C0FADF
CRC копии F1C0FADF
Копирование… OK

Ошибок не произошло

Конец отчёта

––––––––––––––––––––––––––––––––––––––––
Analyzed: Ray Charles / A Message from the People
––––––––––––––––––––––––––––––––––––––––

DR Peak RMS Duration Track
––––––––––––––––––––––––––––––––––––––––
DR10 -2.69 dB -16.56 dB 3:10 01-Lift Every Voice and Sing
DR8 0.00 dB -12.73 dB 4:14 02-Seems Like I Gotta Do Wrong
DR9 -1.69 dB -14.92 dB 4:09 03-Heaven Help Us All
DR9 0.00 dB -14.52 dB 3:51 04-There'll Be No Peace Without All Men as One
DR10 -2.20 dB -15.57 dB 3:58 05-Hey Mister
DR10 -1.04 dB -14.06 dB 3:44 06-What Have They Done to My Song, Ma
DR10 -1.96 dB -15.99 dB 4:55 07-Abraham, Martin and John
DR9 -1.11 dB -14.01 dB 3:35 08-Take Me Home, Country Roads
DR10 -2.79 dB -15.08 dB 3:24 09-Every Saturday Night
DR10 -0.57 dB -14.12 dB 3:35 10-America the Beautiful
––––––––––––––––––––––––––––––––––––––––

Number of tracks: 10
Official DR value: DR10

Samplerate: 44100 Hz
Channels: 2
Bits per sample: 16
Bitrate: 797 kbps
Codec: FLAC
================================================================================

Thanks to original releaser

♫~Welcome To My Blog~♫

password: BlondStyle