Subcategories
Tags
Language
Tags

Ray Conniff - Always in My Heart (1988)

Posted By: gribovar
Ray Conniff - Always in My Heart (1988)

Ray Conniff - Always in My Heart (1988)
EAC Rip | FLAC (image+.cue+log) - 176 MB | MP3 CBR 320 kbps (LAME 3.93) - 74 MB | Covers (7 MB) included
Genre: Easy Listening, Pop | RAR 3% Rec. | Label: CBS Records/Columbia (CK 44152)

The kitsch enthusiast or novelty seeker will get a kick out of Ray Conniff's 1988 album Always in My Heart. Known primarily for orchestral versions of contemporary pop songs, his recordings during the late-1960s and early 1970s as Ray Conniff and the Singers included many straightforward recordings of current pop hits. This 1988 collection, sans singers, includes songs by Edith Piaf, Bob Dylan, Percy Faith, and from Andrew Lloyd Webber and Tim Rice's Evita! This fun easy listening album has decent track listing, but, at barely over 20 minutes, will be worthwhile only if you want to hear a specific song in the set.
Tracklist:
01. Maria Elena (Always in My Heart)
02. Ramona
03. Don't Cry for Me Argentina (From "Evita")
04. La Violetera (Who Will Buy My Violets)
05. La Vie en Rose
06. Fernando
07. Theme from "A Summer Place" (A Tribute to Percy Faith)
08. Valencia
09. Blowin' in the Wind
10. Adios Muchachos

Total time: 28:27

Exact Audio Copy V1.5 from 20. February 2020

EAC extraction logfile from 8. November 2020, 10:31

Ray Conniff / Always In My Heart

Used drive : SlimtypeDVD A DS8A5SH Adapter: 1 ID: 0

Read mode : Secure
Utilize accurate stream : Yes
Defeat audio cache : Yes
Make use of C2 pointers : No

Read offset correction : 6
Overread into Lead-In and Lead-Out : No
Fill up missing offset samples with silence : Yes
Delete leading and trailing silent blocks : No
Null samples used in CRC calculations : Yes
Used interface : Native Win32 interface for Win NT & 2000

Used output format : Internal WAV Routines
Sample format : 44.100 Hz; 16 Bit; Stereo


TOC of the extracted CD

Track | Start | Length | Start sector | End sector
––––––––––––––––––––––––––––-
1 | 0:00.00 | 2:10.25 | 0 | 9774
2 | 2:10.25 | 3:04.32 | 9775 | 23606
3 | 5:14.57 | 3:20.10 | 23607 | 38616
4 | 8:34.67 | 2:33.35 | 38617 | 50126
5 | 11:08.27 | 3:27.25 | 50127 | 65676
6 | 14:35.52 | 3:26.45 | 65677 | 81171
7 | 18:02.22 | 2:12.70 | 81172 | 91141
8 | 20:15.17 | 2:47.53 | 91142 | 103719
9 | 23:02.70 | 2:44.65 | 103720 | 116084
10 | 25:47.60 | 2:39.45 | 116085 | 128054


Range status and errors

Selected range

Filename D:\Music\WAV\Ray Conniff - Always In My Heart.wav

Peak level 95.2 %
Extraction speed 2.4 X
Range quality 100.0 %
Test CRC 52803071
Copy CRC 52803071
Copy OK

No errors occurred


AccurateRip summary

Track 1 accurately ripped (confidence 1) [5841B102] (AR v1)
Track 2 accurately ripped (confidence 1) [323724A5] (AR v1)
Track 3 accurately ripped (confidence 1) [7813AA2A] (AR v1)
Track 4 accurately ripped (confidence 1) [756914E2] (AR v1)
Track 5 accurately ripped (confidence 1) [92036AE6] (AR v1)
Track 6 accurately ripped (confidence 1) [3823792C] (AR v1)
Track 7 accurately ripped (confidence 1) [BF0293ED] (AR v1)
Track 8 accurately ripped (confidence 1) [78344BB8] (AR v1)
Track 9 accurately ripped (confidence 1) [E311EB3E] (AR v1)
Track 10 accurately ripped (confidence 1) [5095ACCF] (AR v1)

All tracks accurately ripped

End of status report

==== Log checksum C4131C33C4669B6CEC9702DE8CF8837C1AF342BFFB484C3BD450FC380BDBF0C9 ====

[CUETools log; Date: 30.11.2020 14:24:11; Version: 2.1.4]
[CTDB TOCID: _NmiYdSCJkKd2Ku5fUuVAzxCWTw-] found.
Track | CTDB Status
1 | (2/2) Accurately ripped
2 | (2/2) Accurately ripped
3 | (2/2) Accurately ripped
4 | (2/2) Accurately ripped
5 | (2/2) Accurately ripped
6 | (2/2) Accurately ripped
7 | (2/2) Accurately ripped
8 | (2/2) Accurately ripped
9 | (2/2) Accurately ripped
10 | (2/2) Accurately ripped
[AccurateRip ID: 000acd89-0056d1d4-7c06ab0a] found.
Track [ CRC | V2 ] Status
01 [5841b102|993be505] (1+0/2) Accurately ripped
02 [323724a5|1ef61184] (1+0/2) Accurately ripped
03 [7813aa2a|93df2503] (1+0/2) Accurately ripped
04 [756914e2|3a17f7bc] (1+0/2) Accurately ripped
05 [92036ae6|f6bb0471] (1+0/2) Accurately ripped
06 [3823792c|48d43163] (1+0/2) Accurately ripped
07 [bf0293ed|a37755c2] (1+0/2) Accurately ripped
08 [78344bb8|ffd0c7bc] (1+0/2) Accurately ripped
09 [e311eb3e|80f66bb6] (1+0/2) Accurately ripped
10 [5095accf|95ad4649] (1+0/2) Accurately ripped
Offsetted by 286:
01 [837d1c4e] (1/2) Accurately ripped
02 [00035584] (1/2) Accurately ripped
03 [3a4bdf27] (1/2) Accurately ripped
04 [304f5d50] (1/2) Accurately ripped
05 [e9a2a828] (1/2) Accurately ripped
06 [c175a64f] (1/2) Accurately ripped
07 [4a904ff1] (1/2) Accurately ripped
08 [a91739aa] (1/2) Accurately ripped
09 [20dbdebb] (1/2) Accurately ripped
10 [5fbde55b] (1/2) Accurately ripped

Track Peak [ CRC32 ] [W/O NULL] [ LOG ]
– 95,2 [52803071] [04BFDF7C] CRC32
01 76,5 [B8D90D9E] [67C32439]
02 88,9 [7CFC0B11] [264C451B]
03 80,4 [9D5EF8F1] [7BFEE9D2]
04 94,6 [609F66B8] [770544E6]
05 84,8 [BB4E652E] [2E2640E0]
06 95,2 [C8A079DB] [FE25B967]
07 95,0 [9AE4B901] [58BFEC67]
08 82,8 [F190C65E] [D179C61B]
09 78,1 [C377BE56] [34085E65]
10 78,4 [BB81667A] [A45AA47E]

Thanks to Leshi067