Subcategories

Regina Carter - Something for Grace (1997) {Atlantic Jazz}

Posted By: tiburon
Regina Carter - Something for Grace (1997) {Atlantic Jazz}

Regina Carter - Something for Grace (1997) {Atlantic Jazz}
X Lossless Decoder | FLAC tracks | Cue+Log+M3U | Scans | 375MB + 5% Recovery
MP3 CBR 320 Kbps | 137MB + 5% Recovery
Genre: Post-Bop, Smooth Jazz
Regina Carter - Something for Grace (1997) {Atlantic Jazz}

Regina Carter (who has a beautiful tone and a swinging style) is one of the top new jazz violinists of the 1990s, and the more memorable selections on this CD are so strong that they almost allow one to overlook the three throwaway pop/R&B songs. Unfortunately, the opening "Downtown Underground" is one of the losers, and the Nicki Richards vocal piece "Late Night Mood" (which recording executive talked Carter into recording that turkey?) is so lightweight that it should have been released on another album. In contrast are near-classic renditions of Eddie Harris' "Listen Here" and Mal Waldron's "Soul Eyes"; Carter's haunting ballad "Reflections" deserves to become a standard. A mixed bag, but overall this CD is recommended, with reservations.
Track List
01. Downtown Underground (6:43)
02. Listen Here (7:13)
03. Day Dreamin' on the Niger (6:38)
04. Reflections (3:58)
05. Something for Grace (7:09)
06. Soul Eyes (6:35)
07. Late Night Mood (6:13)
08. I'll Write a Song for You (5:33)
09. Hide & Seek (Bahjee Bahjee) (5:06)
10. Centro Habana (4:48)

musicians
Regina Carter - Violin
Johnny Almendra - Cymbals, Guest Artist, Percussion
Michael Bearden - Drum Programming, Engineer, Keyboards, Mixing, Organ, Piano, Producer
Rocky Bryant - Drums
Regina Carter - Violin
Mayra Casales - Percussion
Kenny Davis - Bass (Acoustic)
Jane Getter - Guitar
Werner "Vana" Gierig - Piano, Producer, Synthesizer
Oriente Lopez - Piano, Producer, Synthesizer
Arif Mardin - Producer
Joe Mardin - Loops, Sequencing
Lewis Nash - Cymbals, Drums
Nicki Richards - Vocals
Tracy Wormworth - Bass (Electric)


X Lossless Decoder version 20191004 (152.0)

XLD extraction logfile from 2019-11-03 20:04:46 -0800

Regina Carter / Something for Grace

Used drive : HL-DT-ST DVDRAM GP65NB60 (revision PF00)
Media type : Pressed CD

Ripper mode : XLD Secure Ripper
Disable audio cache : OK for the drive with a cache less than 1375KiB
Make use of C2 pointers : NO
Read offset correction : 6
Max retry count : 100
Gap status : Analyzed, Appended (except HTOA)

TOC of the extracted CD
Track | Start | Length | Start sector | End sector
––––––––––––––––––––––––––––-
1 | 00:00:32 | 06:43:28 | 32 | 30284
2 | 06:43:60 | 07:12:52 | 30285 | 62736
3 | 13:56:37 | 06:38:13 | 62737 | 92599
4 | 20:34:50 | 03:58:15 | 92600 | 110464
5 | 24:32:65 | 07:09:37 | 110465 | 142676
6 | 31:42:27 | 06:35:20 | 142677 | 172321
7 | 38:17:47 | 06:13:25 | 172322 | 200321
8 | 44:30:72 | 05:32:43 | 200322 | 225264
9 | 50:03:40 | 05:06:20 | 225265 | 248234
10 | 55:09:60 | 04:48:10 | 248235 | 269844

List of alternate offset correction values
# | Absolute | Relative | Confidence
–––––––––––––––––––––
1 | 703 | 697 | 6

AccurateRip Summary (DiscID: 0017b961-00bbe75c-7f0e0d0a)
Track 01 : OK (v1+v2, confidence 16/22)
Track 02 : OK (v1+v2, confidence 16/22)
Track 03 : OK (v1+v2, confidence 15/21)
Track 04 : OK (v1+v2, confidence 16/22)
Track 05 : OK (v1+v2, confidence 16/22)
Track 06 : OK (v1+v2, confidence 16/22)
Track 07 : OK (v1+v2, confidence 16/22)
Track 08 : OK (v1+v2, confidence 16/22)
Track 09 : OK (v1+v2, confidence 15/21)
Track 10 : OK (v1+v2, confidence 14/20)
->All tracks accurately ripped.

All Tracks
Album gain : -4.87 dB
Peak : 0.976654
Statistics
Read error : 0
Jitter error (maybe fixed) : 0
Retry sector count : 0
Damaged sector count : 0

Track 01
Filename : /Volumes/Hollywood and Vine/Rips/Regina Carter - Something for Grace (1997) [FLAC]/01 Downtown Underground.flac
Pre-gap length : 00:02:32

Track gain : -5.50 dB
Peak : 0.976654
CRC32 hash (test run) : FE9DBF2B
CRC32 hash : FE9DBF2B
CRC32 hash (skip zero) : F1E07E17
AccurateRip v1 signature : 56300E68
AccurateRip v2 signature : 3156813B
->Accurately ripped (v1+v2, confidence 4+12/22)
Statistics
Read error : 0
Jitter error (maybe fixed) : 0
Retry sector count : 0
Damaged sector count : 0

Track 02
Filename : /Volumes/Hollywood and Vine/Rips/Regina Carter - Something for Grace (1997) [FLAC]/02 Listen Here.flac
Pre-gap length : 00:00:03

Track gain : -6.54 dB
Peak : 0.976654
CRC32 hash (test run) : 41CC80F7
CRC32 hash : 41CC80F7
CRC32 hash (skip zero) : 9B94C298
AccurateRip v1 signature : 1F4F799D
AccurateRip v2 signature : 5C9454E8
->Accurately ripped (v1+v2, confidence 4+12/22)
Statistics
Read error : 0
Jitter error (maybe fixed) : 0
Retry sector count : 0
Damaged sector count : 0

Track 03
Filename : /Volumes/Hollywood and Vine/Rips/Regina Carter - Something for Grace (1997) [FLAC]/03 Day Dreamin’ on the Niger.flac
Pre-gap length : 00:01:52

Track gain : -4.28 dB
Peak : 0.963470
CRC32 hash (test run) : D1EBC0D0
CRC32 hash : D1EBC0D0
CRC32 hash (skip zero) : AF6BF30D
AccurateRip v1 signature : 46C97D4B
AccurateRip v2 signature : F19BA1D4
->Accurately ripped (v1+v2, confidence 4+11/21)
Statistics
Read error : 0
Jitter error (maybe fixed) : 0
Retry sector count : 0
Damaged sector count : 0

Track 04
Filename : /Volumes/Hollywood and Vine/Rips/Regina Carter - Something for Grace (1997) [FLAC]/04 Reflections.flac

Track gain : 0.31 dB
Peak : 0.681335
CRC32 hash (test run) : BA7EF937
CRC32 hash : BA7EF937
CRC32 hash (skip zero) : F79D3434
AccurateRip v1 signature : 0154FFFB
AccurateRip v2 signature : 4E646448
->Accurately ripped (v1+v2, confidence 4+12/22)
Statistics
Read error : 0
Jitter error (maybe fixed) : 0
Retry sector count : 0
Damaged sector count : 0

Track 05
Filename : /Volumes/Hollywood and Vine/Rips/Regina Carter - Something for Grace (1997) [FLAC]/05 Something for Grace.flac
Pre-gap length : 00:00:08

Track gain : -4.45 dB
Peak : 0.962067
CRC32 hash (test run) : 4B5EE0D6
CRC32 hash : 4B5EE0D6
CRC32 hash (skip zero) : 70A59E55
AccurateRip v1 signature : E8C9C24D
AccurateRip v2 signature : 87A86A9B
->Accurately ripped (v1+v2, confidence 4+12/22)
Statistics
Read error : 0
Jitter error (maybe fixed) : 0
Retry sector count : 0
Damaged sector count : 0

Track 06
Filename : /Volumes/Hollywood and Vine/Rips/Regina Carter - Something for Grace (1997) [FLAC]/06 Soul Eyes.flac

Track gain : 0.68 dB
Peak : 0.732300
CRC32 hash (test run) : 1A2FCB9A
CRC32 hash : 1A2FCB9A
CRC32 hash (skip zero) : 1AA26BCA
AccurateRip v1 signature : 0E85F4CA
AccurateRip v2 signature : 9033106E
->Accurately ripped (v1+v2, confidence 4+12/22)
Statistics
Read error : 0
Jitter error (maybe fixed) : 0
Retry sector count : 0
Damaged sector count : 0

Track 07
Filename : /Volumes/Hollywood and Vine/Rips/Regina Carter - Something for Grace (1997) [FLAC]/07 Late Night Mode.flac

Track gain : -5.60 dB
Peak : 0.974365
CRC32 hash (test run) : 6C1B17EF
CRC32 hash : 6C1B17EF
CRC32 hash (skip zero) : B85E91E3
AccurateRip v1 signature : 0E177897
AccurateRip v2 signature : 3F724806
->Accurately ripped (v1+v2, confidence 4+12/22)
Statistics
Read error : 0
Jitter error (maybe fixed) : 0
Retry sector count : 0
Damaged sector count : 0

Track 08
Filename : /Volumes/Hollywood and Vine/Rips/Regina Carter - Something for Grace (1997) [FLAC]/08 I’ll Write a Song for You.flac
Pre-gap length : 00:00:65

Track gain : -5.50 dB
Peak : 0.964020
CRC32 hash (test run) : 09D8EE90
CRC32 hash : 09D8EE90
CRC32 hash (skip zero) : 5F4C854E
AccurateRip v1 signature : E77B390C
AccurateRip v2 signature : DA57D4E8
->Accurately ripped (v1+v2, confidence 4+12/22)
Statistics
Read error : 0
Jitter error (maybe fixed) : 0
Retry sector count : 0
Damaged sector count : 0

Track 09
Filename : /Volumes/Hollywood and Vine/Rips/Regina Carter - Something for Grace (1997) [FLAC]/09 Hide & Seek (Bahjee Bahjee).flac

Track gain : -5.50 dB
Peak : 0.973541
CRC32 hash (test run) : BA03AC0C
CRC32 hash : BA03AC0C
CRC32 hash (skip zero) : D6DA027C
AccurateRip v1 signature : 4451D033
AccurateRip v2 signature : EF9DD9E8
->Accurately ripped (v1+v2, confidence 4+11/21)
Statistics
Read error : 0
Jitter error (maybe fixed) : 0
Retry sector count : 0
Damaged sector count : 0

Track 10
Filename : /Volumes/Hollywood and Vine/Rips/Regina Carter - Something for Grace (1997) [FLAC]/10 Centro Habana.flac

Track gain : -4.11 dB
Peak : 0.945740
CRC32 hash (test run) : CE7FC7B5
CRC32 hash : CE7FC7B5
CRC32 hash (skip zero) : 14473A99
AccurateRip v1 signature : FB93F8AE
AccurateRip v2 signature : 2042A66B
->Accurately ripped (v1+v2, confidence 4+10/20)
Statistics
Read error : 0
Jitter error (maybe fixed) : 0
Retry sector count : 0
Damaged sector count : 0

No errors occurred

End of status report

––-BEGIN XLD SIGNATURE––-
LDN0yUkCAdQ0bipraCMVuos5lS5gimdC2tqvO.1B2VNyZVfEwjAxdMax9lIzMMbkqZ0K5hJrapq2kewJpbOLEZYioKdteb5xRKwkqX8
––-END XLD SIGNATURE––-


foobar2000 1.3.13 / Dynamic Range Meter 1.1.1
log date: 2019-11-10 11:44:02

––––––––––––––––––––––––––––––––––––––––
Analyzed: Regina Carter / Something for Grace
––––––––––––––––––––––––––––––––––––––––

DR Peak RMS Duration Track
––––––––––––––––––––––––––––––––––––––––
DR10 -0.21 dB -12.16 dB 6:43 01-Downtown Underground
DR9 -0.21 dB -11.23 dB 7:13 02-Listen Here
DR11 -0.32 dB -12.73 dB 6:38 03-Day Dreamin' on the Niger
DR11 -3.33 dB -18.60 dB 3:58 04-Reflections
DR11 -0.34 dB -12.95 dB 7:09 05-Something for Grace
DR11 -2.71 dB -18.71 dB 6:35 06-Soul Eyes
DR9 -0.23 dB -11.15 dB 6:13 07-Late Night Mood
DR10 -0.32 dB -12.60 dB 5:33 08-I'll Write a Song for You
DR10 -0.23 dB -11.66 dB 5:06 09-Hide & Seek (Bahjee Bahjee)
DR11 -0.48 dB -13.46 dB 4:48 10-Centro Habana
––––––––––––––––––––––––––––––––––––––––

Number of tracks: 10
Official DR value: DR10

Samplerate: 44100 Hz
Channels: 2
Bits per sample: 16
Bitrate: 887 kbps
Codec: FLAC
================================================================================

Regina Carter - Something for Grace (1997) {Atlantic Jazz}


Thanks to the original ripper