Tags
Language
Tags

Rev. Gary Davis - Rev. Gary Davis Live at Gerde's Folk City February, 1962 (2009) 3CD Set [Re-Up]

Posted By: Designol
Rev. Gary Davis - Rev. Gary Davis Live at Gerde's Folk City February, 1962 (2009) 3CD Set [Re-Up]

Rev. Gary Davis - Rev. Gary Davis Live at Gerde's Folk City February, 1962 (2009) 3CD Set
EAC | FLAC | Tracks (Cue&Log) ~ 927 Mb | Scans ~ 34 Mb | Time: 02:44:24
Label: Stefan Grossman's Guitar Workshop | # SGGW 114/5/6
Acoustic Blues, Folk Blues, Gospel

Rare concert recordings from 1962 made by Stefan Grossman of the Rev. Gary Davis at the legendary folk club Gerdes Folk City. These three CDs span Rev. Davis repertoire of blues, rags, novelty tunes and gospel songs.

It’s hard for me to believe. Almost 50 years has passed since I was sitting by the stage at Gerde’s Folk City in New York City with my two track Tandberg tape machine recording my teacher, Rev. Gary Davis’ performances. It was the week of February 3rd to 10th, 1962. Rev. Davis was booked along with the New World Singers (Gil Turner, Happy Traum and Bob Cohen) at the famous bar in Greenwich Village. During the week’s engagement all the new and old folk singers of the Village came by to watch, listen and pay their respects - from Dave Van Ronk to a newly arrived Bob Dylan.

When the gig at Gerde's Folk City came up I was excited, as here was a chance to record performances of Rev. Davis for a full week. I had been going down to Gerde’s for some time and Mike Porco, the owner, knew my face and would let me in for free as long as I sat at the bar (even though I was underaged!). I was also friends with Manny Greenhill of Folklore Productions. He managed Rev. Davis and was encouraging me to record Rev. Davis whenever I could. Manny wanted me to get as many songs and instrumentals recorded so that they could be published and protected. So I had the green light from all concerned and Mike allowed me to leave my Tandberg in the basement after each night’s performances.

Rev. Davis was very much part of these recordings. He wanted to play tunes that he had not yet recorded. Each set was filled with songs I had never heard.

Stefan Grossman

As Stefan Grossman tells us in his heartfelt notes he was encouraged by Davis's manager and friend, the charismatic Manny Greenhill, to record Davis whenever he could. Over the years Grossman has collected a wealth of Davis material, recorded informally at Davis's home and live in various concerts, and this three-disc compilation finds Davis in concert and in sparkling form.

The energetic Davis was 65 years old at the time of these recordings and was at the height of his powers, and all of his impressive skills are captured on this very highly recommended set. Surprises include a number of titles that have not been released elsewhere, alongside some of his most popular titles such as Say No To The Devil, Death Don't Have No Mercy and Soon My Work Will All Be Done.
The 36 titles were recorded during a week-long booking, in February 1962 at Gerde's Folk City, the legendary club in Greenwich Village. The venue had presented over the years a long string of legendary performers including Roosevelt Sykes, John Lee Hooker, Sonny Terry and Brownie McGhee, Ramblin' Jack Elliot and Bob Dylan. Davis sounds relaxed and is obviously enjoying the attention of the highly appreciative audience and Grossman, who recorded this set on a heavy Tandberg recording machine, has included a number of fascinating song introductions and anecdotes, all adding greatly to the enjoyment of the recordings.

By the time these recordings were made Davis had quite a following and had appeared at a number of major clubs and festivals, including the Newport Folk Festival and the Mariposa Festival. He had in the previous two years recorded two magnificent albums for the Prestige Bluesville label that show him at his very best, and here he is in equal form. His vocals, in particular, are powerful, committed and totally commanding, while his guitar picking is as inventive and as consummate as ever.

There are startling versions of the show stopping guitar instrumentals Twelve Sticks and Buck Dance, while the recording of Lord, Search My Heart, the only title included here from Davis's first recording session in 1935, is one of the best versions he ever recorded. One of his most popular songs, from his earliest days as a performing musician, Candyman has high falsetto vocals and a stunning guitar passage. I Am A Pilgrim, Davis informs us, comes from the time that he was first learning to play the guitar at the turn of last century. Another of the previously unrecorded songs People That Used To See, Can't See No More has a guitar melody that is very similar to another of his most popular songs, Cocaine Blues, and is one of the standout moments of this intriguing release.

One of the other not previously recorded titles that is particularly enjoyable is Working On The Building, with a guitar break that is as inventive as ever. The other three new titles, just A Closer Walk With Thee, Lord I Won't Go Back In Sin, and Tesse all add tremendously to the fascination of this set. On two titles, Soon My Work Will All Be Done and Oh Glory, How Happy I Am, Davis is joined on stage by the New World Singers (Gil Turner, Happy Traum and Bob Cohen), who shared the bill with Davis for the week, and there is no doubt that everyone is having a good time.

There are very few recordings of Davis playing the harmonica. This is an exceptional release, and thanks go to Grossman for putting it out. Davis' tremendous sense of humor is obvious alongside his committed Christian beliefs and he performs with passion and integrity. This is an absolute must for established Davis fans. If you have none of his material start here and you will not be disappointed.

Review by Bob Tilling, Living Blues

Three discs 53,49,61 minutes each approximately. The sound is good-much better than hoped for when taken from an old reel-to-reel tape recorder almost fifty years ago. Both the vocals and the instruments are clearly defined. The overall sound is immediate and warm,as if you're sitting near the front of the venue. The packaging is a tri-fold cardboard affair with the discs slipped into their respective holders. The notes are short-Grossman talks about the era and Davis.

These tracks were recorded by one of Davis' students (and a guitar player of some repute) Stefan Grossman. Along with the songs,Davis talks once in a while to the audience between some of the tracks. This can be an irritant or will become an integral part of the concert setting,depending on your outlook. To my ears they give a better idea of sitting in that audience on those nights,enjoying a one-of-a-kind experience,from a highly individualistic (and blind since birth) man. Included here are sing-alongs on the last two tracks on disc one,the group "New World Singers" (Gil Turner,Bob Cohen,Happy Traum) accompany Davis. At one point Davis announces that he gives guitar lessons (that a number of better known guitarists took him up on) to the audience,humbly telling the people where his "hut" was located.

Included on these discs are songs he had not yet recorded along with more well known tracks that anyone familiar with Davis will recognize. His many albums (VINTAGE RECORDINGS 1935-1949,HARLEM STREET SINGER,SAY NO TO THE DEVIL,THE GUITAR AND BANJO OF REVEREND GARY DAVIS to name a few) are all filled with gems of both guitar and (sometimes) banjo tunes,along with his harmonica playing,and,of course,his weathered,lived in voice. This set is no different-his guitar is all over this set. This is a very relaxed Gary Davis,feeling at ease entertaining the audience,who listened appreciatively to his many songs,guitar style,and voice. Additionally Davis played the harmonica in his highly rhythmic style,which is a treat to hear.

For anyone who likes Davis (who played well up until his death in 1972) his style of playing (a style that many better known guitarists,including Jorma Kaukonen of Jefferson Airplane/Hot Tuna to name just one,were enthralled with),or that era when older bluesmen were being rediscovered and recorded,for the "blues/folk boom" of the sixties-this is an excellent addition to your musical library. If you're not familiar with Rev. Davis,(who was ordained a minister in 1937) this is a good place to start. For this is music made by an unpretentious,warm,old-fashioned man who loved to make music. It's as simple as that.

Review by Stuart Jefferson


Rev. Gary Davis at Allmusic
Rev. Gary Davis at Wiki

Tracklist:

CD1:

01. You Got To Move (05:15)
02. Intro to Come Down And See Me Sometime (02:03)
03. Come Down And See Me Sometime (07:53)
04. Wouldn't Say Quit (05:16)
05. Oh Lord (06:50)
06. Announcing Guitar Lessons (00:59)
07. People That Use to See, Can't See No More (03:54)
08. There's Destruction In This Land (07:55)
09. Intro to Soon My Work Will All Be Done (03:35)
10. Soon My Work Will All Be Done (03:22)
11. Intro to Oh Glory, How Happy I Am (00:51)
12. Oh Glory, How Happy I Am (05:35)

CD2:

01. I Want To Be Saved (04:14)
02. Just A Closer Walk With Thee (03:46)
03. Death Don't Have No Mercy (05:18)
04. Lord I Won't Go Back In Sin (03:55)
05. Candyman (03:14)
06. Buck Dance (05:19)
07. Samson and Delilah (03:58)
08. Working On The Building (04:47)
09. I'll Fly Away (04:03)
10. Sun Goin' Down (04:10)
11. Fox Chase (06:26)

CD3:

01. God's Gonna Separate (02:51)
02. Lord Search My Heart (03:43)
03. Jesus Met The Woman At The Well (05:36)
04. Say No To The Devil (06:07)
05. I Am A Pilgrim (06:09)
06. All Night Long (05:40)
07. Trying To Get To Heaven (04:17)
08. Thank You Jesus (03:07)
09. Twelve Sticks (03:02)
10. Intro To Tesse (02:43)
11. Tesse (03:02)
12. Lord They Tell Me (06:23)
13. Right Or Wrong (08:51)


Exact Audio Copy V1.0 beta 3 from 29. August 2011

EAC extraction logfile from 11. September 2014, 23:16

Reverend Gary Davis / Live at Gerde's Folk City February, 1962 CD 1

Used drive : HL-DT-STDVDRAM GE20LU10 Adapter: 1 ID: 0

Read mode : Secure
Utilize accurate stream : Yes
Defeat audio cache : Yes
Make use of C2 pointers : No

Read offset correction : 667
Overread into Lead-In and Lead-Out : No
Fill up missing offset samples with silence : Yes
Delete leading and trailing silent blocks : No
Null samples used in CRC calculations : Yes
Used interface : Native Win32 interface for Win NT & 2000
Gap handling : Appended to previous track

Used output format : User Defined Encoder
Selected bitrate : 1024 kBit/s
Quality : High
Add ID3 tag : No
Command line compressor : C:\Program Files (x86)\Exact Audio Copy v1.0\Flac\flac.exe
Additional command line options : -V -8 -T "Date=%year%" -T "Genre=%genre%" %source%


TOC of the extracted CD

Track | Start | Length | Start sector | End sector
––––––––––––––––––––––––––––-
1 | 0:00.00 | 5:15.13 | 0 | 23637
2 | 5:15.13 | 2:03.74 | 23638 | 32936
3 | 7:19.12 | 7:53.69 | 32937 | 68480
4 | 15:13.06 | 5:16.28 | 68481 | 92208
5 | 20:29.34 | 6:50.62 | 92209 | 123020
6 | 27:20.21 | 0:59.66 | 123021 | 127511
7 | 28:20.12 | 3:54.14 | 127512 | 145075
8 | 32:14.26 | 7:55.17 | 145076 | 180717
9 | 40:09.43 | 3:35.21 | 180718 | 196863
10 | 43:44.64 | 3:22.12 | 196864 | 212025
11 | 47:07.01 | 0:51.73 | 212026 | 215923
12 | 47:58.74 | 5:35.00 | 215924 | 241048


Track 1

Filename D:\Torrents\Rev. Gary Davis Live at Gerde's Folk City February, 1962 (2009)\CD 1\01. You Got To Move.wav

Pre-gap length 0:00:02.00

Peak level 99.9 %
Extraction speed 1.1 X
Track quality 100.0 %
Test CRC 010A5B0E
Copy CRC 010A5B0E
Track not present in AccurateRip database
Copy OK

Track 2

Filename D:\Torrents\Rev. Gary Davis Live at Gerde's Folk City February, 1962 (2009)\CD 1\02. Intro to Come Down And See Me Sometime.wav

Pre-gap length 0:00:03.00

Peak level 99.9 %
Extraction speed 1.0 X
Track quality 100.0 %
Test CRC CA02FB84
Copy CRC CA02FB84
Track not present in AccurateRip database
Copy OK

Track 3

Filename D:\Torrents\Rev. Gary Davis Live at Gerde's Folk City February, 1962 (2009)\CD 1\03. Come Down And See Me Sometime.wav

Peak level 99.9 %
Extraction speed 1.4 X
Track quality 100.0 %
Test CRC 56109D52
Copy CRC 56109D52
Track not present in AccurateRip database
Copy OK

Track 4

Filename D:\Torrents\Rev. Gary Davis Live at Gerde's Folk City February, 1962 (2009)\CD 1\04. Wouldn't Say Quit.wav

Pre-gap length 0:00:03.00

Peak level 99.9 %
Extraction speed 1.3 X
Track quality 99.9 %
Test CRC E9D94882
Copy CRC E9D94882
Track not present in AccurateRip database
Copy OK

Track 5

Filename D:\Torrents\Rev. Gary Davis Live at Gerde's Folk City February, 1962 (2009)\CD 1\05. Oh Lord.wav

Pre-gap length 0:00:03.00

Peak level 99.9 %
Extraction speed 1.7 X
Track quality 100.0 %
Test CRC 7324320B
Copy CRC 7324320B
Track not present in AccurateRip database
Copy OK

Track 6

Filename D:\Torrents\Rev. Gary Davis Live at Gerde's Folk City February, 1962 (2009)\CD 1\06. Announcing Guitar Lessons.wav

Pre-gap length 0:00:03.00

Peak level 99.9 %
Extraction speed 1.2 X
Track quality 100.0 %
Test CRC 0CB1025F
Copy CRC 0CB1025F
Track not present in AccurateRip database
Copy OK

Track 7

Filename D:\Torrents\Rev. Gary Davis Live at Gerde's Folk City February, 1962 (2009)\CD 1\07. People That Use to See, Can't See No More.wav

Pre-gap length 0:00:03.00

Peak level 99.9 %
Extraction speed 1.7 X
Track quality 100.0 %
Test CRC 4384D548
Copy CRC 4384D548
Track not present in AccurateRip database
Copy OK

Track 8

Filename D:\Torrents\Rev. Gary Davis Live at Gerde's Folk City February, 1962 (2009)\CD 1\08. There's Destruction In This Land.wav

Pre-gap length 0:00:03.00

Peak level 99.9 %
Extraction speed 2.0 X
Track quality 100.0 %
Test CRC AA31656B
Copy CRC AA31656B
Track not present in AccurateRip database
Copy OK

Track 9

Filename D:\Torrents\Rev. Gary Davis Live at Gerde's Folk City February, 1962 (2009)\CD 1\09. Intro to Soon My Work Will All Be Done.wav

Pre-gap length 0:00:03.00

Peak level 98.9 %
Extraction speed 1.9 X
Track quality 100.0 %
Test CRC 00780DC2
Copy CRC 00780DC2
Track not present in AccurateRip database
Copy OK

Track 10

Filename D:\Torrents\Rev. Gary Davis Live at Gerde's Folk City February, 1962 (2009)\CD 1\10. Soon My Work Will All Be Done.wav

Peak level 79.4 %
Extraction speed 1.6 X
Track quality 99.9 %
Test CRC D06C1B39
Copy CRC D06C1B39
Track not present in AccurateRip database
Copy OK

Track 11

Filename D:\Torrents\Rev. Gary Davis Live at Gerde's Folk City February, 1962 (2009)\CD 1\11. Into to Oh Glory, How Happy I Am.wav

Pre-gap length 0:00:03.00

Peak level 78.6 %
Extraction speed 1.2 X
Track quality 100.0 %
Test CRC 6900E077
Copy CRC 6900E077
Track not present in AccurateRip database
Copy OK

Track 12

Filename D:\Torrents\Rev. Gary Davis Live at Gerde's Folk City February, 1962 (2009)\CD 1\12. Oh Glory, How Happy I Am.wav

Peak level 79.4 %
Extraction speed 2.0 X
Track quality 99.9 %
Test CRC FDAB68E1
Copy CRC FDAB68E1
Track not present in AccurateRip database
Copy OK


None of the tracks are present in the AccurateRip database

No errors occurred

End of status report

–– CUETools DB Plugin V2.1.3

[CTDB TOCID: CS0xzM7TInn.ttYw5en0jm0p7Xw-] found, Submit result: CS0xzM7TInn.ttYw5en0jm0p7Xw- has been confirmed
[16dc9f1c] (1/1) Accurately ripped


==== Log checksum 3CE829B5AC5E2E2147F2438D8AF0D292DB65E58A0CF2753E2D2BB2908287E335 ====

foobar2000 1.2 / Dynamic Range Meter 1.1.1
log date: 2014-09-14 12:12:49

––––––––––––––––––––––––––––––––––––––––
Analyzed: Reverend Gary Davis / Live at Gerde's Folk City February, 1962 CD 1
––––––––––––––––––––––––––––––––––––––––

DR Peak RMS Duration Track
––––––––––––––––––––––––––––––––––––––––
DR8 0.00 dB -11.30 dB 5:15 01-You Got To Move
DR15 0.00 dB -19.15 dB 2:04 02-Intro to Come Down And See Me Sometime
DR11 0.00 dB -14.02 dB 7:54 03-Come Down And See Me Sometime
DR11 0.00 dB -13.69 dB 5:16 04-Wouldn't Say Quit
DR10 0.00 dB -13.66 dB 6:51 05-Oh Lord
DR13 0.00 dB -15.02 dB 1:00 06-Announcing Guitar Lessons
DR9 0.00 dB -10.96 dB 3:54 07-People That Use to See, Can't See No More
DR9 0.00 dB -11.14 dB 7:55 08-There's Destruction In This Land
DR15 -0.10 dB -18.50 dB 3:35 09-Intro to Soon My Work Will All Be Done
DR9 -2.00 dB -13.27 dB 3:22 10-Soon My Work Will All Be Done
DR16 -2.09 dB -22.55 dB 0:52 11-Intro to Oh Glory, How Happy I Am
DR8 -2.00 dB -12.48 dB 5:35 12-Oh Glory, How Happy I Am
––––––––––––––––––––––––––––––––––––––––

Number of tracks: 12
Official DR value: DR11

Samplerate: 44100 Hz
Channels: 2
Bits per sample: 16
Bitrate: 819 kbps
Codec: FLAC
================================================================================


Exact Audio Copy V1.0 beta 3 from 29. August 2011

EAC extraction logfile from 12. September 2014, 8:11

Reverend Gary Davis / Live at Gerde's Folk City February, 1962 CD 2

Used drive : HL-DT-STDVDRAM GE20LU10 Adapter: 1 ID: 0

Read mode : Secure
Utilize accurate stream : Yes
Defeat audio cache : Yes
Make use of C2 pointers : No

Read offset correction : 667
Overread into Lead-In and Lead-Out : No
Fill up missing offset samples with silence : Yes
Delete leading and trailing silent blocks : No
Null samples used in CRC calculations : Yes
Used interface : Native Win32 interface for Win NT & 2000
Gap handling : Appended to previous track

Used output format : User Defined Encoder
Selected bitrate : 1024 kBit/s
Quality : High
Add ID3 tag : No
Command line compressor : C:\Program Files (x86)\Exact Audio Copy v1.0\Flac\flac.exe
Additional command line options : -V -8 -T "Date=%year%" -T "Genre=%genre%" %source%


TOC of the extracted CD

Track | Start | Length | Start sector | End sector
––––––––––––––––––––––––––––-
1 | 0:00.00 | 4:14.06 | 0 | 19055
2 | 4:14.06 | 3:46.26 | 19056 | 36031
3 | 8:00.32 | 5:18.08 | 36032 | 59889
4 | 13:18.40 | 3:55.26 | 59890 | 77540
5 | 17:13.66 | 3:14.55 | 77541 | 92145
6 | 20:28.46 | 5:19.03 | 92146 | 116073
7 | 25:47.49 | 3:58.60 | 116074 | 133983
8 | 29:46.34 | 4:47.21 | 133984 | 155529
9 | 34:33.55 | 4:03.09 | 155530 | 173763
10 | 38:36.64 | 4:10.68 | 173764 | 192581
11 | 42:47.57 | 6:26.28 | 192582 | 221559


Track 1

Filename D:\Torrents\Rev. Gary Davis Live at Gerde's Folk City February, 1962 (2009)\CD 2\01. I Want To Be Saved.wav

Pre-gap length 0:00:02.00

Peak level 99.9 %
Extraction speed 1.0 X
Track quality 100.0 %
Test CRC 66941344
Copy CRC 66941344
Track not present in AccurateRip database
Copy OK

Track 2

Filename D:\Torrents\Rev. Gary Davis Live at Gerde's Folk City February, 1962 (2009)\CD 2\02. Just A Closer Walk With Thee.wav

Pre-gap length 0:00:04.00

Peak level 99.9 %
Extraction speed 1.1 X
Track quality 100.0 %
Test CRC 6B2F2611
Copy CRC 6B2F2611
Track not present in AccurateRip database
Copy OK

Track 3

Filename D:\Torrents\Rev. Gary Davis Live at Gerde's Folk City February, 1962 (2009)\CD 2\03. Death Don't Have No Mercy.wav

Pre-gap length 0:00:04.00

Peak level 99.9 %
Extraction speed 1.3 X
Track quality 100.0 %
Test CRC 2D64033D
Copy CRC 2D64033D
Track not present in AccurateRip database
Copy OK

Track 4

Filename D:\Torrents\Rev. Gary Davis Live at Gerde's Folk City February, 1962 (2009)\CD 2\04. Lord I Won't Go Back In Sin.wav

Pre-gap length 0:00:04.00

Peak level 99.9 %
Extraction speed 1.2 X
Track quality 99.9 %
Test CRC D1A80505
Copy CRC D1A80505
Track not present in AccurateRip database
Copy OK

Track 5

Filename D:\Torrents\Rev. Gary Davis Live at Gerde's Folk City February, 1962 (2009)\CD 2\05. Candyman.wav

Pre-gap length 0:00:04.00

Peak level 99.9 %
Extraction speed 1.4 X
Track quality 100.0 %
Test CRC 6A2F6424
Copy CRC 6A2F6424
Track not present in AccurateRip database
Copy OK

Track 6

Filename D:\Torrents\Rev. Gary Davis Live at Gerde's Folk City February, 1962 (2009)\CD 2\06. Buck Dance.wav

Pre-gap length 0:00:04.00

Peak level 99.9 %
Extraction speed 1.4 X
Track quality 99.9 %
Test CRC 98566284
Copy CRC 98566284
Track not present in AccurateRip database
Copy OK

Track 7

Filename D:\Torrents\Rev. Gary Davis Live at Gerde's Folk City February, 1962 (2009)\CD 2\07. Samson and Delilah.wav

Pre-gap length 0:00:04.00

Peak level 89.1 %
Extraction speed 1.7 X
Track quality 100.0 %
Test CRC FCC9B58A
Copy CRC FCC9B58A
Track not present in AccurateRip database
Copy OK

Track 8

Filename D:\Torrents\Rev. Gary Davis Live at Gerde's Folk City February, 1962 (2009)\CD 2\08. Working On The Building.wav

Pre-gap length 0:00:04.00

Peak level 99.9 %
Extraction speed 1.8 X
Track quality 100.0 %
Test CRC FB7E929E
Copy CRC FB7E929E
Track not present in AccurateRip database
Copy OK

Track 9

Filename D:\Torrents\Rev. Gary Davis Live at Gerde's Folk City February, 1962 (2009)\CD 2\09. I'll Fly Away.wav

Pre-gap length 0:00:04.00

Peak level 99.9 %
Extraction speed 1.8 X
Track quality 100.0 %
Test CRC E6E4A45A
Copy CRC E6E4A45A
Track not present in AccurateRip database
Copy OK

Track 10

Filename D:\Torrents\Rev. Gary Davis Live at Gerde's Folk City February, 1962 (2009)\CD 2\10. Sun Goin' Down.wav

Pre-gap length 0:00:04.00

Peak level 99.9 %
Extraction speed 1.5 X
Track quality 99.9 %
Test CRC 13391793
Copy CRC 13391793
Track not present in AccurateRip database
Copy OK

Track 11

Filename D:\Torrents\Rev. Gary Davis Live at Gerde's Folk City February, 1962 (2009)\CD 2\11. Fox Chase.wav

Pre-gap length 0:00:04.00

Peak level 99.9 %
Extraction speed 2.1 X
Track quality 100.0 %
Test CRC ECAB1113
Copy CRC ECAB1113
Track not present in AccurateRip database
Copy OK


None of the tracks are present in the AccurateRip database

No errors occurred

End of status report

–– CUETools DB Plugin V2.1.3

[CTDB TOCID: 2mkEyZ7JZ3w4NYvksjBlHzpLXdg-] disk not present in database, Submit result: 2mkEyZ7JZ3w4NYvksjBlHzpLXdg- has been uploaded


==== Log checksum D8131294FE801DB93042D31F37E5B0295765FCD39F2A8D0FB5CE476AC64178EF ====

foobar2000 1.2 / Dynamic Range Meter 1.1.1
log date: 2014-09-14 12:13:06

––––––––––––––––––––––––––––––––––––––––
Analyzed: Reverend Gary Davis / Live at Gerde's Folk City February, 1962 CD 2
––––––––––––––––––––––––––––––––––––––––

DR Peak RMS Duration Track
––––––––––––––––––––––––––––––––––––––––
DR10 0.00 dB -12.68 dB 4:14 01-I Want To Be Saved
DR8 0.00 dB -10.96 dB 3:46 02-Just A Closer Walk With Thee
DR10 0.00 dB -12.21 dB 5:18 03-Death Don't Have No Mercy
DR9 0.00 dB -11.07 dB 3:55 04-Lord I Won't Go Back In Sin
DR9 0.00 dB -11.84 dB 3:15 05-Candyman
DR10 0.00 dB -13.92 dB 5:19 06-Buck Dance
DR10 -1.00 dB -12.80 dB 3:59 07-Samson and Delilah
DR9 0.00 dB -11.37 dB 4:47 08-Working On The Building
DR8 0.00 dB -9.71 dB 4:03 09-I'll Fly Away
DR9 0.00 dB -11.46 dB 4:11 10-Sun Goin' Down
DR10 0.00 dB -14.36 dB 6:26 11-Fox Chase
––––––––––––––––––––––––––––––––––––––––

Number of tracks: 11
Official DR value: DR9

Samplerate: 44100 Hz
Channels: 2
Bits per sample: 16
Bitrate: 836 kbps
Codec: FLAC
================================================================================


Exact Audio Copy V1.0 beta 3 from 29. August 2011

EAC extraction logfile from 12. September 2014, 9:45

Reverend Gary Davis / Live at Gerde's Folk City February, 1962 CD 3

Used drive : HL-DT-STDVDRAM GE20LU10 Adapter: 1 ID: 0

Read mode : Secure
Utilize accurate stream : Yes
Defeat audio cache : Yes
Make use of C2 pointers : No

Read offset correction : 667
Overread into Lead-In and Lead-Out : No
Fill up missing offset samples with silence : Yes
Delete leading and trailing silent blocks : No
Null samples used in CRC calculations : Yes
Used interface : Native Win32 interface for Win NT & 2000
Gap handling : Appended to previous track

Used output format : User Defined Encoder
Selected bitrate : 1024 kBit/s
Quality : High
Add ID3 tag : No
Command line compressor : C:\Program Files (x86)\Exact Audio Copy v1.0\Flac\flac.exe
Additional command line options : -V -8 -T "Date=%year%" -T "Genre=%genre%" %source%


TOC of the extracted CD

Track | Start | Length | Start sector | End sector
––––––––––––––––––––––––––––-
1 | 0:00.00 | 2:51.21 | 0 | 12845
2 | 2:51.21 | 3:43.47 | 12846 | 29617
3 | 6:34.68 | 5:36.40 | 29618 | 54857
4 | 12:11.33 | 6:07.01 | 54858 | 82383
5 | 18:18.34 | 6:09.66 | 82384 | 110124
6 | 24:28.25 | 5:40.18 | 110125 | 135642
7 | 30:08.43 | 4:17.02 | 135643 | 154919
8 | 34:25.45 | 3:07.62 | 154920 | 169006
9 | 37:33.32 | 3:02.53 | 169007 | 182709
10 | 40:36.10 | 2:43.30 | 182710 | 194964
11 | 43:19.40 | 3:02.25 | 194965 | 208639
12 | 46:21.65 | 6:23.31 | 208640 | 237395
13 | 52:45.21 | 8:51.15 | 237396 | 277235


Track 1

Filename D:\Torrents\Rev. Gary Davis Live at Gerde's Folk City February, 1962 (2009)\CD 3\01. God's Gonna Separate.wav

Pre-gap length 0:00:02.00

Peak level 99.9 %
Extraction speed 0.8 X
Track quality 99.9 %
Test CRC D924255F
Copy CRC D924255F
Track not present in AccurateRip database
Copy OK

Track 2

Filename D:\Torrents\Rev. Gary Davis Live at Gerde's Folk City February, 1962 (2009)\CD 3\02. Lord Search My Heart.wav

Pre-gap length 0:00:03.00

Peak level 99.9 %
Extraction speed 1.1 X
Track quality 100.0 %
Test CRC 0CD1CDF2
Copy CRC 0CD1CDF2
Track not present in AccurateRip database
Copy OK

Track 3

Filename D:\Torrents\Rev. Gary Davis Live at Gerde's Folk City February, 1962 (2009)\CD 3\03. Jesus Met The Woman At The Well.wav

Pre-gap length 0:00:03.00

Peak level 99.9 %
Extraction speed 1.3 X
Track quality 100.0 %
Test CRC FEC21F75
Copy CRC FEC21F75
Track not present in AccurateRip database
Copy OK

Track 4

Filename D:\Torrents\Rev. Gary Davis Live at Gerde's Folk City February, 1962 (2009)\CD 3\04. Say No To The Devil.wav

Pre-gap length 0:00:03.00

Peak level 99.9 %
Extraction speed 1.4 X
Track quality 100.0 %
Test CRC 6AF81A6E
Copy CRC 6AF81A6E
Track not present in AccurateRip database
Copy OK

Track 5

Filename D:\Torrents\Rev. Gary Davis Live at Gerde's Folk City February, 1962 (2009)\CD 3\05. I Am A Pilgrim.wav

Pre-gap length 0:00:03.00

Peak level 99.9 %
Extraction speed 1.6 X
Track quality 100.0 %
Test CRC 454CDF10
Copy CRC 454CDF10
Track not present in AccurateRip database
Copy OK

Track 6

Filename D:\Torrents\Rev. Gary Davis Live at Gerde's Folk City February, 1962 (2009)\CD 3\06. All Night Long.wav

Pre-gap length 0:00:03.00

Peak level 89.1 %
Extraction speed 1.7 X
Track quality 100.0 %
Test CRC D557E78B
Copy CRC D557E78B
Track not present in AccurateRip database
Copy OK

Track 7

Filename D:\Torrents\Rev. Gary Davis Live at Gerde's Folk City February, 1962 (2009)\CD 3\07. Trying To Get To Heaven.wav

Pre-gap length 0:00:03.00

Peak level 99.9 %
Extraction speed 1.7 X
Track quality 100.0 %
Test CRC A082EF9C
Copy CRC A082EF9C
Track not present in AccurateRip database
Copy OK

Track 8

Filename D:\Torrents\Rev. Gary Davis Live at Gerde's Folk City February, 1962 (2009)\CD 3\08. Thank You Jesus.wav

Pre-gap length 0:00:03.00

Peak level 99.9 %
Extraction speed 1.7 X
Track quality 100.0 %
Test CRC 2FB00752
Copy CRC 2FB00752
Track not present in AccurateRip database
Copy OK

Track 9

Filename D:\Torrents\Rev. Gary Davis Live at Gerde's Folk City February, 1962 (2009)\CD 3\09. Twelve Sticks.wav

Pre-gap length 0:00:03.00

Peak level 99.9 %
Extraction speed 1.8 X
Track quality 100.0 %
Test CRC B60A0AA0
Copy CRC B60A0AA0
Track not present in AccurateRip database
Copy OK

Track 10

Filename D:\Torrents\Rev. Gary Davis Live at Gerde's Folk City February, 1962 (2009)\CD 3\10. Intro To Tesse.wav

Pre-gap length 0:00:03.00

Peak level 99.9 %
Extraction speed 1.8 X
Track quality 100.0 %
Test CRC 403B5DF4
Copy CRC 403B5DF4
Track not present in AccurateRip database
Copy OK

Track 11

Filename D:\Torrents\Rev. Gary Davis Live at Gerde's Folk City February, 1962 (2009)\CD 3\11. Tesse.wav

Peak level 99.9 %
Extraction speed 1.9 X
Track quality 100.0 %
Test CRC 30C8C6BA
Copy CRC 30C8C6BA
Track not present in AccurateRip database
Copy OK

Track 12

Filename D:\Torrents\Rev. Gary Davis Live at Gerde's Folk City February, 1962 (2009)\CD 3\12. Lord They Tell Me.wav

Pre-gap length 0:00:03.00

Peak level 99.9 %
Extraction speed 2.1 X
Track quality 100.0 %
Test CRC DD3296D4
Copy CRC DD3296D4
Track not present in AccurateRip database
Copy OK

Track 13

Filename D:\Torrents\Rev. Gary Davis Live at Gerde's Folk City February, 1962 (2009)\CD 3\13. Right Or Wrong.wav

Pre-gap length 0:00:03.00

Peak level 99.9 %
Extraction speed 2.2 X
Track quality 99.9 %
Test CRC 833FD8D1
Copy CRC 833FD8D1
Track not present in AccurateRip database
Copy OK


None of the tracks are present in the AccurateRip database

No errors occurred

End of status report

–– CUETools DB Plugin V2.1.3

[CTDB TOCID: 3N00dU2GXxO4tdiVB7mBbY.TS4o-] disk not present in database, Submit result: 3N00dU2GXxO4tdiVB7mBbY.TS4o- has been uploaded


==== Log checksum 1A3CE557CA0F853EBB9B9BC1BF0A8E9207DCBA6E4D0162F25A941A795EA765E8 ====

foobar2000 1.2 / Dynamic Range Meter 1.1.1
log date: 2014-09-14 12:13:26

––––––––––––––––––––––––––––––––––––––––
Analyzed: Reverend Gary Davis / Live at Gerde's Folk City February, 1962 CD 3
––––––––––––––––––––––––––––––––––––––––

DR Peak RMS Duration Track
––––––––––––––––––––––––––––––––––––––––
DR8 0.00 dB -10.70 dB 2:51 01-God's Gonna Separate
DR8 0.00 dB -11.39 dB 3:44 02-Lord Search My Heart
DR9 0.00 dB -11.67 dB 5:37 03-Jesus Met The Woman At The Well
DR8 0.00 dB -10.67 dB 6:07 04-Say No To The Devil
DR9 -0.01 dB -11.90 dB 6:10 05-I Am A Pilgrim
DR9 -1.00 dB -12.37 dB 5:40 06-All Night Long
DR9 0.00 dB -10.82 dB 4:17 07-Trying To Get To Heaven
DR9 0.00 dB -10.30 dB 3:08 08-Thank You Jesus
DR9 0.00 dB -10.52 dB 3:03 09-Twelve Sticks
DR17 0.00 dB -20.96 dB 2:43 10-Intro To Tesse
DR8 0.00 dB -12.17 dB 3:02 11-Tesse
DR7 0.00 dB -9.91 dB 6:23 12-Lord They Tell Me
DR10 0.00 dB -15.00 dB 8:51 13-Right Or Wrong
––––––––––––––––––––––––––––––––––––––––

Number of tracks: 13
Official DR value: DR9

Samplerate: 44100 Hz
Channels: 2
Bits per sample: 16
Bitrate: 837 kbps
Codec: FLAC
================================================================================

Rev. Gary Davis - Rev. Gary Davis Live at Gerde's Folk City February, 1962 (2009) 3CD Set [Re-Up]

Rev. Gary Davis - Rev. Gary Davis Live at Gerde's Folk City February, 1962 (2009) 3CD Set [Re-Up]

All thanks to original releaser - zhconst

More interesting music in My Blog