Subcategories
Tags
Language
Tags

Riccardo Chailly, Orchestra e Coro del Teatro Comunale di Bologna, Cecilia Bartoli - Rossini: La Cenerentola (1993)

Posted By: ArlegZ
Riccardo Chailly, Orchestra e Coro del Teatro Comunale di Bologna, Cecilia Bartoli - Rossini: La Cenerentola (1993)

Riccardo Chailly, Orchestra e Coro del Teatro Comunale di Bologna, Cecilia Bartoli - Rossini: La Cenerentola (1993)
EAC | FLAC | Image (Cue & Log) ~ 668 Mb | Total time: 72:54+75:15 | Scans included
Classical | Label: DECCA | # 436 902-2 | Recorded: 1992

It is probably now or never. With classic older sets vying with a clutch of more recent recordings, there is currently as complete and interesting an array of recordings of Rossini's La Cenerentola as we are likely to get at any one time. Among recent versions, Chailly's new Decca set is self-evidently a powerful contender. Cecilia Bartoli is arguably the most personable and musically accomplished Cenerentola since Teresa Berganza recorded the role with Abbado in 1971; and there is a strong cast of supporting principals, among them Alessandro Corbelli who offers the best characterized Dandini since Bruscantini. (With the added advantage of being far more technically expert in fioriture passages than was his distinguished predecessor.)
…All eyes and ears, inevitably, are on Bartoli, and she doesn't disappoint. In the past, I have been tempted to think it hardly matters if the Cenerentola is foxed by the technical intricacies of the Rondo finale, as Simionato is for de Fabritiis and as Marina de Gabarain is on the Glyndebourne set. For most of the opera, Cenerentola colours the score, adding her own sad tinta to it. When she does finally come into her own, in the last scene, the play is effectively over. We may still be in our seats, but mentally we are heading for the cloakroom. That said, even more than Berganza, Bartoli makes something of this final scene. The singing itself is ravishing. At the same time, the performance makes dramatic sense, Cenerentola's dream state giving way in the final verse to a mood that is liberated, carefree, spiritually buoyant.
– Gramophone

Performer:
Cenerentola - Cecilia Bartoli
Don Ramiro - William Matteuzzi
Dandini - Alessandro Corbelli
Don Magnifico - Enzo Dara
Clorinda - Fernanda Costa
Tisbe - Gloria Banditelli
Alidoro - Michele Pertusi
Orchestra e Coro del Teatro Comunale di Bologna
Conductor - Riccardo Chailly

Track List:
CD1:
01. Sinfonia
02. Atto I. Introduzione: 'No, no, no: non v'è' (Clorinda, Tisbe)
03. 'Una volta c'era un re' (Cenerentola, Clorinda, Tisbe, Alidoro)
04. 'Un tantin di carità' (Alidoro, Clorinda, Tisbe, Cenerentola)
05. 'O figlie amabili' (Coro, Clorinda, Tisbe, Cenerentola, Alidoro)
06. Recitativo 'Date lor mezzo scudo' (Clorinda, Cenerentola, Alidoro, Tisbe)
07. Cavatina 'Miei rampolli femminini' (Don Magnifico)
08. Recitativo 'Sappiate che fra poco' (Clorinda, Tisbe, Don Magnifico)
09. Scena 'Tutto è deserto' (Ramiro)
10. Duetto 'Una volta c'era…Un soave non so che' (Cenerentola, Ramiro, Clorinda, Tisbe)
11. Recitativo 'Non so che dir' (Ramiro, Don Magnifico)
12. Coro 'Scegli la sposa…'; Cavatina 'Come un'ape' (Coro, Dandini, Clorinda, Tisbe, Don Magnifico, Ramiro)
13. Recitativo 'Allegrissimamente!' (Dandini, Clorinda, Don Magnifico, Ramiro, Cenerentola, Tisbe)
14. Quintetto 'Signore, una parola' (Cenerentola, Don Magnifico, Dandini, Ramiro, Alidoro)
15. Scena 'Si, tutto cangerà' (Alidoro, Cenerentola)
16. Aria 'Là del ciel nell'arcano profondo' (Alidoro)
17. Recitativo 'Ma bravo, bravo, bravo' (Dandini, Don Magnifico, Ramiro)
18. Recitativo 'Ora sono da voi' (Dandini, Clorinda, Tisbe)
19. Coro 'Conciossiacosacché' (Coro, Don Magnifico)
20. Aria 'Noi, Don Magnifico' (Don Magnifico)
CD2:
01. Finale I: Duetto 'Zitto, zitto, piano, piano' (Ramiro, Dandini)
02. 'Principino, dove siete?' (Clorinda, Tisbe, Dandini, Ramiro)
03. 'Venga, inoltri, avanzi il pie' (Ramiro, Dandini, Alidoro, Clorinda, Tisbe)
04. 'Ah! se velata ancor' (Coro); 'Spezzo quei don' (Cenerentola, Ramiro, Dandini, Clorinda, Tisbe, Alidoro)
05. 'Signor…Altezza, è in tavola' (Don Magnifico, Clorinda, Tisbe, Cenerentola, Ramiro, Dandini)
06. Atto II. Recitativo 'Mi par che quei birbanti' (Don Magnigico, Tisbe, Clorinda)
07. Aria 'Sia qualunque delle figlie' (Don Magnifico); Recitativo 'Die sogni ancor' (Tisbe, Clorinda)
08. Recitativo 'Ah! questa bella incognita' (Ramiro, Dandini, Cenerentola, Alidoro)
09. Aria 'Sì, ritrovarla io giuro' (Ramiro, Coro); Recitativo 'La notte è ormai vicina' (Alidoro)
10. Recitativo 'Ma dunque io son un ex' (Dandini, Don Magnifico)
11. Duetto 'Un segreto d'importanza' (Dandini, Don Magnifico); Recitativo 'Mi seconda il destino' (Alidoro)
12. Canzone 'Una volta c'era un re' (Cenerentola); Recitativo "Quanto sei caro" (Cenerentola)
13. Recitativo 'Ma ve l'avevo detto' (Clorinda, Don Magnifico, Cenerentola, Tisbe)
14. Temporale
15. Recitativo 'Scusate, amici' (Dandini, Don Magnifico, Ramiro, Clorinda, Cenerentola)
16. Sestetto 'Siete voi?' (Ramiro, Cenerentola, Tisbe, Clorinda, Dandini, Don Magnifico)
17. Sestetto (cont.) 'Ah, signor, s'è ver che in petto' (Cenerentola, Dandini, Ramiro, Clorinda, Tisbe, Don Magnifico)
18. Recitativo 'Dunque noi siam burlate?' (Tisbe, Clorinda, Alidoro)
19. Finale II: Coro 'Della Fortuna instabile'; Scena 'Sposa?'; Rondo 'Nacqui all' affanno' (Cenerentola e tutti)
20. Rondo (cont.) 'Non più mesta' (Cenerentola e tutti)


Exact Audio Copy V1.6 from 23. October 2020

EAC extraction logfile from 16. June 2021, 19:41

Riccardo Chailly, Orchestra del Teatro Comunale di Bologna / Rossini - La Cenerentola CD1

Used drive : PIONEER DVD-RW DVR-218L Adapter: 1 ID: 0

Read mode : Secure
Utilize accurate stream : Yes
Defeat audio cache : Yes
Make use of C2 pointers : No

Read offset correction : 6
Overread into Lead-In and Lead-Out : No
Fill up missing offset samples with silence : Yes
Delete leading and trailing silent blocks : No
Null samples used in CRC calculations : Yes
Used interface : Native Win32 interface for Win NT & 2000

Used output format : User Defined Encoder
Selected bitrate : 128 kBit/s
Quality : High
Add ID3 tag : No
Command line compressor : C:\Program Files\Exact Audio Copy\Flac\flac.exe
Additional command line options : -V -8 -T "Date=%year%" -T "Genre=%genre%" %source%


TOC of the extracted CD

Track | Start | Length | Start sector | End sector
––––––––––––––––––––––––––––-
1 | 0:00.32 | 7:40.33 | 32 | 34564
2 | 7:40.65 | 1:38.67 | 34565 | 41981
3 | 9:19.57 | 2:52.08 | 41982 | 54889
4 | 12:11.65 | 1:45.17 | 54890 | 62781
5 | 13:57.07 | 3:46.58 | 62782 | 79789
6 | 17:43.65 | 1:10.45 | 79790 | 85084
7 | 18:54.35 | 4:54.50 | 85085 | 107184
8 | 23:49.10 | 1:27.17 | 107185 | 113726
9 | 25:16.27 | 2:39.70 | 113727 | 125721
10 | 27:56.22 | 7:15.25 | 125722 | 158371
11 | 35:11.47 | 1:20.35 | 158372 | 164406
12 | 36:32.07 | 6:47.05 | 164407 | 194936
13 | 43:19.12 | 2:08.33 | 194937 | 204569
14 | 45:27.45 | 10:46.20 | 204570 | 253039
15 | 56:13.65 | 2:30.20 | 253040 | 264309
16 | 58:44.10 | 6:13.47 | 264310 | 292331
17 | 64:57.57 | 1:50.18 | 292332 | 300599
18 | 66:48.00 | 1:22.27 | 300600 | 306776
19 | 68:10.27 | 2:15.10 | 306777 | 316911
20 | 70:25.37 | 2:29.03 | 316912 | 328089


Range status and errors

Selected range

Filename C:\ArlegZ\Rossini - La Cenerentola - Riccardo Chailly CD1.wav

Peak level 100.0 %
Extraction speed 2.1 X
Range quality 100.0 %
Test CRC 29B1544C
Copy CRC 29B1544C
Copy OK

No errors occurred


AccurateRip summary

Track 1 accurately ripped (confidence 9) [4A54F45E] (AR v2)
Track 2 accurately ripped (confidence 9) [3D07DEAA] (AR v2)
Track 3 accurately ripped (confidence 9) [154E504B] (AR v2)
Track 4 accurately ripped (confidence 9) [E7ECE2E7] (AR v2)
Track 5 accurately ripped (confidence 9) [105D973C] (AR v2)
Track 6 accurately ripped (confidence 9) [C771198D] (AR v2)
Track 7 accurately ripped (confidence 9) [C8C86A86] (AR v2)
Track 8 accurately ripped (confidence 9) [D155FB15] (AR v2)
Track 9 accurately ripped (confidence 9) [81055A27] (AR v2)
Track 10 accurately ripped (confidence 9) [0143FB23] (AR v2)
Track 11 accurately ripped (confidence 9) [77253AEF] (AR v2)
Track 12 accurately ripped (confidence 9) [EBBB676B] (AR v2)
Track 13 accurately ripped (confidence 9) [8A4D8151] (AR v2)
Track 14 accurately ripped (confidence 9) [2024ECAB] (AR v2)
Track 15 accurately ripped (confidence 9) [37622472] (AR v2)
Track 16 accurately ripped (confidence 9) [49075D06] (AR v2)
Track 17 accurately ripped (confidence 9) [FCAA10D7] (AR v2)
Track 18 accurately ripped (confidence 9) [10C42C10] (AR v2)
Track 19 accurately ripped (confidence 9) [2049A1E8] (AR v2)
Track 20 accurately ripped (confidence 8) [7D45EA33] (AR v2)

All tracks accurately ripped

End of status report

–– CUETools DB Plugin V2.1.6

[CTDB TOCID: 1zIoUMaTY49YBXxYGYDDGRrfBDI-] found
Submit result: 1zIoUMaTY49YBXxYGYDDGRrfBDI- has been confirmed, 1zIoUMaTY49YBXxYGYDDGRrfBDI- has been confirmed
Track | CTDB Status
1 | (142/160) Accurately ripped
2 | (149/160) Accurately ripped
3 | (149/160) Accurately ripped
4 | (149/160) Accurately ripped
5 | (149/160) Accurately ripped
6 | (149/160) Accurately ripped
7 | (149/160) Accurately ripped
8 | (149/160) Accurately ripped
9 | (149/160) Accurately ripped
10 | (148/160) Accurately ripped
11 | (148/160) Accurately ripped
12 | (147/160) Accurately ripped
13 | (149/160) Accurately ripped
14 | (146/160) Accurately ripped
15 | (149/160) Accurately ripped
16 | (147/160) Accurately ripped
17 | (148/160) Accurately ripped
18 | (148/160) Accurately ripped
19 | (147/160) Accurately ripped
20 | (147/160) Accurately ripped


==== Log checksum C393840AD6A3BB61DF49FE4AF18B44D2C3B6251C3317556F072E03165FB83E85 ====


Exact Audio Copy V1.6 from 23. October 2020

EAC extraction logfile from 16. June 2021, 20:54

Riccardo Chailly, Orchestra del Teatro Comunale di Bologna / Rossini - La Cenerentola CD2

Used drive : PIONEER DVD-RW DVR-218L Adapter: 1 ID: 0

Read mode : Secure
Utilize accurate stream : Yes
Defeat audio cache : Yes
Make use of C2 pointers : No

Read offset correction : 6
Overread into Lead-In and Lead-Out : No
Fill up missing offset samples with silence : Yes
Delete leading and trailing silent blocks : No
Null samples used in CRC calculations : Yes
Used interface : Native Win32 interface for Win NT & 2000

Used output format : User Defined Encoder
Selected bitrate : 128 kBit/s
Quality : High
Add ID3 tag : No
Command line compressor : C:\Program Files\Exact Audio Copy\Flac\flac.exe
Additional command line options : -V -8 -T "Date=%year%" -T "Genre=%genre%" %source%


TOC of the extracted CD

Track | Start | Length | Start sector | End sector
––––––––––––––––––––––––––––-
1 | 0:00.33 | 2:54.25 | 33 | 13107
2 | 2:54.58 | 2:05.15 | 13108 | 22497
3 | 4:59.73 | 2:27.37 | 22498 | 33559
4 | 7:27.35 | 7:35.73 | 33560 | 67757
5 | 15:03.33 | 4:44.25 | 67758 | 89082
6 | 19:47.58 | 2:50.27 | 89083 | 101859
7 | 22:38.10 | 4:43.10 | 101860 | 123094
8 | 27:21.20 | 3:18.55 | 123095 | 137999
9 | 30:40.00 | 5:54.25 | 138000 | 164574
10 | 36:34.25 | 1:41.08 | 164575 | 172157
11 | 38:15.33 | 5:24.62 | 172158 | 196519
12 | 43:40.20 | 2:22.20 | 196520 | 207189
13 | 46:02.40 | 1:07.35 | 207190 | 212249
14 | 47:10.00 | 2:17.55 | 212250 | 222579
15 | 49:27.55 | 1:11.65 | 222580 | 227969
16 | 50:39.45 | 6:32.23 | 227970 | 257392
17 | 57:11.68 | 5:22.40 | 257393 | 281582
18 | 62:34.33 | 2:11.45 | 281583 | 291452
19 | 64:46.03 | 7:20.05 | 291453 | 324457
20 | 72:06.08 | 3:09.25 | 324458 | 338657


Range status and errors

Selected range

Filename C:\ArlegZ\Rossini - La Cenerentola - Riccardo Chailly CD2.wav

Peak level 100.0 %
Extraction speed 2.1 X
Range quality 100.0 %
Test CRC 788A6D67
Copy CRC 788A6D67
Copy OK

No errors occurred


AccurateRip summary

Track 1 accurately ripped (confidence 12) [E2AD3FE9] (AR v2)
Track 2 accurately ripped (confidence 12) [21100B1A] (AR v2)
Track 3 accurately ripped (confidence 12) [E37969C1] (AR v2)
Track 4 accurately ripped (confidence 12) [4B837E2E] (AR v2)
Track 5 accurately ripped (confidence 12) [0FD0A219] (AR v2)
Track 6 accurately ripped (confidence 12) [FA478EC1] (AR v2)
Track 7 accurately ripped (confidence 12) [D0D4E75A] (AR v2)
Track 8 accurately ripped (confidence 12) [833015DA] (AR v2)
Track 9 accurately ripped (confidence 11) [8320836A] (AR v2)
Track 10 accurately ripped (confidence 12) [539ABAD7] (AR v2)
Track 11 accurately ripped (confidence 11) [05FC0BF9] (AR v2)
Track 12 accurately ripped (confidence 12) [7AD35CF5] (AR v2)
Track 13 accurately ripped (confidence 12) [09BECA0A] (AR v2)
Track 14 accurately ripped (confidence 12) [D93D4363] (AR v2)
Track 15 accurately ripped (confidence 12) [E0007CC4] (AR v2)
Track 16 accurately ripped (confidence 12) [7DB627CF] (AR v2)
Track 17 accurately ripped (confidence 11) [2A72453C] (AR v2)
Track 18 accurately ripped (confidence 12) [3AB66550] (AR v2)
Track 19 accurately ripped (confidence 11) [88383952] (AR v2)
Track 20 accurately ripped (confidence 11) [5C04F1F8] (AR v2)

All tracks accurately ripped

End of status report

–– CUETools DB Plugin V2.1.6

[CTDB TOCID: Evlk60DfthwPbPF4BiV7EqXgbmk-] found
Submit result: Evlk60DfthwPbPF4BiV7EqXgbmk- has been confirmed
Track | CTDB Status
1 | (88/90) Accurately ripped
2 | (89/90) Accurately ripped
3 | (88/90) Accurately ripped
4 | (88/90) Accurately ripped
5 | (89/90) Accurately ripped
6 | (89/90) Accurately ripped
7 | (89/90) Accurately ripped
8 | (89/90) Accurately ripped
9 | (89/90) Accurately ripped
10 | (89/90) Accurately ripped
11 | (89/90) Accurately ripped
12 | (89/90) Accurately ripped
13 | (89/90) Accurately ripped
14 | (89/90) Accurately ripped
15 | (88/90) Accurately ripped
16 | (88/90) Accurately ripped
17 | (87/90) Accurately ripped
18 | (88/90) Accurately ripped
19 | (88/90) Accurately ripped
20 | (88/90) Accurately ripped


==== Log checksum 5ED7554B2EAB851786571AD3EA782CFFC0A33F8B19DB797D89F12F52A048AAE4 ====

Riccardo Chailly, Orchestra e Coro del Teatro Comunale di Bologna, Cecilia Bartoli - Rossini: La Cenerentola (1993)