Tags
Language
Tags
February 2023
Su Mo Tu We Th Fr Sa
29 30 31 1 2 3 4
5 6 7 8 9 10 11
12 13 14 15 16 17 18
19 20 21 22 23 24 25
26 27 28 1 2 3 4

Riccardo Muti, New Philharmonia Orchestra - Verdi: Un ballo in maschera (1997)

Posted By: ArlegZ
Riccardo Muti, New Philharmonia Orchestra - Verdi: Un ballo in maschera (1997)

Riccardo Muti, New Philharmonia Orchestra - Verdi: Un ballo in maschera (1997)
EAC | FLAC | Image (Cue & Log) ~ 568 Mb | Total time: 49:28+78:05 | Scans included
Classical | Label: EMI Classics | # 5 66510 2 | Recorded: 1975

Betrayal and forgiveness are the themes of this complex opera: Amelia's betrayal of her husband, Renato (she is having an affair with Riccardo. governor of the Massachusetts Bay Colony), and the betrayal and assassination of Riccardo by a group of conspirators. The libretto is better integrated than most of Verdi's operas written before Otello and Falstaff. It was originally about an historic incident, the assassination of King Gustav III of Sweden, but Roman censors, nervous about royal assassinations, forced the absurd relocation of the opera to colonial Boston. The music is prime middle-period Verdi, less spectacular than Il Trovatore, Rigoletto or La Forza del Destino, but it is warmly, richly expressive. It requires and rewards exceptionally good voices, and it gets them in this production. Outstanding work by Muti helps make this one of the best Verdi recordings ever made.
–Joe McLellan

Performed:
Riccardo - Plácido Domingo
Amelia - Martina Arroyo
Renato - Piero Cappuccilli
Ulrica - Fiorenza Cossotto
Oscar - Reri Grist
Samuel - Gwynne Howell
Tom - Richard Van Allan
Silvano - Giorgio Giorgeti
Un giudice - Kennet Collins
Un servo di Amelia - David Barrett
Chorus of the Royal Opera House, Covent Garden
New Philharmonia Orchestra
Conductor - Riccardo Muti

Track List:
CD1:
01. Preludio
02. Atto I. Scena prima. Posa in pace, a' bei sogni ristora (Coro, Samuel, Tom)
03. S'avanza il Conte (Oscar, Riccardo)
04. La rivedra nell'estasi (Riccardo, Oscar, Coro, Samuel, Tom)
05. Il cenno mio di là con essi attendi (Riccardo, Oscar, Renato)
06. Alla vita che t'arride (Renato)
07. Il primo giudice (Oscar, Riccardo, Giudice)
08. Volta la terrea (Oscar, Riccardo, Giudice, Renato, Samuel, Tom, Coro)
09. Ogni cura si doni al diletto (Riccardo, Renato, Oscar, Samuel, Tom, Coro)
10. Scena seconda. Zitti … l'incanto non dessi turbare … Re dell'abisso, affrettati (Coro, Ulrica)
11. Arrivo il primo! … È lui! è lui! (Riccardo, Coro, Ulrica)
12. Su, fatemi largo, saper vo' il mio fato (Silvano, Ulrica, Riccardo)
13. Rallegrati omai (Ulrica, Silvano, Riccardo, Coro, Servo)
14. Che v'agita così? (Ulrica, Amelia, Riccardo)
15. Della citta all'occaso (Ulrica, Amelia, Riccardo)
16. Consentimi, o Signore (Ulrica, Amelia, Riccardo)
17. Figlia d'averno, schiudi la chiostra (Coro, Ulrica, Amelia, Riccardo)
18. Su, profetessa, monta il treppiè (Coro, Oscar, Riccardo)
19. Di' tu se fedele (Riccardo, Coro)
20. Chi voi siate, l'audace parola (Ulrica, Riccardo, Samuel, Oscar, Coro)
21. È scherzo od è follia (Riccardo, Ulrica, Samuel, Tom, Oscar, Coro)
22. Finisci il vaticinio (Riccardo, Ulrica, Coro, Samuel, Tom, Silvano, Oscar, Renato)
CD2:
01. Preludio
02. Atto II. Ecco l'orrido campo ove s'accoppia (Amelia)
03. Ma dall'arido stelo divulsa (Amelia)
04. Teco io sto (Riccardo, Amelia)
05. Non sai tu che se l'anima mia (Riccardo, Amelia)
06. Oh, qual soave brivido (Riccardo, Amelia)
07. Ahimè! s'appressa alcun (Amelia, Riccardo, Renato)
08. Amico, gelosa t'affido una cura (Riccardo, Renato)
09. Odi tu come fremono cupi (Amelia, Riccardo, Renato)
10. Seguitemi (Renato, Amelia, Coro, Samuel, Tom)
11. Ve', se di notte qui colla sposa (Renato, Amelia, Coro, Samuel, Tom)
12. Atto III. Scena prima. A tal colpa è nulla il pianto (Renato, Amelia)
13. Morrò, ma prima in grazia (Amelia)
14. Alzati! là tuo figlio (Renato)
15. Eri tu che macchiavi quell'anima … O dolcezze perdute! o memorie (Renato)
16. Siam soli. Udite (Renato, Samuel, Tom)
17. Dunque l'onta di tutti sol una (Renato, Samuel, Tom)
18. D'una grazia vi supplico (Renato, Samuel, Tom, Amelia)
19. Qual è dunque l'eletto? … Ah! del Conte la morte si vuole! (Renato, Samuel, Tom, Amelia)
20. Il messaggio entri (Renato, Oscar, Amelia, Samuel, Tom)
21. Ah! Di che fulgor, che musiche (Renato, Oscar, Amelia, Samuel, Tom)
22. Scena seconda. Forse la soglia attinse (Riccardo)
23. Ma se m'è forza perderti (Riccardo)
24. Fervono amori e danze (Coro, Samuel, Renato, Tom, Oscar)
25. Saper vorreste di che si veste (Oscar)
26. Fervono amori e danze (Coro, Renato, Oscar)
27. Ah! perché qui! fuggite (Amelia, Riccardo)
28. E tu ricevi il mio! (Renato, Riccardo, Amelia, Oscar, Coro)
29. Ella è pura: in braccio a morte (Riccardo, Amelia, Oscar, Renato, Coro, Samuel, Tom)


Exact Audio Copy V1.6 from 23. October 2020

EAC extraction logfile from 22. August 2021, 14:44

Riccardo Muti, New Philharmonia Orchestra / Verdi - Un Ballo in Maschera CD1

Used drive : PIONEER DVD-RW DVR-218L Adapter: 1 ID: 0

Read mode : Secure
Utilize accurate stream : Yes
Defeat audio cache : Yes
Make use of C2 pointers : No

Read offset correction : 6
Overread into Lead-In and Lead-Out : No
Fill up missing offset samples with silence : Yes
Delete leading and trailing silent blocks : No
Null samples used in CRC calculations : Yes
Used interface : Native Win32 interface for Win NT & 2000

Used output format : User Defined Encoder
Selected bitrate : 128 kBit/s
Quality : High
Add ID3 tag : No
Command line compressor : C:\Program Files\Exact Audio Copy\Flac\flac.exe
Additional command line options : -V -8 -T "Date=%year%" -T "Genre=%genre%" %source%


TOC of the extracted CD

Track | Start | Length | Start sector | End sector
––––––––––––––––––––––––––––-
1 | 0:00.00 | 3:58.55 | 0 | 17904
2 | 3:58.55 | 1:44.20 | 17905 | 25724
3 | 5:43.00 | 1:31.60 | 25725 | 32609
4 | 7:14.60 | 2:01.02 | 32610 | 41686
5 | 9:15.62 | 2:30.35 | 41687 | 52971
6 | 11:46.22 | 2:39.40 | 52972 | 64936
7 | 14:25.62 | 1:25.45 | 64937 | 71356
8 | 15:51.32 | 2:28.33 | 71357 | 82489
9 | 18:19.65 | 2:05.00 | 82490 | 91864
10 | 20:24.65 | 3:51.55 | 91865 | 109244
11 | 24:16.45 | 2:24.67 | 109245 | 120111
12 | 26:41.37 | 0:56.73 | 120112 | 124384
13 | 27:38.35 | 2:09.15 | 124385 | 134074
14 | 29:47.50 | 1:24.37 | 134075 | 140411
15 | 31:12.12 | 1:28.73 | 140412 | 147084
16 | 32:41.10 | 1:47.47 | 147085 | 155156
17 | 34:28.57 | 0:24.55 | 155157 | 157011
18 | 34:53.37 | 0:46.53 | 157012 | 160514
19 | 35:40.15 | 3:18.10 | 160515 | 175374
20 | 38:58.25 | 2:37.42 | 175375 | 187191
21 | 41:35.67 | 3:34.20 | 187192 | 203261
22 | 45:10.12 | 4:16.23 | 203262 | 222484


Range status and errors

Selected range

Filename C:\ArlegZ\Verdi - Un Ballo in Maschera - Riccardo Muti CD1.wav

Peak level 99.5 %
Extraction speed 1.7 X
Range quality 100.0 %
Test CRC 13C16CAD
Copy CRC 13C16CAD
Copy OK

No errors occurred


AccurateRip summary

Track 1 accurately ripped (confidence 14) [5177CECC] (AR v2)
Track 2 accurately ripped (confidence 15) [84A15487] (AR v2)
Track 3 accurately ripped (confidence 15) [FADD4E8B] (AR v2)
Track 4 accurately ripped (confidence 15) [D2C652B4] (AR v2)
Track 5 accurately ripped (confidence 15) [AEDA77EC] (AR v2)
Track 6 accurately ripped (confidence 15) [EC39241E] (AR v2)
Track 7 accurately ripped (confidence 15) [74DD6939] (AR v2)
Track 8 accurately ripped (confidence 15) [93657D36] (AR v2)
Track 9 accurately ripped (confidence 15) [BED00049] (AR v2)
Track 10 accurately ripped (confidence 15) [E2037CE8] (AR v2)
Track 11 accurately ripped (confidence 15) [AD119C00] (AR v2)
Track 12 accurately ripped (confidence 15) [8F0487A0] (AR v2)
Track 13 accurately ripped (confidence 15) [FEF8BACA] (AR v2)
Track 14 accurately ripped (confidence 15) [B3A77B95] (AR v2)
Track 15 accurately ripped (confidence 15) [CB2BCD6B] (AR v2)
Track 16 accurately ripped (confidence 15) [B582E43B] (AR v2)
Track 17 accurately ripped (confidence 15) [AD53DBE7] (AR v2)
Track 18 accurately ripped (confidence 15) [5CE504C9] (AR v2)
Track 19 accurately ripped (confidence 15) [1E9E55D4] (AR v2)
Track 20 accurately ripped (confidence 15) [72F1C86B] (AR v2)
Track 21 accurately ripped (confidence 16) [6631B92F] (AR v2)
Track 22 accurately ripped (confidence 15) [7D8A9D05] (AR v2)

All tracks accurately ripped

End of status report

–– CUETools DB Plugin V2.1.6

[CTDB TOCID: TbqvXILk4RaBEcmyKvOGdze9g4E-] found
Submit result: TbqvXILk4RaBEcmyKvOGdze9g4E- has been confirmed
Track | CTDB Status
1 | (88/88) Accurately ripped
2 | (88/88) Accurately ripped
3 | (88/88) Accurately ripped
4 | (88/88) Accurately ripped
5 | (88/88) Accurately ripped
6 | (88/88) Accurately ripped
7 | (88/88) Accurately ripped
8 | (88/88) Accurately ripped
9 | (88/88) Accurately ripped
10 | (88/88) Accurately ripped
11 | (88/88) Accurately ripped
12 | (88/88) Accurately ripped
13 | (87/88) Accurately ripped
14 | (87/88) Accurately ripped
15 | (88/88) Accurately ripped
16 | (88/88) Accurately ripped
17 | (88/88) Accurately ripped
18 | (88/88) Accurately ripped
19 | (88/88) Accurately ripped
20 | (88/88) Accurately ripped
21 | (88/88) Accurately ripped
22 | (88/88) Accurately ripped


==== Log checksum 847A4B0F997CE23B4E05C6500D43C5CD5180453528AE1F87E1DEA2D74B02CA13 ====


Exact Audio Copy V1.6 from 23. October 2020

EAC extraction logfile from 22. August 2021, 16:09

Riccardo Muti, New Philharmonia Orchestra / Verdi - Un Ballo in Maschera CD2

Used drive : PIONEER DVD-RW DVR-218L Adapter: 1 ID: 0

Read mode : Secure
Utilize accurate stream : Yes
Defeat audio cache : Yes
Make use of C2 pointers : No

Read offset correction : 6
Overread into Lead-In and Lead-Out : No
Fill up missing offset samples with silence : Yes
Delete leading and trailing silent blocks : No
Null samples used in CRC calculations : Yes
Used interface : Native Win32 interface for Win NT & 2000

Used output format : User Defined Encoder
Selected bitrate : 128 kBit/s
Quality : High
Add ID3 tag : No
Command line compressor : C:\Program Files\Exact Audio Copy\Flac\flac.exe
Additional command line options : -V -8 -T "Date=%year%" -T "Genre=%genre%" %source%


TOC of the extracted CD

Track | Start | Length | Start sector | End sector
––––––––––––––––––––––––––––-
1 | 0:00.00 | 2:26.67 | 0 | 11016
2 | 2:26.67 | 1:30.08 | 11017 | 17774
3 | 3:57.00 | 5:07.70 | 17775 | 40869
4 | 9:04.70 | 1:25.55 | 40870 | 47299
5 | 10:30.50 | 4:18.40 | 47300 | 66689
6 | 14:49.15 | 3:39.17 | 66690 | 83131
7 | 18:28.32 | 2:00.03 | 83132 | 92134
8 | 20:28.35 | 0:56.05 | 92135 | 96339
9 | 21:24.40 | 1:53.42 | 96340 | 104856
10 | 23:18.07 | 2:38.33 | 104857 | 116739
11 | 25:56.40 | 5:06.00 | 116740 | 139689
12 | 31:02.40 | 2:09.70 | 139690 | 149434
13 | 33:12.35 | 4:05.27 | 149435 | 167836
14 | 37:17.62 | 1:51.70 | 167837 | 176231
15 | 39:09.57 | 3:58.00 | 176232 | 194081
16 | 43:07.57 | 2:22.00 | 194082 | 204731
17 | 45:29.57 | 0:45.23 | 204732 | 208129
18 | 46:15.05 | 4:19.40 | 208130 | 227594
19 | 50:34.45 | 1:12.72 | 227595 | 233066
20 | 51:47.42 | 0:54.25 | 233067 | 237141
21 | 52:41.67 | 2:55.05 | 237142 | 250271
22 | 55:36.72 | 2:32.55 | 250272 | 261726
23 | 58:09.52 | 4:07.73 | 261727 | 280324
24 | 62:17.50 | 1:59.42 | 280325 | 289291
25 | 64:17.17 | 1:54.53 | 289292 | 297894
26 | 66:11.70 | 1:44.07 | 297895 | 305701
27 | 67:56.02 | 3:53.50 | 305702 | 323226
28 | 71:49.52 | 1:11.25 | 323227 | 328576
29 | 73:01.02 | 5:02.38 | 328577 | 351264


Range status and errors

Selected range

Filename C:\ArlegZ\Verdi - Un Ballo in Maschera - Riccardo Muti CD2.wav

Peak level 98.9 %
Extraction speed 2.1 X
Range quality 99.9 %
Test CRC E181FD4D
Copy CRC E181FD4D
Copy OK

No errors occurred


AccurateRip summary

Track 1 accurately ripped (confidence 14) [63747FBC] (AR v2)
Track 2 accurately ripped (confidence 15) [F2BDE2ED] (AR v2)
Track 3 accurately ripped (confidence 15) [E0E0A5D2] (AR v2)
Track 4 accurately ripped (confidence 15) [637572E2] (AR v2)
Track 5 accurately ripped (confidence 15) [1244B9BE] (AR v2)
Track 6 accurately ripped (confidence 15) [EF520030] (AR v2)
Track 7 accurately ripped (confidence 15) [08FE7202] (AR v2)
Track 8 accurately ripped (confidence 15) [3AE7AC95] (AR v2)
Track 9 accurately ripped (confidence 15) [18E72401] (AR v2)
Track 10 accurately ripped (confidence 15) [A6C7D3F2] (AR v2)
Track 11 accurately ripped (confidence 15) [B954A558] (AR v2)
Track 12 accurately ripped (confidence 15) [1F18EFCE] (AR v2)
Track 13 accurately ripped (confidence 15) [940F40B0] (AR v2)
Track 14 accurately ripped (confidence 15) [ABC7C592] (AR v2)
Track 15 accurately ripped (confidence 15) [B8D4D084] (AR v2)
Track 16 accurately ripped (confidence 15) [918B1969] (AR v2)
Track 17 accurately ripped (confidence 15) [98D755F1] (AR v2)
Track 18 accurately ripped (confidence 15) [9DCB8A54] (AR v2)
Track 19 accurately ripped (confidence 15) [99488D7B] (AR v2)
Track 20 accurately ripped (confidence 15) [6E64B708] (AR v2)
Track 21 accurately ripped (confidence 15) [FB08CAC7] (AR v2)
Track 22 accurately ripped (confidence 15) [D5F945E1] (AR v2)
Track 23 accurately ripped (confidence 15) [F688AF60] (AR v2)
Track 24 accurately ripped (confidence 15) [9627D124] (AR v2)
Track 25 accurately ripped (confidence 15) [FD943434] (AR v2)
Track 26 accurately ripped (confidence 15) [5E7B5334] (AR v2)
Track 27 accurately ripped (confidence 15) [812BA5CA] (AR v2)
Track 28 accurately ripped (confidence 15) [CB45328B] (AR v2)
Track 29 accurately ripped (confidence 15) [EE5A0FA1] (AR v2)

All tracks accurately ripped

End of status report

–– CUETools DB Plugin V2.1.6

[CTDB TOCID: pPg5Q.RfVehog5Mg2EMPdleqyOg-] found
Submit result: pPg5Q.RfVehog5Mg2EMPdleqyOg- has been confirmed
Track | CTDB Status
1 | (30/30) Accurately ripped
2 | (30/30) Accurately ripped
3 | (30/30) Accurately ripped
4 | (30/30) Accurately ripped
5 | (30/30) Accurately ripped
6 | (30/30) Accurately ripped
7 | (30/30) Accurately ripped
8 | (30/30) Accurately ripped
9 | (30/30) Accurately ripped
10 | (30/30) Accurately ripped
11 | (30/30) Accurately ripped
12 | (29/30) Accurately ripped
13 | (30/30) Accurately ripped
14 | (30/30) Accurately ripped
15 | (30/30) Accurately ripped
16 | (29/30) Accurately ripped
17 | (30/30) Accurately ripped
18 | (30/30) Accurately ripped
19 | (30/30) Accurately ripped
20 | (30/30) Accurately ripped
21 | (30/30) Accurately ripped
22 | (30/30) Accurately ripped
23 | (30/30) Accurately ripped
24 | (30/30) Accurately ripped
25 | (30/30) Accurately ripped
26 | (30/30) Accurately ripped
27 | (30/30) Accurately ripped
28 | (29/30) Accurately ripped
29 | (30/30) Accurately ripped


==== Log checksum 17E30C9F854F612CA141FD40F20496BDCE7DC290632EE9DA6EA2435ABC74CFBE ====

Riccardo Muti, New Philharmonia Orchestra - Verdi: Un ballo in maschera (1997)