Tags
Language
Tags

Riccardo Muti, Orchestra del Teatro alla Scala di Milano - Rossini: Guglielmo Tell (2010)

Posted By: ArlegZ
Riccardo Muti, Orchestra del Teatro alla Scala di Milano - Rossini: Guglielmo Tell (2010)

Riccardo Muti, Orchestra del Teatro alla Scala di Milano - Rossini: Guglielmo Tell (2010)
EAC | FLAC | Image (Cue & Log) ~ 921 Mb | Total time: 03:47:02 | Scans included
Classical | Label: Decca | 480 4697 | Recorded: 1988

In many ways this is a magnificent achievement… Muti conducts with real assurance. Pacing the drama magnificently, it is on performances like these that the controversial Maestro has made his well-deserved musical reputation. Tell emerges as a masterpiece from first to last. Rossini's compositional confidence in his craft is never once in doubt, and there is no trace of any longueur anywhere.
This is clearly an opera for which Muti has unbounded affection. This comes out clearly in the Overture, with its 'vocal' solo cello and its inclusion of oases of peace alongside real excitement… Chris Merritt is a strong Arnoldo, ardent in his love for Mathilde, thirsty for revenge in Act 3… Mathilde is Cheryl Studer, who comes into her own in Act 2. Her scene is magnificent in its lyricism and her sensitive shading of the line… In Act 3 Studer is if anything even more impressive - her vocal manoeuvrability is astonishing.
–Colin Clarke

Performer:
Guglielmo Tell - Giorgio Zancanaro
Arnoldo - Chris Merritt
Gualtiero - Giorgio Surjan
Melchthal – Franco De Grandis
Jemmy – Amelia Felle
Edwige – Ludicana D’Intino
Ruodi – Vittorio Terranova
Leutolda – Alberto Noli
Gessler – Luigi Roni
Matilde – Cheryl Studer
Rodolfo – Ernesto Gavazzi
Orchestra and Chorus of Teatro alla Scala
Conductor – Riccardo Muti

Track List:
CD1:
01. Overture
02. Atto I. E il ciel seren, sereno il giorno
03. Il piccol legno ascendi
04. Oh! quale alta d'intorno - Pastori intorno ergete il canto!
05. Al fremer del torrente
06. Contro l'ardor del giorno
07. Il mio giuro egli disse
08. Arresta! Qual dolor
09. Sul nostro capo il sole brilla
10. Ciel che del mondo
11. Ah! Vien Gessler!
12. Cinto il crine di bei fiori
13. Passo a sei
14. Gloria e onore al giovinetto
15. Egro e tremante
16. Nume pietoso
17. Che sento, ohimè!
18. Ciò ch'ei fece
CD2:
01. Atto II. Qual silvestre metro intorno
02. S'allontanano alfine!
03. Selva opaca, deserta brughiera
04. Se il mio giunger t'oltraggia
05. Tutto apprendi, o sventurato
06. Alcun vien…Separiamci
07. Allor che scorre de'forti il sangue
08. Confuso da quel bosco - Con ardor richiese il cor
09. Domo, o ciel, da un stranier
10. De'prodi ascolta, è già compiuto il patto
11. La valanga che volve
12. Giuriam, giuriam pei nostri danni
CD3:
01. Atto III. Oh ciel! Sì torbido e perché?
02. Pel nostro amore non v'ha più speme
03. Gloria al poter supremo!
04. La tua danza sì leggera
05. Passo di soldati
06. Audace olà! T'inchina!
07. Quell'orgoglio insano
08. Corri alla madre
09. Resta immobile
10. Vittoria
11. E fia ver?…
12. L'ira sol - E il suo destin segnato
13. Anatema a Gessler!
CD4:
01. Atto IV. Ah.. non mi lasciar, o speme di vendetta
02. O muto asil del pianto
03. Vendetta!
04. Resta omai; ah! ti perde il duolo
05. Sottratto a orribil nembo
06. E per patir i nostri mali estremi
07. Tu che l'appoggio del debol sei
08. Io lo vidi
09. Io ti rivedo!
10. Tutto cangia, il ciel s'abbella


Exact Audio Copy V1.3 from 2. September 2016

EAC extraction logfile from 9. January 2020, 14:28

Riccardo Muti / Rossini - Guglielmo Tell CD1

Used drive : MATSHITADVD-RAM UJ8E1 Adapter: 1 ID: 0

Read mode : Secure
Utilize accurate stream : Yes
Defeat audio cache : Yes
Make use of C2 pointers : No

Read offset correction : 6
Overread into Lead-In and Lead-Out : No
Fill up missing offset samples with silence : Yes
Delete leading and trailing silent blocks : No
Null samples used in CRC calculations : Yes
Used interface : Native Win32 interface for Win NT & 2000

Used output format : User Defined Encoder
Selected bitrate : 1024 kBit/s
Quality : High
Add ID3 tag : No
Command line compressor : C:\Program Files (x86)\Exact Audio Copy\FLAC\FLAC.EXE
Additional command line options : -6 -V -T "ARTIST=%artist%" -T "TITLE=%title%" -T "ALBUM=%albumtitle%" -T "DATE=%year%" -T "TRACKNUMBER=%tracknr%" -T "GENRE=%genre%" -T "COMMENT=%comment%" -T "BAND=%albuminterpret%" -T "ALBUMARTIST=%albuminterpret%" -T "COMPOSER=%composer%" %haslyrics%–tag-from-file=LYRICS="%lyricsfile%"%haslyrics% -T "DISCNUMBER=%cdnumber%" -T "TOTALDISCS=%totalcds%" -T "TOTALTRACKS=%numtracks%" %hascover%–picture="%coverfile%"%hascover% %source% -o %dest%


TOC of the extracted CD

Track | Start | Length | Start sector | End sector
––––––––––––––––––––––––––––-
1 | 0:00.00 | 11:28.30 | 0 | 51629
2 | 11:28.30 | 3:41.20 | 51630 | 68224
3 | 15:09.50 | 4:48.25 | 68225 | 89849
4 | 19:58.00 | 6:29.00 | 89850 | 119024
5 | 26:27.00 | 2:32.55 | 119025 | 130479
6 | 28:59.55 | 0:58.55 | 130480 | 134884
7 | 29:58.35 | 2:59.53 | 134885 | 148362
8 | 32:58.13 | 9:00.02 | 148363 | 188864
9 | 41:58.15 | 2:00.60 | 188865 | 197924
10 | 43:59.00 | 2:09.25 | 197925 | 207624
11 | 46:08.25 | 2:03.38 | 207625 | 216887
12 | 48:11.63 | 3:57.25 | 216888 | 234687
13 | 52:09.13 | 5:33.12 | 234688 | 259674
14 | 57:42.25 | 3:49.50 | 259675 | 276899
15 | 61:32.00 | 3:17.50 | 276900 | 291724
16 | 64:49.50 | 2:53.33 | 291725 | 304732
17 | 67:43.08 | 2:45.17 | 304733 | 317124
18 | 70:28.25 | 4:13.50 | 317125 | 336149


Range status and errors

Selected range

Filename C:\Users\Usuario\Desktop\Riccardo Muti - Rossini - Guglielmo Tell CD1.wav

Peak level 99.7 %
Extraction speed 4.9 X
Range quality 99.9 %
Test CRC 3CFA6B1B
Copy CRC 3CFA6B1B
Copy OK

No errors occurred


AccurateRip summary

Track 1 cannot be verified as accurate (confidence 2) [362A0832], AccurateRip returned [C61CEBE1] (AR v2)
Track 2 cannot be verified as accurate (confidence 2) [477E3168], AccurateRip returned [07F11399] (AR v2)
Track 3 cannot be verified as accurate (confidence 2) [39364D21], AccurateRip returned [F98FE76B] (AR v2)
Track 4 cannot be verified as accurate (confidence 2) [22CCA476], AccurateRip returned [B2BE7DCC] (AR v2)
Track 5 cannot be verified as accurate (confidence 2) [7C04D066], AccurateRip returned [26B637A1] (AR v2)
Track 6 cannot be verified as accurate (confidence 2) [1C556D90], AccurateRip returned [B6DED26C] (AR v2)
Track 7 cannot be verified as accurate (confidence 2) [C5E20B46], AccurateRip returned [2EE437DB] (AR v2)
Track 8 cannot be verified as accurate (confidence 2) [D7955CBE], AccurateRip returned [320D67A1] (AR v2)
Track 9 cannot be verified as accurate (confidence 2) [14FF305A], AccurateRip returned [061C89EF] (AR v2)
Track 10 cannot be verified as accurate (confidence 2) [FE8E2815], AccurateRip returned [1C3203AD] (AR v2)
Track 11 cannot be verified as accurate (confidence 2) [B321FE32], AccurateRip returned [C7CE4EB6] (AR v2)
Track 12 cannot be verified as accurate (confidence 2) [425490D4], AccurateRip returned [D67457BE] (AR v2)
Track 13 cannot be verified as accurate (confidence 2) [4594A591], AccurateRip returned [E185CC2B] (AR v2)
Track 14 cannot be verified as accurate (confidence 2) [E288D4D7], AccurateRip returned [610E80B3] (AR v2)
Track 15 cannot be verified as accurate (confidence 2) [B8C12EB2], AccurateRip returned [ABD201C7] (AR v2)
Track 16 cannot be verified as accurate (confidence 2) [6A9EEDDF], AccurateRip returned [6F910A7D] (AR v2)
Track 17 cannot be verified as accurate (confidence 2) [0149ED4E], AccurateRip returned [D7B1CD36] (AR v2)
Track 18 cannot be verified as accurate (confidence 2) [11EC6C18], AccurateRip returned [1356A465] (AR v2)

No tracks could be verified as accurate
You may have a different pressing from the one(s) in the database

End of status report

–– CUETools DB Plugin V2.1.6

[CTDB TOCID: Y2xpSRV7LHFvOO.xP7d5h1Bvrhk-] found
Submit result: already submitted
Track | CTDB Status
1 | (11/11) Accurately ripped
2 | (11/11) Accurately ripped
3 | (11/11) Accurately ripped
4 | (11/11) Accurately ripped
5 | (11/11) Accurately ripped
6 | (11/11) Accurately ripped
7 | (11/11) Accurately ripped
8 | (11/11) Accurately ripped
9 | (11/11) Accurately ripped
10 | (11/11) Accurately ripped
11 | (11/11) Accurately ripped
12 | (11/11) Accurately ripped
13 | (11/11) Accurately ripped
14 | (11/11) Accurately ripped
15 | (11/11) Accurately ripped
16 | (11/11) Accurately ripped
17 | (11/11) Accurately ripped
18 | (11/11) Accurately ripped


==== Log checksum 55CAE52C67CAE77C7850A60421B508C225B606606052F6BEDF7CDB5A1BF81F26 ====


Exact Audio Copy V1.3 from 2. September 2016

EAC extraction logfile from 9. January 2020, 15:27

Riccardo Muti / Rossini - Gugliemo Tell CD 2

Used drive : MATSHITADVD-RAM UJ8E1 Adapter: 1 ID: 0

Read mode : Secure
Utilize accurate stream : Yes
Defeat audio cache : Yes
Make use of C2 pointers : No

Read offset correction : 6
Overread into Lead-In and Lead-Out : No
Fill up missing offset samples with silence : Yes
Delete leading and trailing silent blocks : No
Null samples used in CRC calculations : Yes
Used interface : Native Win32 interface for Win NT & 2000

Used output format : User Defined Encoder
Selected bitrate : 1024 kBit/s
Quality : High
Add ID3 tag : No
Command line compressor : C:\Program Files (x86)\Exact Audio Copy\FLAC\FLAC.EXE
Additional command line options : -6 -V -T "ARTIST=%artist%" -T "TITLE=%title%" -T "ALBUM=%albumtitle%" -T "DATE=%year%" -T "TRACKNUMBER=%tracknr%" -T "GENRE=%genre%" -T "COMMENT=%comment%" -T "BAND=%albuminterpret%" -T "ALBUMARTIST=%albuminterpret%" -T "COMPOSER=%composer%" %haslyrics%–tag-from-file=LYRICS="%lyricsfile%"%haslyrics% -T "DISCNUMBER=%cdnumber%" -T "TOTALDISCS=%totalcds%" -T "TOTALTRACKS=%numtracks%" %hascover%–picture="%coverfile%"%hascover% %source% -o %dest%


TOC of the extracted CD

Track | Start | Length | Start sector | End sector
––––––––––––––––––––––––––––-
1 | 0:00.33 | 5:00.00 | 33 | 22532
2 | 5:00.33 | 3:32.00 | 22533 | 38432
3 | 8:32.33 | 5:21.00 | 38433 | 62507
4 | 13:53.33 | 2:33.40 | 62508 | 74022
5 | 16:26.73 | 9:36.35 | 74023 | 117257
6 | 26:03.33 | 3:21.62 | 117258 | 132394
7 | 29:25.20 | 10:54.38 | 132395 | 181482
8 | 40:19.58 | 4:10.25 | 181483 | 200257
9 | 44:30.08 | 4:06.55 | 200258 | 218762
10 | 48:36.63 | 2:44.70 | 218763 | 231132
11 | 51:21.58 | 2:29.37 | 231133 | 242344
12 | 53:51.20 | 3:45.13 | 242345 | 259232


Range status and errors

Selected range

Filename C:\Users\Usuario\Desktop\Riccardo Muti - Rossini - Gugliemo Tell CD 2.wav

Peak level 98.6 %
Extraction speed 2.0 X
Range quality 99.9 %
Test CRC 25588AD5
Copy CRC 25588AD5
Copy OK

No errors occurred


AccurateRip summary

Track 1 cannot be verified as accurate (confidence 8) [2282961E], AccurateRip returned [808249D8] (AR v2)
Track 2 cannot be verified as accurate (confidence 8) [F30435B4], AccurateRip returned [0D3E596D] (AR v2)
Track 3 cannot be verified as accurate (confidence 7) [0385FBDE], AccurateRip returned [6E12A2FB] (AR v2)
Track 4 cannot be verified as accurate (confidence 7) [49516DEA], AccurateRip returned [F600230A] (AR v2)
Track 5 cannot be verified as accurate (confidence 7) [AA918592], AccurateRip returned [7E6735D7] (AR v2)
Track 6 cannot be verified as accurate (confidence 7) [619B06C5], AccurateRip returned [9BC0D309] (AR v2)
Track 7 cannot be verified as accurate (confidence 7) [792367D2], AccurateRip returned [E34FD611] (AR v2)
Track 8 cannot be verified as accurate (confidence 7) [3AD76EEC], AccurateRip returned [B45A55F8] (AR v2)
Track 9 cannot be verified as accurate (confidence 7) [96500561], AccurateRip returned [DB1C833B] (AR v2)
Track 10 cannot be verified as accurate (confidence 7) [B11BA678], AccurateRip returned [A2EA901D] (AR v2)
Track 11 cannot be verified as accurate (confidence 7) [A3A0947C], AccurateRip returned [9DD61166] (AR v2)
Track 12 cannot be verified as accurate (confidence 6) [CBF5DC9E], AccurateRip returned [3299C380] (AR v2)

No tracks could be verified as accurate
You may have a different pressing from the one(s) in the database

End of status report

–– CUETools DB Plugin V2.1.6

[CTDB TOCID: YxrtFacJ4VfqkrWSHLdrC6B0ZvA-] found
Submit result: YxrtFacJ4VfqkrWSHLdrC6B0ZvA- has been confirmed
Track | CTDB Status
1 | (26/26) Accurately ripped
2 | (25/26) Accurately ripped
3 | (25/26) Accurately ripped
4 | (25/26) Accurately ripped
5 | (25/26) Accurately ripped
6 | (25/26) Accurately ripped
7 | (25/26) Accurately ripped
8 | (25/26) Accurately ripped
9 | (25/26) Accurately ripped
10 | (25/26) Accurately ripped
11 | (25/26) Accurately ripped
12 | (25/26) Accurately ripped


==== Log checksum 900D0BE7C9DCF95F0B502BF7A9F57DC8D69EA8054AC42F61ED8B5C51773A1B0F ====


Exact Audio Copy V1.3 from 2. September 2016

EAC extraction logfile from 9. January 2020, 16:27

Riccardo Muti / Rossini - Guglielmo Tell CD 3

Used drive : MATSHITADVD-RAM UJ8E1 Adapter: 1 ID: 0

Read mode : Secure
Utilize accurate stream : Yes
Defeat audio cache : Yes
Make use of C2 pointers : No

Read offset correction : 6
Overread into Lead-In and Lead-Out : No
Fill up missing offset samples with silence : Yes
Delete leading and trailing silent blocks : No
Null samples used in CRC calculations : Yes
Used interface : Native Win32 interface for Win NT & 2000

Used output format : User Defined Encoder
Selected bitrate : 1024 kBit/s
Quality : High
Add ID3 tag : No
Command line compressor : C:\Program Files (x86)\Exact Audio Copy\FLAC\FLAC.EXE
Additional command line options : -6 -V -T "ARTIST=%artist%" -T "TITLE=%title%" -T "ALBUM=%albumtitle%" -T "DATE=%year%" -T "TRACKNUMBER=%tracknr%" -T "GENRE=%genre%" -T "COMMENT=%comment%" -T "BAND=%albuminterpret%" -T "ALBUMARTIST=%albuminterpret%" -T "COMPOSER=%composer%" %haslyrics%–tag-from-file=LYRICS="%lyricsfile%"%haslyrics% -T "DISCNUMBER=%cdnumber%" -T "TOTALDISCS=%totalcds%" -T "TOTALTRACKS=%numtracks%" %hascover%–picture="%coverfile%"%hascover% %source% -o %dest%


TOC of the extracted CD

Track | Start | Length | Start sector | End sector
––––––––––––––––––––––––––––-
1 | 0:00.33 | 2:25.22 | 33 | 10929
2 | 2:25.55 | 7:54.15 | 10930 | 46494
3 | 10:19.70 | 7:21.38 | 46495 | 79607
4 | 17:41.33 | 10:19.50 | 79608 | 126082
5 | 28:01.08 | 5:26.50 | 126083 | 150582
6 | 33:27.58 | 1:22.25 | 150583 | 156757
7 | 34:50.08 | 2:43.25 | 156758 | 169007
8 | 37:33.33 | 6:22.00 | 169008 | 197657
9 | 43:55.33 | 3:23.00 | 197658 | 212882
10 | 47:18.33 | 2:04.60 | 212883 | 222242
11 | 49:23.18 | 4:37.35 | 222243 | 243052
12 | 54:00.53 | 2:34.05 | 243053 | 254607
13 | 56:34.58 | 2:25.12 | 254608 | 265494


Range status and errors

Selected range

Filename C:\Users\Usuario\Desktop\Riccardo Muti - Rossini - Guglielmo Tell CD 3.wav

Peak level 99.5 %
Extraction speed 2.1 X
Range quality 100.0 %
Test CRC 8539ADF2
Copy CRC 8539ADF2
Copy OK

No errors occurred


AccurateRip summary

Track 1 cannot be verified as accurate (confidence 7) [342B7746], AccurateRip returned [886D9283] (AR v2)
Track 2 cannot be verified as accurate (confidence 7) [D6AEFB20], AccurateRip returned [6A03597E] (AR v2)
Track 3 cannot be verified as accurate (confidence 7) [12ED603A], AccurateRip returned [F8570235] (AR v2)
Track 4 cannot be verified as accurate (confidence 7) [B1E4A6A8], AccurateRip returned [7FE778D5] (AR v2)
Track 5 cannot be verified as accurate (confidence 7) [52A6D2E9], AccurateRip returned [DAFA2582] (AR v2)
Track 6 cannot be verified as accurate (confidence 7) [8CCAE876], AccurateRip returned [B3B6BFDA] (AR v2)
Track 7 cannot be verified as accurate (confidence 7) [9325C575], AccurateRip returned [FE30FD1C] (AR v2)
Track 8 cannot be verified as accurate (confidence 6) [BC3BFC93], AccurateRip returned [0CB564D0] (AR v2)
Track 9 cannot be verified as accurate (confidence 6) [2DC82D44], AccurateRip returned [14EED374] (AR v2)
Track 10 cannot be verified as accurate (confidence 6) [03CD1141], AccurateRip returned [807F6F42] (AR v2)
Track 11 cannot be verified as accurate (confidence 6) [259B3667], AccurateRip returned [286A3A91] (AR v2)
Track 12 cannot be verified as accurate (confidence 6) [4D30208F], AccurateRip returned [8BCBEB6D] (AR v2)
Track 13 cannot be verified as accurate (confidence 6) [208510BF], AccurateRip returned [753A8AE5] (AR v2)

No tracks could be verified as accurate
You may have a different pressing from the one(s) in the database

End of status report

–– CUETools DB Plugin V2.1.6

[CTDB TOCID: HQA5snIr1VyMYVr8JgG9coM.CCM-] found
Submit result: HQA5snIr1VyMYVr8JgG9coM.CCM- has been confirmed
Track | CTDB Status
1 | (24/24) Accurately ripped
2 | (23/24) Accurately ripped
3 | (23/24) Accurately ripped
4 | (23/24) Accurately ripped
5 | (23/24) Accurately ripped
6 | (23/24) Accurately ripped
7 | (23/24) Accurately ripped
8 | (23/24) Accurately ripped
9 | (23/24) Accurately ripped
10 | (23/24) Accurately ripped
11 | (23/24) Accurately ripped
12 | (23/24) Accurately ripped
13 | (23/24) Accurately ripped


==== Log checksum 1FB92EDA2B71DE4BCB311BE5012C071D0DA53E42ABD8FA2432A7918D062CFF00 ====


Exact Audio Copy V1.3 from 2. September 2016

EAC extraction logfile from 9. January 2020, 17:09

Riccardo Muti / Rossini - Guglielmo Tell CD 4

Used drive : MATSHITADVD-RAM UJ8E1 Adapter: 1 ID: 0

Read mode : Secure
Utilize accurate stream : Yes
Defeat audio cache : Yes
Make use of C2 pointers : No

Read offset correction : 6
Overread into Lead-In and Lead-Out : No
Fill up missing offset samples with silence : Yes
Delete leading and trailing silent blocks : No
Null samples used in CRC calculations : Yes
Used interface : Native Win32 interface for Win NT & 2000

Used output format : User Defined Encoder
Selected bitrate : 1024 kBit/s
Quality : High
Add ID3 tag : No
Command line compressor : C:\Program Files (x86)\Exact Audio Copy\FLAC\FLAC.EXE
Additional command line options : -6 -V -T "ARTIST=%artist%" -T "TITLE=%title%" -T "ALBUM=%albumtitle%" -T "DATE=%year%" -T "TRACKNUMBER=%tracknr%" -T "GENRE=%genre%" -T "COMMENT=%comment%" -T "BAND=%albuminterpret%" -T "ALBUMARTIST=%albuminterpret%" -T "COMPOSER=%composer%" %haslyrics%–tag-from-file=LYRICS="%lyricsfile%"%haslyrics% -T "DISCNUMBER=%cdnumber%" -T "TOTALDISCS=%totalcds%" -T "TOTALTRACKS=%numtracks%" %hascover%–picture="%coverfile%"%hascover% %source% -o %dest%


TOC of the extracted CD

Track | Start | Length | Start sector | End sector
––––––––––––––––––––––––––––-
1 | 0:00.33 | 3:44.50 | 33 | 16882
2 | 3:45.08 | 3:58.50 | 16883 | 34782
3 | 7:43.58 | 5:29.25 | 34783 | 59482
4 | 13:13.08 | 2:16.25 | 59483 | 69707
5 | 15:29.33 | 5:04.60 | 69708 | 92567
6 | 20:34.18 | 2:07.65 | 92568 | 102157
7 | 22:42.08 | 3:14.37 | 102158 | 116744
8 | 25:56.45 | 2:39.73 | 116745 | 128742
9 | 28:36.43 | 3:21.32 | 128743 | 143849
10 | 31:58.00 | 3:52.08 | 143850 | 161257


Range status and errors

Selected range

Filename C:\Users\Usuario\Desktop\Riccardo Muti - Rossini - Guglielmo Tell CD 4.wav

Peak level 97.4 %
Extraction speed 1.8 X
Range quality 100.0 %
Test CRC 6FC5A1EB
Copy CRC 6FC5A1EB
Copy OK

No errors occurred


AccurateRip summary

Track 1 cannot be verified as accurate (confidence 7) [7BE1FA42], AccurateRip returned [20B67F28] (AR v2)
Track 2 cannot be verified as accurate (confidence 7) [FD41B83E], AccurateRip returned [C4E5BFC0] (AR v2)
Track 3 cannot be verified as accurate (confidence 7) [603412CA], AccurateRip returned [CFF66B0F] (AR v2)
Track 4 cannot be verified as accurate (confidence 7) [9B19A858], AccurateRip returned [924BA4C6] (AR v2)
Track 5 cannot be verified as accurate (confidence 7) [0F2C45FF], AccurateRip returned [DAC7A311] (AR v2)
Track 6 cannot be verified as accurate (confidence 7) [B0FD3869], AccurateRip returned [BED5E4BA] (AR v2)
Track 7 cannot be verified as accurate (confidence 7) [579BB73C], AccurateRip returned [B1AB1D85] (AR v2)
Track 8 cannot be verified as accurate (confidence 7) [40A3EED9], AccurateRip returned [2584D57E] (AR v2)
Track 9 cannot be verified as accurate (confidence 7) [940EC487], AccurateRip returned [4E7489C6] (AR v2)
Track 10 cannot be verified as accurate (confidence 7) [0E91C534], AccurateRip returned [7B66FA20] (AR v2)

No tracks could be verified as accurate
You may have a different pressing from the one(s) in the database

End of status report

–– CUETools DB Plugin V2.1.6

[CTDB TOCID: QWWvc.seYvHfr0Ffjrh2LHgryj0-] found
Submit result: QWWvc.seYvHfr0Ffjrh2LHgryj0- has been confirmed
Track | CTDB Status
1 | (26/27) Accurately ripped, or (1/27) differs in 128 samples @00:00:73-00:00:74
2 | (26/27) Accurately ripped, or (1/27) differs in 39 samples @00:00:32
3 | (26/27) Accurately ripped, or (1/27) differs in 37 samples @00:00:32
4 | (26/27) Accurately ripped, or (1/27) differs in 29 samples @00:00:32
5 | (26/27) Accurately ripped, or (1/27) differs in 40 samples @00:00:32
6 | (26/27) Accurately ripped, or (1/27) differs in 31 samples @00:00:32
7 | (26/27) Accurately ripped, or (1/27) differs in 34 samples @00:00:32
8 | (26/27) Accurately ripped, or (1/27) differs in 40 samples @00:00:32
9 | (26/27) Accurately ripped, or (1/27) differs in 39 samples @00:00:32
10 | (26/27) Accurately ripped, or (1/27) differs in 39 samples @00:00:32


==== Log checksum 4302BDD174EF6C4F580900B548AB1623C935772DD4AF1510D01B47699CDB193C ====

Riccardo Muti, Orchestra del Teatro alla Scala di Milano - Rossini: Guglielmo Tell (2010)

Thanks to the original releaser