Tags
Language
Tags

Richard Cheese - The Sunny Side of the Moon: The Best of Richard Cheese (2006)

Posted By: gribovar
Richard Cheese - The Sunny Side of the Moon: The Best of Richard Cheese (2006)

Richard Cheese - The Sunny Side of the Moon: The Best of Richard Cheese (2006)
EAC Rip | FLAC (tracks+.cue+log) - 243 MB | MP3 CBR 320 kbps (LAME 3.93) - 92 MB | Covers - 15 MB
Genre: Jazz, Big Band, Swing, Lounge, Comedy | RAR 3% Rec. | Label: Surfdog Records (44108-2)

America's loudest lounge singer Richard Cheese performs swingin' Vegas versions of rock and rap songs, "swankifying" popular Top40 hits into retro vocal standards. Imagine Sinatra singing Radiohead, and you've got Richard Cheese & Lounge Against The Machine.
Backed by Bobby Ricotta on piano, Frank Feta on drums, and Billy Bleu on bass, Richard Cheese & Lounge Against The Machine have played hundreds of sellout concerts all over the world, from Las Vegas to London, from Portland to Portugal, from Honolulu to Hollywood. With his snappy jazz trio, his tiger-striped tuxedo, and his enormous microphone, lounge legend Richard Cheese presents the perfect mix of music, martini, and madcap.
Tracklist:
01. Rape Me (originally by Nirvana)
02. People = S**t (originally by Slipknot)
03. Baby Got Back (originally by Sir Mix-A-Lot)
04. Girls, Girls, Girls (originally by Motley Crue)
05. Closer (originally by Nine Inch Nails)
06. Bust A Move (originally by Young MC)
07. Down With The Sickness (originally by Disturbed)
08. Sunday Bloody Sunday (originally by U2)
09. Freak On A Leash (originally by Korn)
10. Nookie (originally by Limp Bizkit)
11. Another Brick In The Wall (originally by Pink Floyd)
12. Rock The Casbah (originally by The Clash)
13. Fight For Your Right (originally by The Beastie Boys)
14. Hot For Teacher (originally by Van Halen)
15. Gin And Juice (originally by Snoop Dogg)
16. Come Out And Play (originally by The Offspring)
17. Badd (originally by Ying Yang Twins)
18. Creep (originally by Radiohead)

Total time: 39:18

Exact Audio Copy V1.5 from 20. February 2020

EAC extraction logfile from 19. April 2020, 22:28

Richard Cheese & Lounge Against The Machine / The Sunny Side of the Moon: The Best of Richard Cheese

Used drive : HL-DT-STBD-RE GGW-H20L Adapter: 1 ID: 0

Read mode : Secure
Utilize accurate stream : Yes
Defeat audio cache : Yes
Make use of C2 pointers : No

Read offset correction : 667
Overread into Lead-In and Lead-Out : No
Fill up missing offset samples with silence : Yes
Delete leading and trailing silent blocks : No
Null samples used in CRC calculations : Yes
Used interface : Native Win32 interface for Win NT & 2000
Gap handling : Appended to previous track

Used output format : User Defined Encoder
Selected bitrate : 1024 kBit/s
Quality : High
Add ID3 tag : No
Command line compressor : C:\Program Files (x86)\FLAC Frontend\tools\flac.exe
Additional command line options : -8 -V -T "ARTIST=%artist%" -T "TITLE=%title%" -T "ALBUM=%albumtitle%" -T "DATE=%year%" -T "TRACKNUMBER=%tracknr%" -T "GENRE=%genre%" -T "PERFORMER=%albuminterpret%" -T "COMPOSER=%composer%" %haslyrics%–tag-from-file=LYRICS="%lyricsfile%"%haslyrics% -T "ALBUMARTIST=%albumartist%" -T "DISCNUMBER=%cdnumber%" -T "TOTALDISCS=%totalcds%" -T "TOTALTRACKS=%numtracks%" -T "COMMENT=%comment%" %source% -o %dest%


TOC of the extracted CD

Track | Start | Length | Start sector | End sector
––––––––––––––––––––––––––––-
1 | 0:00.00 | 1:55.24 | 0 | 8648
2 | 1:55.24 | 2:03.52 | 8649 | 17925
3 | 3:59.01 | 2:46.55 | 17926 | 30430
4 | 6:45.56 | 2:00.14 | 30431 | 39444
5 | 8:45.70 | 2:20.03 | 39445 | 49947
6 | 11:05.73 | 1:56.55 | 49948 | 58702
7 | 13:02.53 | 2:10.22 | 58703 | 68474
8 | 15:13.00 | 1:37.09 | 68475 | 75758
9 | 16:50.09 | 1:27.23 | 75759 | 82306
10 | 18:17.32 | 1:46.30 | 82307 | 90286
11 | 20:03.62 | 2:13.42 | 90287 | 100303
12 | 22:17.29 | 1:22.41 | 100304 | 106494
13 | 23:39.70 | 2:06.35 | 106495 | 115979
14 | 25:46.30 | 2:38.39 | 115980 | 127868
15 | 28:24.69 | 2:24.34 | 127869 | 138702
16 | 30:49.28 | 2:40.34 | 138703 | 150736
17 | 33:29.62 | 3:15.04 | 150737 | 165365
18 | 36:44.66 | 2:33.09 | 165366 | 176849


Track 1

Filename C:\Users\James\Music\Richard Cheese\The Sunny Side of the Moon\2006 - The Sunny Side of the Moon - The Best of Richard Cheese [FLAC CD] {44108-2}\01 - Rape Me (orig. by Nirvana).wav

Pre-gap length 0:00:02.00

Peak level 98.8 %
Extraction speed 3.8 X
Track quality 100.0 %
Test CRC 8B56C0CB
Copy CRC 8B56C0CB
Accurately ripped (confidence 20) [CCEF6F34] (AR v2)
Copy OK

Track 2

Filename C:\Users\James\Music\Richard Cheese\The Sunny Side of the Moon\2006 - The Sunny Side of the Moon - The Best of Richard Cheese [FLAC CD] {44108-2}\02 - People = Sxxt (orig. by Slipknot).wav

Pre-gap length 0:00:02.00

Peak level 98.9 %
Extraction speed 4.0 X
Track quality 100.0 %
Test CRC EC19FDEC
Copy CRC EC19FDEC
Accurately ripped (confidence 20) [8AB1A68E] (AR v2)
Copy OK

Track 3

Filename C:\Users\James\Music\Richard Cheese\The Sunny Side of the Moon\2006 - The Sunny Side of the Moon - The Best of Richard Cheese [FLAC CD] {44108-2}\03 - Baby Got Back (orig. by Sir Mix-A-Lot).wav

Pre-gap length 0:00:02.00

Peak level 98.8 %
Extraction speed 4.7 X
Track quality 100.0 %
Test CRC F94FCCF1
Copy CRC F94FCCF1
Accurately ripped (confidence 20) [4A9F6072] (AR v2)
Copy OK

Track 4

Filename C:\Users\James\Music\Richard Cheese\The Sunny Side of the Moon\2006 - The Sunny Side of the Moon - The Best of Richard Cheese [FLAC CD] {44108-2}\04 - Girls, Girls, Girls (orig. by Motley Crue).wav

Pre-gap length 0:00:02.00

Peak level 100.0 %
Extraction speed 3.3 X
Track quality 99.9 %
Test CRC C604AAD2
Copy CRC C604AAD2
Accurately ripped (confidence 20) [12AC6EA0] (AR v2)
Copy OK

Track 5

Filename C:\Users\James\Music\Richard Cheese\The Sunny Side of the Moon\2006 - The Sunny Side of the Moon - The Best of Richard Cheese [FLAC CD] {44108-2}\05 - Closer (orig. by Nine Inch Nails).wav

Pre-gap length 0:00:02.00

Peak level 98.8 %
Extraction speed 4.8 X
Track quality 100.0 %
Test CRC E14817CB
Copy CRC E14817CB
Accurately ripped (confidence 20) [E6B7689D] (AR v2)
Copy OK

Track 6

Filename C:\Users\James\Music\Richard Cheese\The Sunny Side of the Moon\2006 - The Sunny Side of the Moon - The Best of Richard Cheese [FLAC CD] {44108-2}\06 - Bust A Move (orig. by Young MC).wav

Pre-gap length 0:00:02.00

Peak level 98.8 %
Extraction speed 4.8 X
Track quality 100.0 %
Test CRC E9FCB454
Copy CRC E9FCB454
Accurately ripped (confidence 20) [56561C78] (AR v2)
Copy OK

Track 7

Filename C:\Users\James\Music\Richard Cheese\The Sunny Side of the Moon\2006 - The Sunny Side of the Moon - The Best of Richard Cheese [FLAC CD] {44108-2}\07 - Down With The Sickness (orig. by Disturbed).wav

Pre-gap length 0:00:02.00

Peak level 98.8 %
Extraction speed 5.3 X
Track quality 100.0 %
Test CRC 3DCFCE6C
Copy CRC 3DCFCE6C
Accurately ripped (confidence 20) [17DD3B7A] (AR v2)
Copy OK

Track 8

Filename C:\Users\James\Music\Richard Cheese\The Sunny Side of the Moon\2006 - The Sunny Side of the Moon - The Best of Richard Cheese [FLAC CD] {44108-2}\08 - Sunday Bloody Sunday (orig. by U2).wav

Pre-gap length 0:00:02.00

Peak level 98.9 %
Extraction speed 4.8 X
Track quality 100.0 %
Test CRC 5BF01AC3
Copy CRC 5BF01AC3
Accurately ripped (confidence 20) [40701179] (AR v2)
Copy OK

Track 9

Filename C:\Users\James\Music\Richard Cheese\The Sunny Side of the Moon\2006 - The Sunny Side of the Moon - The Best of Richard Cheese [FLAC CD] {44108-2}\09 - Freak On A Leash (orig. by Korn).wav

Pre-gap length 0:00:02.00

Peak level 100.0 %
Extraction speed 3.3 X
Track quality 99.8 %
Test CRC 7909E34F
Copy CRC 7909E34F
Accurately ripped (confidence 20) [E31F4E09] (AR v2)
Copy OK

Track 10

Filename C:\Users\James\Music\Richard Cheese\The Sunny Side of the Moon\2006 - The Sunny Side of the Moon - The Best of Richard Cheese [FLAC CD] {44108-2}\10 - Nookie (orig. by Limp Bizkit).wav

Pre-gap length 0:00:02.00

Peak level 98.8 %
Extraction speed 5.5 X
Track quality 100.0 %
Test CRC 99AB6FBC
Copy CRC 99AB6FBC
Accurately ripped (confidence 20) [768382C9] (AR v2)
Copy OK

Track 11

Filename C:\Users\James\Music\Richard Cheese\The Sunny Side of the Moon\2006 - The Sunny Side of the Moon - The Best of Richard Cheese [FLAC CD] {44108-2}\11 - Another Brick In The Wall (orig. by Pink Floyd).wav

Pre-gap length 0:00:02.00

Peak level 98.8 %
Extraction speed 5.8 X
Track quality 100.0 %
Test CRC B6B4917D
Copy CRC B6B4917D
Accurately ripped (confidence 20) [4A84BFB5] (AR v2)
Copy OK

Track 12

Filename C:\Users\James\Music\Richard Cheese\The Sunny Side of the Moon\2006 - The Sunny Side of the Moon - The Best of Richard Cheese [FLAC CD] {44108-2}\12 - Rock The Casbah (orig. by The Clash).wav

Pre-gap length 0:00:02.00

Peak level 98.8 %
Extraction speed 4.9 X
Track quality 100.0 %
Test CRC 6A8E8D6E
Copy CRC 6A8E8D6E
Accurately ripped (confidence 20) [165AB24D] (AR v2)
Copy OK

Track 13

Filename C:\Users\James\Music\Richard Cheese\The Sunny Side of the Moon\2006 - The Sunny Side of the Moon - The Best of Richard Cheese [FLAC CD] {44108-2}\13 - Fight For Your Right (orig. by The Beastie Boys).wav

Pre-gap length 0:00:02.00

Peak level 98.8 %
Extraction speed 4.4 X
Track quality 99.9 %
Test CRC F36B3772
Copy CRC F36B3772
Accurately ripped (confidence 20) [8573A583] (AR v2)
Copy OK

Track 14

Filename C:\Users\James\Music\Richard Cheese\The Sunny Side of the Moon\2006 - The Sunny Side of the Moon - The Best of Richard Cheese [FLAC CD] {44108-2}\14 - Hot For Teacher (orig. by Van Halen).wav

Pre-gap length 0:00:02.00

Peak level 98.8 %
Extraction speed 6.5 X
Track quality 100.0 %
Test CRC 03C8284D
Copy CRC 03C8284D
Accurately ripped (confidence 20) [D3D28E43] (AR v2)
Copy OK

Track 15

Filename C:\Users\James\Music\Richard Cheese\The Sunny Side of the Moon\2006 - The Sunny Side of the Moon - The Best of Richard Cheese [FLAC CD] {44108-2}\15 - Gin And Juice (orig. by Snoop Dogg).wav

Pre-gap length 0:00:02.00

Peak level 98.8 %
Extraction speed 6.4 X
Track quality 100.0 %
Test CRC CFF11CA9
Copy CRC CFF11CA9
Accurately ripped (confidence 20) [6B91DEE6] (AR v2)
Copy OK

Track 16

Filename C:\Users\James\Music\Richard Cheese\The Sunny Side of the Moon\2006 - The Sunny Side of the Moon - The Best of Richard Cheese [FLAC CD] {44108-2}\16 - Come Out And Play (orig. by The Offspring).wav

Pre-gap length 0:00:02.00

Peak level 98.8 %
Extraction speed 6.8 X
Track quality 100.0 %
Test CRC DBF1B597
Copy CRC DBF1B597
Accurately ripped (confidence 20) [B6563C42] (AR v2)
Copy OK

Track 17

Filename C:\Users\James\Music\Richard Cheese\The Sunny Side of the Moon\2006 - The Sunny Side of the Moon - The Best of Richard Cheese [FLAC CD] {44108-2}\17 - Badd (orig. by Ying Yang Twins).wav

Pre-gap length 0:00:02.00

Peak level 98.8 %
Extraction speed 7.0 X
Track quality 100.0 %
Test CRC 8CC50607
Copy CRC 8CC50607
Accurately ripped (confidence 20) [5BA12F4D] (AR v2)
Copy OK

Track 18

Filename C:\Users\James\Music\Richard Cheese\The Sunny Side of the Moon\2006 - The Sunny Side of the Moon - The Best of Richard Cheese [FLAC CD] {44108-2}\18 - Creep (orig. by Radiohead).wav

Pre-gap length 0:00:02.00

Peak level 98.8 %
Extraction speed 7.2 X
Track quality 100.0 %
Test CRC B0B6A887
Copy CRC B0B6A887
Accurately ripped (confidence 20) [4C6C9971] (AR v2)
Copy OK


All tracks accurately ripped

No errors occurred

End of status report

–– CUETools DB Plugin V2.1.6

[CTDB TOCID: ZbsyLFGfYg1azCG6yyFPDfoB.Yo-] found
Submit result: already submitted
Track | CTDB Status
1 | (77/77) Accurately ripped
2 | (77/77) Accurately ripped
3 | (77/77) Accurately ripped
4 | (77/77) Accurately ripped
5 | (77/77) Accurately ripped
6 | (77/77) Accurately ripped
7 | (77/77) Accurately ripped
8 | (77/77) Accurately ripped
9 | (76/77) Accurately ripped
10 | (76/77) Accurately ripped
11 | (77/77) Accurately ripped
12 | (76/77) Accurately ripped
13 | (77/77) Accurately ripped
14 | (77/77) Accurately ripped
15 | (77/77) Accurately ripped
16 | (77/77) Accurately ripped
17 | (77/77) Accurately ripped
18 | (76/77) Accurately ripped


==== Log checksum 7588DD4828C149B5CA020E0B5AE5E98E83120D7CE6BCD28B29370F3A2D38D973 ====

[CUETools log; Date: 01.08.2021 13:57:06; Version: 2.1.4]
[CTDB TOCID: ZbsyLFGfYg1azCG6yyFPDfoB.Yo-] found.
Track | CTDB Status
1 | (90/90) Accurately ripped
2 | (90/90) Accurately ripped
3 | (90/90) Accurately ripped
4 | (90/90) Accurately ripped
5 | (90/90) Accurately ripped
6 | (90/90) Accurately ripped
7 | (90/90) Accurately ripped
8 | (90/90) Accurately ripped
9 | (89/90) Accurately ripped
10 | (89/90) Accurately ripped
11 | (90/90) Accurately ripped
12 | (89/90) Accurately ripped
13 | (90/90) Accurately ripped
14 | (90/90) Accurately ripped
15 | (90/90) Accurately ripped
16 | (90/90) Accurately ripped
17 | (90/90) Accurately ripped
18 | (89/90) Accurately ripped
[AccurateRip ID: 00187a8a-0146759e-d4093612] found.
Track [ CRC | V2 ] Status
01 [d694d0c8|ccef6f34] (29+23/64) Accurately ripped
02 [02e22c13|8ab1a68e] (29+23/64) Accurately ripped
03 [443adc35|4a9f6072] (29+23/64) Accurately ripped
04 [a3fd6e3e|12ac6ea0] (29+23/64) Accurately ripped
05 [1b2d146f|e6b7689d] (29+23/64) Accurately ripped
06 [64430d23|56561c78] (29+23/64) Accurately ripped
07 [de93c80d|17dd3b7a] (29+23/64) Accurately ripped
08 [763269d1|40701179] (29+23/64) Accurately ripped
09 [259551bb|e31f4e09] (29+23/64) Accurately ripped
10 [8b5c324a|768382c9] (29+23/64) Accurately ripped
11 [13ece453|4a84bfb5] (29+23/64) Accurately ripped
12 [87d599a3|165ab24d] (29+23/64) Accurately ripped
13 [292a1582|8573a583] (29+23/64) Accurately ripped
14 [5cf95b1f|d3d28e43] (28+23/63) Accurately ripped
15 [63cb2b8d|6b91dee6] (27+23/62) Accurately ripped
16 [ffa82da0|b6563c42] (27+23/60) Accurately ripped
17 [b172d648|5ba12f4d] (27+23/62) Accurately ripped
18 [cdcc02c3|4c6c9971] (28+23/63) Accurately ripped
Offsetted by -74:
01 [4f30751a] (03/64) Accurately ripped
02 [dd767d9b] (03/64) Accurately ripped
03 [d773496f] (03/64) Accurately ripped
04 [56d8116e] (03/64) Accurately ripped
05 [d18128d1] (03/64) Accurately ripped
06 [0bb5a4f1] (03/64) Accurately ripped
07 [6b3f78ff] (03/64) Accurately ripped
08 [3e87512d] (03/64) Accurately ripped
09 [78a6903d] (03/64) Accurately ripped
10 [cd7ad012] (03/64) Accurately ripped
11 [4cf6515f] (03/64) Accurately ripped
12 [ba1af8cf] (03/64) Accurately ripped
13 [d622b0c2] (03/64) Accurately ripped
14 [9b0003ef] (03/63) Accurately ripped
15 [f0752d6b] (03/62) Accurately ripped
16 [646e6008] (03/60) Accurately ripped
17 [b9407d9e] (03/62) Accurately ripped
18 [057e36f7] (03/63) Accurately ripped
Offsetted by -640:
01 [27f29548] (02/64) Accurately ripped
02 [046f4e13] (02/64) Accurately ripped
03 [1ae49ab5] (02/64) Accurately ripped
04 [a7eaba3e] (02/64) Accurately ripped
05 [2f505cef] (02/64) Accurately ripped
06 [666750a3] (02/64) Accurately ripped
07 [c8b3b48d] (02/64) Accurately ripped
08 [d302e0d1] (02/64) Accurately ripped
09 [3246223b] (02/64) Accurately ripped
10 [6d42644a] (02/64) Accurately ripped
11 [de9f4753] (02/64) Accurately ripped
12 [418784a3] (02/64) Accurately ripped
13 [61fee582] (02/64) Accurately ripped
14 [6e7f0f1f] (02/63) Accurately ripped
15 [a0e3730d] (02/62) Accurately ripped
16 [28f287a0] (00/60) No match (V2 was not tested)
17 [63a3bbc8] (02/62) Accurately ripped
18 [c43fefc3] (02/63) Accurately ripped
Offsetted by -36:
01 [7ff54a3c] (00/64) No match (V2 was not tested)
02 [a4921c63] (00/64) No match (V2 was not tested)
03 [31e79bb9] (00/64) No match (V2 was not tested)
04 [b5cf941e] (00/64) No match (V2 was not tested)
05 [a44f1083] (00/64) No match (V2 was not tested)
06 [392eb0ef] (00/64) No match (V2 was not tested)
07 [c22593c1] (00/64) No match (V2 was not tested)
08 [c9d156e9] (00/64) No match (V2 was not tested)
09 [bcb2770f] (00/64) No match (V2 was not tested)
10 [2811251a] (00/64) No match (V2 was not tested)
11 [d5ba204b] (00/64) No match (V2 was not tested)
12 [e57acedb] (00/64) No match (V2 was not tested)
13 [45f60e02] (00/64) No match (V2 was not tested)
14 [35f5ad3f] (00/63) No match (V2 was not tested)
15 [85a155f9] (00/62) No match (V2 was not tested)
16 [c1fac2b0] (00/60) No match (V2 was not tested)
17 [08459664] (00/62) No match (V2 was not tested)
18 [b875bb4b] (00/63) No match (V2 was not tested)

Track Peak [ CRC32 ] [W/O NULL] [ LOG ]
– 100,0 [B236706E] [09FAB6C6]
01 98,8 [8B56C0CB] [27470E53] CRC32
02 98,9 [EC19FDEC] [E94EFBE0] CRC32
03 98,8 [F94FCCF1] [417D4458] CRC32
04 100,0 [C604AAD2] [DB85FC7D] CRC32
05 98,8 [E14817CB] [00FF549A] CRC32
06 98,8 [E9FCB454] [BD7D9521] CRC32
07 98,8 [3DCFCE6C] [B2D79540] CRC32
08 98,9 [5BF01AC3] [2227CAB7] CRC32
09 100,0 [7909E34F] [5123183A] CRC32
10 98,8 [99AB6FBC] [CC52FD4A] CRC32
11 98,8 [B6B4917D] [B3C0A277] CRC32
12 98,8 [6A8E8D6E] [3D682231] CRC32
13 98,8 [F36B3772] [8AF8205C] CRC32
14 98,8 [03C8284D] [7F45CB61] CRC32
15 98,8 [CFF11CA9] [01F0E2A7] CRC32
16 98,8 [DBF1B597] [F868D2B7] CRC32
17 98,8 [8CC50607] [C043CFBE] CRC32
18 98,8 [B0B6A887] [2918F784] CRC32

Thanks to the original releaser