Tags
Language
Tags

Rickie Lee Jones - Ghostyhead (1997)

Posted By: v3122
Rickie Lee Jones - Ghostyhead (1997)

Rickie Lee Jones - Ghostyhead (1997)
EAC | Flac(Image) + Cue + Log & MP3 CBR 320Kbps
Reprise Records, 2-46557-AB | ~ 293 or 134 Mb | Scans
Trip Hop / Alternative Rock

Ghostyhead finds Rickie Lee Jones in the odd position of following a younger generation, as its languid trip-hop beats suggest that she has been listening to Portishead, Tricky, and Beth Orton. It is certainly a precarious situation, since she could seem out of touch and old-fashioned, but it is a makeover she pulls off surprisingly well. Jones tends to follow the trippy, free-form structures of trip-hop, which means the melodies occasionally meander and the lyrics are more impressionistic than usual, concentrating on the overall effect instead of the details. There are still more solidly constructed songs than atmospheric instrumentals, which gives the album an anchor, making the electronic echoes and rolling beats all the more effective. Although the songs aren't among Jones' best, the musical adventurousness of Ghostyhead – which manages to be contemporary without sacrificing her style – makes the album a revitalization of sorts.

by Stephen Thomas Erlewine, AMG
Rickie Lee Jones - Ghostyhead (1997)


Rickie Lee Jones - Ghostyhead (1997):

Rickie Lee Jones - Ghostyhead (1997)

Tracklist:

01. Little Yellow Town (06:54)
02. Road Kill (04:41)
03. Matters (06:04)
04. Firewalker (03:56)
05. Howard (04:45)
06. Ghostyhead (05:36)
07. Sunny Afternoon (03:54)
08. Scary Chinese Movie (06:19)
09. Cloud Of Unknowning (07:03)
10. Vessel Of Light (06:30)

Converted to Image (CUETools 2.1.4)

Exact Audio Copy V1.0 beta 3 from 29. August 2011

EAC extraction logfile from 18. September 2014, 15:33

Rickie Lee Jones / Ghostyhead

Used drive : hp DVD A DH16ABSH Adapter: 0 ID: 0

Read mode : Secure
Utilize accurate stream : Yes
Defeat audio cache : Yes
Make use of C2 pointers : No

Read offset correction : 6
Overread into Lead-In and Lead-Out : No
Fill up missing offset samples with silence : Yes
Delete leading and trailing silent blocks : No
Null samples used in CRC calculations : Yes
Used interface : Native Win32 interface for Win NT & 2000
Gap handling : Appended to previous track

Used output format : User Defined Encoder
Selected bitrate : 896 kBit/s
Quality : High
Add ID3 tag : No
Command line compressor : C:\Program Files (x86)\Exact Audio Copy\Flac\flac.exe
Additional command line options : -8 -V -T "ARTIST=%artist%" -T "TITLE=%title%" -T "ALBUM=%albumtitle%" -T "DATE=%year%" -T "TRACKNUMBER=%tracknr%" -T "TOTALTRACKS=%numtracks%" -T "GENRE=%genre%" -T "ALBUMARTIST=%albumartist%" -T "ALBUM ARTIST=%albumartist%" -T "COMMENT=EAC Secure Mode, Test & Copy, AccurateRip, FLAC -8" %source%


TOC of the extracted CD

Track | Start | Length | Start sector | End sector
––––––––––––––––––––––––––––-
1 | 0:00.00 | 6:45.60 | 0 | 30434
2 | 6:45.60 | 4:12.57 | 30435 | 49391
3 | 10:58.42 | 4:21.23 | 49392 | 68989
4 | 15:19.65 | 3:59.10 | 68990 | 86924
5 | 19:19.00 | 4:24.54 | 86925 | 106778
6 | 23:43.54 | 5:29.11 | 106779 | 131464
7 | 29:12.65 | 3:53.05 | 131465 | 148944
8 | 33:05.70 | 5:32.27 | 148945 | 173871
9 | 38:38.22 | 7:20.43 | 173872 | 206914
10 | 45:58.65 | 6:31.20 | 206915 | 236259


Track 1

Filename C:\EAC\Rickie Lee Jones - Ghostyhead (1997) [FLAC] {Reprise Records Advance Promo 2-46557-AB}\01 - Little Yellow Town.wav

Pre-gap length 0:00:02.00

Peak level 100.0 %
Extraction speed 2.2 X
Track quality 100.0 %
Test CRC E2725B30
Copy CRC E2725B30
Accurately ripped (confidence 43) [4A4441FF] (AR v2)
Copy OK

Track 2

Filename C:\EAC\Rickie Lee Jones - Ghostyhead (1997) [FLAC] {Reprise Records Advance Promo 2-46557-AB}\02 - Road Kill.wav

Pre-gap length 0:00:02.15

Peak level 100.0 %
Extraction speed 2.4 X
Track quality 100.0 %
Test CRC 596D7842
Copy CRC 596D7842
Accurately ripped (confidence 43) [E1CEE6B3] (AR v2)
Copy OK

Track 3

Filename C:\EAC\Rickie Lee Jones - Ghostyhead (1997) [FLAC] {Reprise Records Advance Promo 2-46557-AB}\03 - Matters.wav

Peak level 89.1 %
Extraction speed 2.6 X
Track quality 100.0 %
Test CRC 76F13DAA
Copy CRC 76F13DAA
Accurately ripped (confidence 43) [4DC2089C] (AR v2)
Copy OK

Track 4

Filename C:\EAC\Rickie Lee Jones - Ghostyhead (1997) [FLAC] {Reprise Records Advance Promo 2-46557-AB}\04 - Firewalker.wav

Peak level 100.0 %
Extraction speed 2.7 X
Track quality 100.0 %
Test CRC 230626F3
Copy CRC 230626F3
Accurately ripped (confidence 43) [C1278350] (AR v2)
Copy OK

Track 5

Filename C:\EAC\Rickie Lee Jones - Ghostyhead (1997) [FLAC] {Reprise Records Advance Promo 2-46557-AB}\05 - Howard.wav

Pre-gap length 0:00:02.45

Peak level 100.0 %
Extraction speed 2.9 X
Track quality 100.0 %
Test CRC A94D9166
Copy CRC A94D9166
Accurately ripped (confidence 43) [5F105A63] (AR v2)
Copy OK

Track 6

Filename C:\EAC\Rickie Lee Jones - Ghostyhead (1997) [FLAC] {Reprise Records Advance Promo 2-46557-AB}\06 - Ghostyhead.wav

Pre-gap length 0:00:03.29

Peak level 100.0 %
Extraction speed 3.2 X
Track quality 100.0 %
Test CRC 678B701F
Copy CRC 678B701F
Accurately ripped (confidence 43) [73BF15BC] (AR v2)
Copy OK

Track 7

Filename C:\EAC\Rickie Lee Jones - Ghostyhead (1997) [FLAC] {Reprise Records Advance Promo 2-46557-AB}\07 - Sunny Afternoon.wav

Pre-gap length 0:00:01.20

Peak level 100.0 %
Extraction speed 2.3 X
Track quality 99.9 %
Test CRC 46519F4F
Copy CRC 46519F4F
Accurately ripped (confidence 43) [6776714D] (AR v2)
Copy OK

Track 8

Filename C:\EAC\Rickie Lee Jones - Ghostyhead (1997) [FLAC] {Reprise Records Advance Promo 2-46557-AB}\08 - Scary Chinese Movie.wav

Pre-gap length 0:00:01.65

Peak level 100.0 %
Extraction speed 2.8 X
Track quality 99.9 %
Test CRC 6AC4E316
Copy CRC 6AC4E316
Accurately ripped (confidence 43) [9CE5CD84] (AR v2)
Copy OK

Track 9

Filename C:\EAC\Rickie Lee Jones - Ghostyhead (1997) [FLAC] {Reprise Records Advance Promo 2-46557-AB}\09 - Cloud Of Unknowing.wav

Peak level 100.0 %
Extraction speed 3.1 X
Track quality 99.9 %
Test CRC E587372D
Copy CRC E587372D
Accurately ripped (confidence 43) [03FE49C1] (AR v2)
Copy OK

Track 10

Filename C:\EAC\Rickie Lee Jones - Ghostyhead (1997) [FLAC] {Reprise Records Advance Promo 2-46557-AB}\10 - Vessel Of Light.wav

Pre-gap length 0:00:01.03

Peak level 100.0 %
Extraction speed 4.0 X
Track quality 100.0 %
Test CRC FA8A48E0
Copy CRC FA8A48E0
Accurately ripped (confidence 43) [5758AA05] (AR v2)
Copy OK


All tracks accurately ripped

No errors occurred

End of status report

==== Log checksum 2FCCC27600FDB99E98E731F3C56AE9CE9063B80DADED50E7FCCB5F08A30B0635 ====

foobar2000 1.2.9 / Dynamic Range Meter 1.1.1
log date: 2016-08-15 22:28:05

––––––––––––––––––––––––––––––––––––––––
Analyzed: Rickie Lee Jones / Ghostyhead
––––––––––––––––––––––––––––––––––––––––

DR Peak RMS Duration Track
––––––––––––––––––––––––––––––––––––––––
DR12 0.00 dB -14.72 dB 6:46 01-Little Yellow Town
DR11 0.00 dB -12.68 dB 4:13 02-Road Kill
DR12 -1.00 dB -15.07 dB 4:21 03-Matters
DR12 0.00 dB -13.36 dB 3:59 04-Firewalker
DR12 0.00 dB -13.76 dB 4:25 05-Howard
DR12 0.00 dB -14.54 dB 5:29 06-Ghostyhead
DR11 0.00 dB -14.66 dB 3:53 07-Sunny Afternoon
DR12 0.00 dB -14.66 dB 5:32 08-Scary Chinese Movie
DR12 0.00 dB -13.80 dB 7:21 09-Cloud Of Unknowing
DR13 0.00 dB -16.65 dB 6:31 10-Vessel Of Light
––––––––––––––––––––––––––––––––––––––––

Number of tracks: 10
Official DR value: DR12

Samplerate: 44100 Hz
Channels: 2
Bits per sample: 16
Bitrate: 730 kbps
Codec: FLAC

[CUETools log; Date: 15.08.2016 22:27:54; Version: 2.1.4]
[CTDB TOCID: pZMuUItooMmbkBt2kQR2fwvW4gY-] found.
Track | CTDB Status
1 | (42/42) Accurately ripped
2 | (42/42) Accurately ripped
3 | (42/42) Accurately ripped
4 | (42/42) Accurately ripped
5 | (42/42) Accurately ripped
6 | (42/42) Accurately ripped
7 | (42/42) Accurately ripped
8 | (42/42) Accurately ripped
9 | (42/42) Accurately ripped
10 | (42/42) Accurately ripped
[AccurateRip ID: 0012ebaa-00972353-7a0c4e0a] found.
Track [ CRC | V2 ] Status
01 [70a82e5b|4a4441ff] (31+68/99) Accurately ripped
02 [11be8e37|e1cee6b3] (31+68/99) Accurately ripped
03 [5e6c4ceb|4dc2089c] (31+68/99) Accurately ripped
04 [7d6c3c02|c1278350] (31+68/99) Accurately ripped
05 [99863c25|5f105a63] (31+68/99) Accurately ripped
06 [dc0df235|73bf15bc] (31+68/99) Accurately ripped
07 [cc4f0d4b|6776714d] (31+68/99) Accurately ripped
08 [ec2fa9f9|9ce5cd84] (31+68/99) Accurately ripped
09 [112c2eef|03fe49c1] (31+68/99) Accurately ripped
10 [248ad791|5758aa05] (31+68/99) Accurately ripped

Track Peak [ CRC32 ] [W/O NULL] [ LOG ]
– 100,0 [4E90C6F2] [2009C8F8]
01 100,0 [E2725B30] [2BEBE947] CRC32
02 100,0 [596D7842] [FC7766DA] CRC32
03 89,1 [76F13DAA] [76F367FF] CRC32
04 99,9 [230626F3] [468BF8E9] CRC32
05 99,9 [A94D9166] [5D7492A5] CRC32
06 99,9 [678B701F] [41CEBF3B] CRC32
07 99,9 [46519F4F] [0C0BFC2C] CRC32
08 100,0 [6AC4E316] [5B736136] CRC32
09 100,0 [E587372D] [6C42E7A6] CRC32
10 99,9 [FA8A48E0] [9777BAC0] CRC32


Rickie Lee Jones - Ghostyhead (1997)

All thanks go to the original releaser

Rickie Lee Jones in my Blog

Download Rickie Lee Jones - Ghostyhead (1997):