Tags
Language
Tags

Rickie Lee Jones - The Other Side of Desire (2015)

Posted By: v3122
Rickie Lee Jones - The Other Side of Desire (2015)

Rickie Lee Jones - The Other Side of Desire (2015)
EAC | Flac(Image) + Cue + Log & MP3 CBR 320Kbps
The Other Side Of Desire/TOSOD Music, TOSOD01 | ~ 275 or 115 Mb | Scans
Alternative Rock / Folk Rock

Life sounds fête champêtre for New Orleans resident Rickie Lee Jones on her most spirited album since 1989's Flying Cowboys. Just listen to her soar on the deliriously joyful "I Wasn't There", and the gorgeous R&B-inflected chorus of "Feet On The Ground". Fans of Rickie's early work are going to love this album like the way she loves her Jimmy Choos shoes on a track as catchy as "Chuck E.'s In Love". Beleaguered by a legendary career that has a problem rewarding itself, Jones seems to imply 'the other side of desire' is something hard-earned and deserved, especially for struggling musicians: "I know about the Motel 6/I know about the truck stop stations/I know about giving up on it all… I like those Jimmy Choo shoes!"

Gone is some of her gamine bravado, but that doesn't stop the whiz-kid she's always been. She can out-sultry John Mayer and show Maroon 5 how to handle a "doodle-diddle-dee… la-la-la-la!" on the swampy "Haunted", outwit Dylan or Cohen ("let us show you how much it cost / twice as much as we lost"), and come up with lyrics as subversive and funny as Steely Dan: "Sittin' there surfin' USA / I'm not talking about a song / the things you did were wrong". The music of New Orleans is relegated strictly as a point of reference, even for the bawdy swamp-pop of "J'ai Connais Pas". Yet Jones' new home bejewels her, but even that she's willing to shed for the austere beauty of the record's finest track, "Infinity". It's a near-whispered reverie of aching suspension and clock-ticking longing, like Cyndi Lauper's "Time After Time" for the post-millennials. Ultimately that incredible voice of hers, famous for silencing concert halls and leaving audiences breathless, that finally feels captured on a studio recording. It's this and her remarkable songwriting that makes The Other Side Of Desire not only a joyful listen, but often a stunning one. Chances are, you won't hear many albums in 2015 that's anywhere near as intoxicating and desirable.

By G. A. Skala, amazon
Rickie Lee Jones - The Other Side of Desire (2015)


Rickie Lee Jones - The Other Side of Desire (2015):

Rickie Lee Jones - The Other Side of Desire (2015)

Tracklist:

01. Jimmy Choos (03:57)
02. Valtz de Mon Pere (Lovers’ Waltz) (04:35)
03. J’ai Connais Pas (03:29)
04. Blinded by the Hunt (03:25)
05. Infinity (05:30)
06. I Wasn’t Here (04:07)
07. Christmas in New Orleans (04:49)
08. Haunted (05:22)
09. Feet on the Ground (06:30)
10. Juliette (01:27)
11. Finale; (A Spider in the Circus of the Falling Star) (03:04)

Converted to Image (CUETools 2.1.4)

Exact Audio Copy V1.0 beta 3 from 29. August 2011

EAC extraction logfile from 26. August 2015, 21:54

Rickie Lee Jones / The Other Side of Desire

Used drive : HL-DT-STBD-RE WH14NS40 Adapter: 0 ID: 0

Read mode : Secure
Utilize accurate stream : Yes
Defeat audio cache : Yes
Make use of C2 pointers : No

Read offset correction : 6
Overread into Lead-In and Lead-Out : No
Fill up missing offset samples with silence : Yes
Delete leading and trailing silent blocks : No
Null samples used in CRC calculations : Yes
Used interface : Native Win32 interface for Win NT & 2000
Gap handling : Appended to previous track

Used output format : User Defined Encoder
Selected bitrate : 1024 kBit/s
Quality : High
Add ID3 tag : No
Command line compressor : E:\Program Files (x86)\Exact Audio Copy\Flac\flac.exe
Additional command line options : -8 -V -T "ARTIST=%artist%" -T "TITLE=%title%" -T "ALBUM=%albumtitle%" -T "DATE=%year%" -T "TRACKNUMBER=%tracknr%" -T "GENRE=%genre%" -T "PERFORMER=%albuminterpret%" -T "COMPOSER=%composer%" %haslyrics%–tag-from-file=LYRICS="%lyricsfile%"%haslyrics% -T "ALBUMARTIST=%albumartist%" -T "DISCNUMBER=%cdnumber%" -T "TOTALDISCS=%totalcds%" -T "TOTALTRACKS=%numtracks%" -T "COMMENT=%comment%" %source% -o %dest%


TOC of the extracted CD

Track | Start | Length | Start sector | End sector
––––––––––––––––––––––––––––-
1 | 0:00.00 | 3:57.36 | 0 | 17810
2 | 3:57.36 | 4:35.32 | 17811 | 38467
3 | 8:32.68 | 3:28.61 | 38468 | 54128
4 | 12:01.54 | 3:24.72 | 54129 | 69500
5 | 15:26.51 | 5:29.56 | 69501 | 94231
6 | 20:56.32 | 4:06.58 | 94232 | 112739
7 | 25:03.15 | 4:48.54 | 112740 | 134393
8 | 29:51.69 | 5:22.10 | 134394 | 158553
9 | 35:14.04 | 6:29.38 | 158554 | 187766
10 | 41:43.42 | 1:26.68 | 187767 | 194284
11 | 43:10.35 | 3:04.20 | 194285 | 208104


Track 1

Filename E:\EAC Rips\Rickie Lee Jones - The Other Side of Desire (2015) [FLAC]\01 - Jimmy Choos.wav

Pre-gap length 0:00:02.00

Peak level 96.8 %
Extraction speed 3.8 X
Track quality 100.0 %
Test CRC 00411F7A
Copy CRC 00411F7A
Accurately ripped (confidence 13) [296DD526] (AR v2)
Copy OK

Track 2

Filename E:\EAC Rips\Rickie Lee Jones - The Other Side of Desire (2015) [FLAC]\02 - Valtz de Mon Pere (Lovers' Oath).wav

Peak level 97.0 %
Extraction speed 3.7 X
Track quality 100.0 %
Test CRC 04CF7202
Copy CRC 04CF7202
Accurately ripped (confidence 13) [8A6066BA] (AR v2)
Copy OK

Track 3

Filename E:\EAC Rips\Rickie Lee Jones - The Other Side of Desire (2015) [FLAC]\03 - J'ai Connais Pas.wav

Peak level 97.7 %
Extraction speed 2.7 X
Track quality 99.9 %
Test CRC DB0E5940
Copy CRC DB0E5940
Accurately ripped (confidence 13) [B8E1A3CD] (AR v2)
Copy OK

Track 4

Filename E:\EAC Rips\Rickie Lee Jones - The Other Side of Desire (2015) [FLAC]\04 - Blinded By The Hunt.wav

Peak level 100.0 %
Extraction speed 2.3 X
Track quality 100.0 %
Test CRC 131C5BC9
Copy CRC 131C5BC9
Accurately ripped (confidence 13) [4DFEF6A1] (AR v2)
Copy OK

Track 5

Filename E:\EAC Rips\Rickie Lee Jones - The Other Side of Desire (2015) [FLAC]\05 - Infinity.wav

Peak level 98.6 %
Extraction speed 2.6 X
Track quality 100.0 %
Test CRC 54785FAE
Copy CRC 54785FAE
Accurately ripped (confidence 13) [E395A021] (AR v2)
Copy OK

Track 6

Filename E:\EAC Rips\Rickie Lee Jones - The Other Side of Desire (2015) [FLAC]\06 - I Wasn't Here.wav

Peak level 95.7 %
Extraction speed 2.7 X
Track quality 100.0 %
Test CRC 19618582
Copy CRC 19618582
Accurately ripped (confidence 13) [67B007B5] (AR v2)
Copy OK

Track 7

Filename E:\EAC Rips\Rickie Lee Jones - The Other Side of Desire (2015) [FLAC]\07 - Christmas In New Orleans.wav

Peak level 98.9 %
Extraction speed 2.9 X
Track quality 100.0 %
Test CRC 11399012
Copy CRC 11399012
Accurately ripped (confidence 13) [B47A5F89] (AR v2)
Copy OK

Track 8

Filename E:\EAC Rips\Rickie Lee Jones - The Other Side of Desire (2015) [FLAC]\08 - Haunted.wav

Peak level 95.9 %
Extraction speed 3.1 X
Track quality 100.0 %
Test CRC 1C77FDC8
Copy CRC 1C77FDC8
Accurately ripped (confidence 13) [68AC66BE] (AR v2)
Copy OK

Track 9

Filename E:\EAC Rips\Rickie Lee Jones - The Other Side of Desire (2015) [FLAC]\09 - Feet On The Ground.wav

Peak level 100.0 %
Extraction speed 1.9 X
Track quality 100.0 %
Test CRC F7AA7E12
Copy CRC F7AA7E12
Accurately ripped (confidence 13) [E397ED71] (AR v2)
Copy OK

Track 10

Filename E:\EAC Rips\Rickie Lee Jones - The Other Side of Desire (2015) [FLAC]\10 - Juliette.wav

Peak level 49.8 %
Extraction speed 1.5 X
Track quality 100.0 %
Test CRC FDCECEED
Copy CRC FDCECEED
Accurately ripped (confidence 13) [B3CE12B5] (AR v2)
Copy OK

Track 11

Filename E:\EAC Rips\Rickie Lee Jones - The Other Side of Desire (2015) [FLAC]\11 - Finale - (A Spider In The Circus Of The Falling Star).wav

Peak level 97.0 %
Extraction speed 1.5 X
Track quality 99.9 %
Test CRC 44E7958F
Copy CRC 44E7958F
Accurately ripped (confidence 13) [9B4A0F36] (AR v2)
Copy OK


All tracks accurately ripped

No errors occurred

End of status report

–– CUETools DB Plugin V2.1.3

[CTDB TOCID: .i7IiBMsD_hetGTqONvIImi5WqM-] found, Submit result: .i7IiBMsD_hetGTqONvIImi5WqM- has been confirmed
[2b2d904a] (01/34) No match
[a02a65ef] (32/34) Accurately ripped
[714a14f1] (01/34) No match


==== Log checksum 89170F254B9DDAA4D0E02C26D55758B724ADABCC0BFC86AE08181EE1632DC50D ====

foobar2000 1.2.9 / Dynamic Range Meter 1.1.1
log date: 2016-08-18 11:35:50

––––––––––––––––––––––––––––––––––––––––
Analyzed: Rickie Lee Jones / The Other Side of Desire
––––––––––––––––––––––––––––––––––––––––

DR Peak RMS Duration Track
––––––––––––––––––––––––––––––––––––––––
DR8 -0.28 dB -10.32 dB 3:57 01-Jimmy Choos
DR11 -0.26 dB -13.04 dB 4:35 02-Valtz de Mon Pere (Lovers' Oath)
DR8 -0.20 dB -8.87 dB 3:29 03-J'ai Connais Pas
DR12 0.00 dB -13.56 dB 3:25 04-Blinded By The Hunt
DR12 -0.11 dB -15.71 dB 5:30 05-Infinity
DR12 -0.38 dB -14.43 dB 4:07 06-I Wasn't Here
DR11 -0.09 dB -14.09 dB 4:49 07-Christmas In New Orleans
DR9 -0.36 dB -11.51 dB 5:22 08-Haunted
DR11 0.00 dB -15.33 dB 6:30 09-Feet On The Ground
DR13 -6.05 dB -23.64 dB 1:27 10-Juliette
DR14 -0.26 dB -19.10 dB 3:04 11-Finale - (A Spider In The Circus Of The Falling Star)
––––––––––––––––––––––––––––––––––––––––

Number of tracks: 11
Official DR value: DR11

Samplerate: 44100 Hz
Channels: 2
Bits per sample: 16
Bitrate: 789 kbps
Codec: FLAC

[CUETools log; Date: 18.08.2016 0:58:48; Version: 2.1.4]
[CTDB TOCID: .i7IiBMsD_hetGTqONvIImi5WqM-] found.
Track | CTDB Status
1 | (94/96) Accurately ripped
2 | (95/96) Accurately ripped
3 | (95/96) Accurately ripped
4 | (95/96) Accurately ripped
5 | (95/96) Accurately ripped
6 | (94/96) Accurately ripped
7 | (95/96) Accurately ripped
8 | (95/96) Accurately ripped
9 | (95/96) Accurately ripped
10 | (95/96) Accurately ripped
11 | (95/96) Accurately ripped
[AccurateRip ID: 001360e2-00a9202f-900ad60b] found.
Track [ CRC | V2 ] Status
01 [18644ad0|296dd526] (03+72/75) Accurately ripped
02 [a9e957d7|8a6066ba] (03+71/74) Accurately ripped
03 [0a74c207|b8e1a3cd] (04+71/75) Accurately ripped
04 [a27ae63b|4dfef6a1] (04+72/76) Accurately ripped
05 [3c83f1f5|e395a021] (04+71/75) Accurately ripped
06 [0496eac8|67b007b5] (04+71/75) Accurately ripped
07 [01a4fb7c|b47a5f89] (04+71/75) Accurately ripped
08 [dd9b86b0|68ac66be] (04+71/75) Accurately ripped
09 [2fa78a3d|e397ed71] (04+70/74) Accurately ripped
10 [b222375d|b3ce12b5] (04+72/76) Accurately ripped
11 [201bc7a1|9b4a0f36] (04+72/76) Accurately ripped

Track Peak [ CRC32 ] [W/O NULL] [ LOG ]
– 100,0 [927B96CA] [77BBA3F3]
01 96,8 [00411F7A] [B50B1181] CRC32
02 97,0 [04CF7202] [D96A8427] CRC32
03 97,7 [DB0E5940] [0EB496BC] CRC32
04 100,0 [131C5BC9] [34AF2244] CRC32
05 98,6 [54785FAE] [C07D7614] CRC32
06 95,7 [19618582] [50D7CF92] CRC32
07 98,9 [11399012] [AA019B5E] CRC32
08 95,9 [1C77FDC8] [74B9D800] CRC32
09 100,0 [F7AA7E12] [A4F2145F] CRC32
10 49,8 [FDCECEED] [0C029483] CRC32
11 97,0 [44E7958F] [8A1EFD5D] CRC32

Rickie Lee Jones - The Other Side of Desire (2015)

All thanks go to the original releaser

Rickie Lee Jones in my Blog

Download Rickie Lee Jones - The Other Side of Desire (2015):