Tags
Language
Tags

Rinaldo Alessandrini, Concerto Italiano - Antonio Vivaldi: Armida al campo d'Egitto (2010)

Posted By: ArlegZ
Rinaldo Alessandrini, Concerto Italiano - Antonio Vivaldi: Armida al campo d'Egitto (2010)

Rinaldo Alessandrini, Concerto Italiano - Antonio Vivaldi: Armida al campo d'Egitto (2010)
EAC | FLAC | Image (Cue & Log) ~ 693 Mb | Total time: 62:09+67:01+41:12 | Scans included
Classical | Label: Naïve | # OP 30492 | Recorded: 2009

Armida is the tenth opera in the Vivaldi Edition; it's the second one to be recorded by Rinaldo Alessandrini (their first was L’Olimpiade). It's a great success. Marking the end of Vivaldi's first period in Venice, it lacks music for Act II. Alessandrini has reconstructed it here using carefully chosen existing music of the composer with the assistance of the musicologist Frédéric Delaméa.
First performed at Carnival in 1718, Armida al campo d'Egitto has Tasso's Gerusalemme Liberata as its source. It's a revenge drama: the somewhat self-destructive, certainly determined, Armida (Sara Mingardo) has been abandoned by Rinaldo. She travels to Gaza to wreak revenge. Intrigue, deception, gesture, sorcery, malice, much rivalry and some misunderstanding all follow. Vivaldi's music (no small thanks to the libretto by Giovanni Palazzi) explores these emotions and experiences over and above any way in which the opera exposes events in a purely narrative way.
Arias, for example, unambiguously explain why the protagonists - Armida in particular - behave the way they do. Their emotions are reinforced by Vivaldi's astonishing orchestrations with colour, changes in tempo, choice of instruments. It's not a 'psychological drama' in the way we understand such a genre in the twentieth century. But Armida al campo d'Egitto also consists of a credible critique of the destructive power of obsession.
Put another way, Vivaldi (and Palazzi) were true to Tasso. Significantly, the playing and singing respect this at every turn. There's no spurious bombast or garish effect. The remorse, malevolence, positioning for advantage and lack of detachment are all conveyed with musical dignity yet with great expression and involvement. Alessandrini has struck the idiom perfectly.
–Mark Sealey

Performer:
Califfo - Furio Zanasi
Emireno - Marina Comparato
Adrasto - Romina Basso
Tisaferno - Martín Oro
Armida - Sara Mingardo
Osmira - Monica Bacelli
Erminia - Raffaella Milanesi
Concerto Italiano
Conductor - Rinaldo Alessandrini

Track List:
CD1:
01. Sinfonia: Allegro
02. Sinfonia: (Andante)
03. Sinfonia: Allegro molto
04. Atto primo. Recitativo: Oh, dell'altera Menfi (Califfo, Emireno, Adrasto, Tisaferno, Armida)
05. Coro: Viva del Mondo il Lume (Soldati)
06. Recitativo: Ben ventura è la nostra, inclita Donna (Armida, Adrasto, Tisaferno)
07. Duo: Questo ferro, e questo core (Adrasto, Tisaferno)
08. Recitativo: Ben al mio sdegno arrida amica sorte (Armida)
09. Aria: A detti amabili (Armida)
10. Recitativo: Erminia, è sarà ver (Osmira, Erminia, Emireno)
11. Aria: Ardo sì per il mio bene (Erminia)
12. Recitativo: Principessa, ed è ver, che m'ingannai? (Emireno, Osmira)
13. Aria: Il mio fedele amor (Emireno)
14. Recitativo: Spera, ch'a tuo malgrado (Osmira, Adrasto)
15. Recitativo: Deh, principessa (Osmira, Adrasto, Tisaferno)
16. Aria: Pensa che quel bel seno (Adrasto)
17. Recitativo: Duce, non ti sgomenti (Osmira, Tisaferno)
18. Aria: Nasce da tuoi diletti (Osmira)
19. Recitativo: Se non tradisce Osmira (Tisaferno)
20. Aria: D'un bel volto arde alle face (Tisaferno)
21. Recitativo: Eccelsa Donna, al cui Regio aspetto (Califfo, Armida, Osmira)
22. Aria: So, che combatte ancor (Califfo)
23. Recitativo: Sì, ch'egli è ingiusto, Armida (Armida, Osmira)
24. Aria: Sento brillarmi in sen (Osmira)
25. Recitativo: Invan speri, ch'Adrasto (Armida, Emireno)
26. Aria: Cerca pur con men rossore (Armida, Emireno)
27. Recitativo: Arti del sdegno mio, non vi smarrite (Armida)
28. Aria: Armata di furore (Armida)
CD2:
01. Atto secondo. Recitativo: Impaziente, o Duci (Califfo)
02. Coro: Di dolci nettare (Soldati)
03. Recitativo: Per quest'alma bevanda (Emireno)
04. Coro: Dall'alta sede (Soldati)
05. Recitativo: Io pur vo consacrarmi (Adrasto, Tisaferno)
06. Coro: Ite felici (Soldati)
07. Recitativo: Ma, sola non gioisce (Califfo, Armida, Adrasto, Tisaferno, Emireno)
08. Coro: Al solo folgore (Soldati)
09. Recitativo: È sarà ver (Armida, Emireno)
10. Aria: Lascia di sospirar (Emireno)
11. Recitativo: Misera, ancor presumo (Armida, Erminia)
12. Recitativo: Giunse opportuna (Armida)
13. Duetto: Farfalletta alla sua face (Armida, Emireno)
14. Recitativo: Ma quale di speranza (Emireno, Armida)
15. Recitativo: Quest'ancora di più (Armida, Erminia)
16. Aria: Trà l'oscuro di nembi, e procelle (Armida)
17. Recitativo: Pur alfin, men crudeli (Erminia)
18. Aria: Lasciar d'amar non sò (Erminia)
19. Recitativo accompagnato: Si come cerva (Osmira)
20. Aria: Augelletti garruletti (Osmira)
21. Recitativo: È sarà vero, o bella (Armida, Adrasto, Tisaferno, Osmira)
22. Aria: Segui pur, chi t'innamora (Armida)
23. Recitativo: Or sì, scorgo (Tisaferno)
24. Aria: Quando in seno alla tua bella (Tisaferno)
25. Recitativo: Son queste le lusinghe (Osmira, Adrasto)
26. Aria: Languire costante (Osmira)
27. Recitativo: Altro amor, altra fiamma (Adrasto)
28. Aria: Tal'or il gelsomin piange nel prato (Adrasto)
29. Recitativo: Due possenti comandi (Emireno, Armida)
30. Recitativo: Quai voci? (Califfo, Armida, Emireno)
31. Recitativo: E tu, diletta principessa (Emireno, Erminia, Armida)
32. Aria: Innocente esser vorresti (Armida)
33. Recitativo: Signor, permetti almen… (Califfo, Emireno)
34. Recitativo: Invan la mia pietà tenta l’ingrato (Califfo)
35. Aria: Chi alla colpa fa tragitto (Califfo)
CD3:
01. Atto terzo. Recitativo: Tu l’intendesti, amica (Armida, Erminia)
02. Aria: Tu mi togli alle ritorte (Erminia)
03. Recitativo: Giovi ad Erminia (Armida, Adrasto)
04. Recitativo: (Infedele, che sento!) (Tisaferno, Adrasto, Armida)
05. Aria: No, bel labbro, men sdegnoso (Armida)
06. Recitativo: Fortunato rival, or ti consola (Adrasto, Tisaferno)
07. Aria: Quel torrente, ch'alza l'onde (Tisaferno)
08. Recitativo: Adrasto, ancor costante (Adrasto, Osmira)
09. Aria: Agitata de' venti dall'onde (Adrasto)
10. Recitativo: Che credo mai? Che spero? (Osmira)
11. Aria: Se correndo in seno al mare (Osmira)
12. Recitativo: No, Signor, tanto basta (Califfo, Armida, Emireno)
13. Recitativo: Armida, Signor (Osmira, Califfo, Armida)
14. Aria: Tender lacci tu volesti (Armida)
15. Recitativo: Duolmi, o Duce, il tuo fato (Osmira, Emireno)
16. Aria: Son felice è vero (Emireno) (Emireno)
17. Recitativo: Ah, ch'inutili io temo (Osmira)
18. Aria: Se penar dovessi amando (Osmira)
19. Recitativo: Renditi vinto, è per tua gloria basti (Tisaferno, Adrasto, Califfo, Armida)
20. Recitativo: Ecco il reo, Principessa (Califfo, Emireno, Armida, Erminia, Adrasto, Tisaferno, Osmira)
21. Coro: A pugnar, a ferir, a svenar (Califfo, Emireno, Armida, Erminia, Adrasto, Tisaferno, Osmira)


Exact Audio Copy V1.3 from 2. September 2016

EAC extraction logfile from 11. July 2018, 17:05

Rinaldo Alessandrini / Antonio Vivaldi: Armida

Used drive : TSSTcorpDVDWBD SE-406AB Adapter: 1 ID: 2

Read mode : Secure
Utilize accurate stream : Yes
Defeat audio cache : Yes
Make use of C2 pointers : No

Read offset correction : 6
Overread into Lead-In and Lead-Out : No
Fill up missing offset samples with silence : Yes
Delete leading and trailing silent blocks : No
Null samples used in CRC calculations : Yes
Used interface : Native Win32 interface for Win NT & 2000

Used output format : User Defined Encoder
Selected bitrate : 1024 kBit/s
Quality : High
Add ID3 tag : No
Command line compressor : C:\Program Files (x86)\Exact Audio Copy\FLAC\FLAC.EXE
Additional command line options : -8 -e -p -V -T "ARTIST=%artist%" -T "TITLE=%title%" -T "ALBUM=%albumtitle%" -T "DATE=%year%" -T "TRACKNUMBER=%tracknr%" -T "GENRE=%genre%" -T "PERFORMER=%albuminterpret%" -T "COMPOSER=%composer%" %haslyrics%–tag-from-file=LYRICS="%lyricsfile%"%haslyrics% -T "ALBUMARTIST=%albumartist%" -T "DISCNUMBER=%cdnumber%" -T "TOTALDISCS=%totalcds%" -T "TOTALTRACKS=%numtracks%" -T "COMMENT=%comment%" %source% -o %dest%


TOC of the extracted CD

Track | Start | Length | Start sector | End sector
––––––––––––––––––––––––––––-
1 | 0:00.00 | 1:40.74 | 0 | 7573
2 | 1:40.74 | 1:23.28 | 7574 | 13826
3 | 3:04.27 | 0:37.31 | 13827 | 16632
4 | 3:41.58 | 3:30.43 | 16633 | 32425
5 | 7:12.26 | 0:49.26 | 32426 | 36126
6 | 8:01.52 | 1:51.23 | 36127 | 44474
7 | 9:53.00 | 1:42.32 | 44475 | 52156
8 | 11:35.32 | 0:53.43 | 52157 | 56174
9 | 12:29.00 | 1:54.36 | 56175 | 64760
10 | 14:23.36 | 3:49.13 | 64761 | 81948
11 | 18:12.49 | 2:47.15 | 81949 | 94488
12 | 20:59.64 | 0:40.59 | 94489 | 97547
13 | 21:40.48 | 3:08.47 | 97548 | 111694
14 | 24:49.20 | 0:40.60 | 111695 | 114754
15 | 25:30.05 | 1:52.28 | 114755 | 123182
16 | 27:22.33 | 3:12.51 | 123183 | 137633
17 | 30:35.09 | 0:42.47 | 137634 | 140830
18 | 31:17.56 | 3:17.45 | 140831 | 155650
19 | 34:35.26 | 0:32.23 | 155651 | 158073
20 | 35:07.49 | 3:41.74 | 158074 | 174722
21 | 38:49.48 | 1:41.01 | 174723 | 182298
22 | 40:30.49 | 3:51.08 | 182299 | 199631
23 | 44:21.57 | 1:47.14 | 199632 | 207670
24 | 46:08.71 | 4:26.38 | 207671 | 227658
25 | 50:35.34 | 3:41.74 | 227659 | 244307
26 | 54:17.33 | 3:16.12 | 244308 | 259019
27 | 57:33.45 | 0:47.30 | 259020 | 262574
28 | 58:21.00 | 4:01.65 | 262575 | 280714


Range status and errors

Selected range

Filename K:\Rips\Vivaldi - Armida al campo d'Egitto - Alessandrini\CD1\Rinaldo Alessandrini - Antonio Vivaldi- Armida (Disc1).wav

Peak level 72.8 %
Extraction speed 2.0 X
Range quality 100.0 %
Test CRC A5097A4A
Copy CRC A5097A4A
Copy OK

No errors occurred


AccurateRip summary

Track 1 accurately ripped (confidence 19) [7F1A5EA5] (AR v2)
Track 2 accurately ripped (confidence 19) [856E805B] (AR v2)
Track 3 accurately ripped (confidence 19) [0E49CF52] (AR v2)
Track 4 accurately ripped (confidence 19) [2A304120] (AR v2)
Track 5 accurately ripped (confidence 19) [CD464FC0] (AR v2)
Track 6 accurately ripped (confidence 19) [E56E384F] (AR v2)
Track 7 accurately ripped (confidence 19) [41CBB351] (AR v2)
Track 8 accurately ripped (confidence 19) [D8CE1291] (AR v2)
Track 9 accurately ripped (confidence 19) [8FD8A265] (AR v2)
Track 10 accurately ripped (confidence 19) [E6D9806B] (AR v2)
Track 11 accurately ripped (confidence 19) [8763A7C1] (AR v2)
Track 12 accurately ripped (confidence 19) [ED03F4F2] (AR v2)
Track 13 accurately ripped (confidence 19) [BDCA64FB] (AR v2)
Track 14 accurately ripped (confidence 19) [2FC141D9] (AR v2)
Track 15 accurately ripped (confidence 19) [6F30D356] (AR v2)
Track 16 accurately ripped (confidence 19) [EF85050C] (AR v2)
Track 17 accurately ripped (confidence 19) [EEEC1C87] (AR v2)
Track 18 accurately ripped (confidence 19) [A07C9A06] (AR v2)
Track 19 accurately ripped (confidence 19) [1046B6D8] (AR v2)
Track 20 accurately ripped (confidence 19) [3984D17F] (AR v2)
Track 21 accurately ripped (confidence 19) [E259F851] (AR v2)
Track 22 accurately ripped (confidence 19) [49F14767] (AR v2)
Track 23 accurately ripped (confidence 19) [727A25D9] (AR v2)
Track 24 accurately ripped (confidence 19) [861B6015] (AR v2)
Track 25 accurately ripped (confidence 19) [9E04BB6E] (AR v2)
Track 26 accurately ripped (confidence 19) [6F69377F] (AR v2)
Track 27 accurately ripped (confidence 19) [F1FE786B] (AR v2)
Track 28 accurately ripped (confidence 19) [D8D46D0F] (AR v2)

All tracks accurately ripped

End of status report

–– CUETools DB Plugin V2.1.6

[CTDB TOCID: gZ4OY6p6jYdjA4Oh9Iwn0RvyiB0-] found
Submit result: gZ4OY6p6jYdjA4Oh9Iwn0RvyiB0- has been confirmed
Track | CTDB Status
1 | (23/23) Accurately ripped
2 | (23/23) Accurately ripped
3 | (23/23) Accurately ripped
4 | (23/23) Accurately ripped
5 | (23/23) Accurately ripped
6 | (23/23) Accurately ripped
7 | (23/23) Accurately ripped
8 | (23/23) Accurately ripped
9 | (23/23) Accurately ripped
10 | (23/23) Accurately ripped
11 | (23/23) Accurately ripped
12 | (23/23) Accurately ripped
13 | (23/23) Accurately ripped
14 | (23/23) Accurately ripped
15 | (23/23) Accurately ripped
16 | (23/23) Accurately ripped
17 | (23/23) Accurately ripped
18 | (23/23) Accurately ripped
19 | (23/23) Accurately ripped
20 | (23/23) Accurately ripped
21 | (23/23) Accurately ripped
22 | (23/23) Accurately ripped
23 | (23/23) Accurately ripped
24 | (23/23) Accurately ripped
25 | (23/23) Accurately ripped
26 | (23/23) Accurately ripped
27 | (23/23) Accurately ripped
28 | (23/23) Accurately ripped


==== Log checksum 64F2361EF7C4EC1B555A8003288AEF402F69BBBF90E05D0DAD013195211262A7 ====


Exact Audio Copy V1.3 from 2. September 2016

EAC extraction logfile from 11. July 2018, 18:05

Rinaldo Alessandrini / Antonio Vivaldi: Armida (Disc 2)

Used drive : TSSTcorpDVDWBD SE-406AB Adapter: 1 ID: 2

Read mode : Secure
Utilize accurate stream : Yes
Defeat audio cache : Yes
Make use of C2 pointers : No

Read offset correction : 6
Overread into Lead-In and Lead-Out : No
Fill up missing offset samples with silence : Yes
Delete leading and trailing silent blocks : No
Null samples used in CRC calculations : Yes
Used interface : Native Win32 interface for Win NT & 2000

Used output format : User Defined Encoder
Selected bitrate : 1024 kBit/s
Quality : High
Add ID3 tag : No
Command line compressor : C:\Program Files (x86)\Exact Audio Copy\FLAC\FLAC.EXE
Additional command line options : -8 -e -p -V -T "ARTIST=%artist%" -T "TITLE=%title%" -T "ALBUM=%albumtitle%" -T "DATE=%year%" -T "TRACKNUMBER=%tracknr%" -T "GENRE=%genre%" -T "PERFORMER=%albuminterpret%" -T "COMPOSER=%composer%" %haslyrics%–tag-from-file=LYRICS="%lyricsfile%"%haslyrics% -T "ALBUMARTIST=%albumartist%" -T "DISCNUMBER=%cdnumber%" -T "TOTALDISCS=%totalcds%" -T "TOTALTRACKS=%numtracks%" -T "COMMENT=%comment%" %source% -o %dest%


TOC of the extracted CD

Track | Start | Length | Start sector | End sector
––––––––––––––––––––––––––––-
1 | 0:00.00 | 0:34.11 | 0 | 2560
2 | 0:34.11 | 0:47.21 | 2561 | 6106
3 | 1:21.32 | 0:12.07 | 6107 | 7013
4 | 1:33.39 | 0:37.47 | 7014 | 9835
5 | 2:11.11 | 0:14.62 | 9836 | 10947
6 | 2:25.73 | 0:35.36 | 10948 | 13608
7 | 3:01.34 | 2:55.36 | 13609 | 26769
8 | 5:56.70 | 0:25.23 | 26770 | 28667
9 | 6:22.18 | 3:51.58 | 28668 | 46050
10 | 10:14.01 | 2:42.16 | 46051 | 58216
11 | 12:56.17 | 2:37.53 | 58217 | 70044
12 | 15:33.70 | 0:17.69 | 70045 | 71388
13 | 15:51.64 | 0:54.38 | 71389 | 75476
14 | 16:46.27 | 0:33.65 | 75477 | 78016
15 | 17:20.17 | 0:41.29 | 78017 | 81120
16 | 18:01.46 | 3:00.53 | 81121 | 94673
17 | 21:02.24 | 0:19.40 | 94674 | 96138
18 | 21:21.64 | 3:27.42 | 96139 | 111705
19 | 24:49.31 | 1:28.23 | 111706 | 118328
20 | 26:17.54 | 1:53.53 | 118329 | 126856
21 | 28:11.32 | 2:21.29 | 126857 | 137460
22 | 30:32.61 | 2:11.02 | 137461 | 147287
23 | 32:43.63 | 0:45.12 | 147288 | 150674
24 | 33:29.00 | 5:45.49 | 150675 | 176598
25 | 39:14.49 | 0:48.59 | 176599 | 180257
26 | 40:03.33 | 4:51.12 | 180258 | 202094
27 | 44:54.45 | 0:38.69 | 202095 | 205013
28 | 45:33.39 | 3:47.12 | 205014 | 222050
29 | 49:20.51 | 2:57.50 | 222051 | 235375
30 | 52:18.26 | 2:29.23 | 235376 | 246573
31 | 54:47.49 | 1:32.21 | 246574 | 253494
32 | 56:19.70 | 4:03.49 | 253495 | 271768
33 | 60:23.44 | 1:39.67 | 271769 | 279260
34 | 62:03.36 | 0:24.43 | 279261 | 281103
35 | 62:28.04 | 4:50.28 | 281104 | 302881


Range status and errors

Selected range

Filename K:\Rips\Vivaldi - Armida al campo d'Egitto - Alessandrini\CD2\Rinaldo Alessandrini - Antonio Vivaldi- Armida (Disc 2).wav

Peak level 79.5 %
Extraction speed 3.6 X
Range quality 99.9 %
Test CRC C444622C
Copy CRC C444622C
Copy OK

No errors occurred


AccurateRip summary

Track 1 accurately ripped (confidence 19) [0DE0DE53] (AR v2)
Track 2 accurately ripped (confidence 19) [2166ED9B] (AR v2)
Track 3 accurately ripped (confidence 19) [6B9D9884] (AR v2)
Track 4 accurately ripped (confidence 19) [5C028BC4] (AR v2)
Track 5 accurately ripped (confidence 19) [D285A1C6] (AR v2)
Track 6 accurately ripped (confidence 19) [054FC61F] (AR v2)
Track 7 accurately ripped (confidence 19) [F8797F1E] (AR v2)
Track 8 accurately ripped (confidence 19) [8CE7CCB8] (AR v2)
Track 9 accurately ripped (confidence 19) [750E95BC] (AR v2)
Track 10 accurately ripped (confidence 19) [4EFDB36D] (AR v2)
Track 11 accurately ripped (confidence 19) [8715519A] (AR v2)
Track 12 accurately ripped (confidence 19) [05AF88CA] (AR v2)
Track 13 accurately ripped (confidence 19) [472CEE48] (AR v2)
Track 14 accurately ripped (confidence 19) [02AA4D51] (AR v2)
Track 15 accurately ripped (confidence 19) [F4A29F30] (AR v2)
Track 16 accurately ripped (confidence 19) [88B8AA45] (AR v2)
Track 17 accurately ripped (confidence 19) [AA21FD47] (AR v2)
Track 18 accurately ripped (confidence 19) [407FF1D8] (AR v2)
Track 19 accurately ripped (confidence 19) [489020F2] (AR v2)
Track 20 accurately ripped (confidence 19) [387AE381] (AR v2)
Track 21 accurately ripped (confidence 19) [8CEDD3A7] (AR v2)
Track 22 accurately ripped (confidence 19) [5543114E] (AR v2)
Track 23 accurately ripped (confidence 19) [B80AC8AE] (AR v2)
Track 24 accurately ripped (confidence 19) [550684A5] (AR v2)
Track 25 accurately ripped (confidence 19) [D681F721] (AR v2)
Track 26 accurately ripped (confidence 19) [A5183AAB] (AR v2)
Track 27 accurately ripped (confidence 19) [28EBAD26] (AR v2)
Track 28 accurately ripped (confidence 19) [B243D5EE] (AR v2)
Track 29 accurately ripped (confidence 19) [0A3B881C] (AR v2)
Track 30 accurately ripped (confidence 19) [A6E13F2E] (AR v2)
Track 31 accurately ripped (confidence 19) [1A09FD2A] (AR v2)
Track 32 accurately ripped (confidence 19) [FCD5703D] (AR v2)
Track 33 accurately ripped (confidence 19) [18AB4450] (AR v2)
Track 34 accurately ripped (confidence 19) [7A2C66F5] (AR v2)
Track 35 accurately ripped (confidence 19) [C81916DA] (AR v2)

All tracks accurately ripped

End of status report

–– CUETools DB Plugin V2.1.6

[CTDB TOCID: orGpGtLRaHjVYEwvsiuka9kqBqc-] found
Submit result: orGpGtLRaHjVYEwvsiuka9kqBqc- has been confirmed
Track | CTDB Status
1 | (23/23) Accurately ripped
2 | (23/23) Accurately ripped
3 | (23/23) Accurately ripped
4 | (23/23) Accurately ripped
5 | (23/23) Accurately ripped
6 | (23/23) Accurately ripped
7 | (23/23) Accurately ripped
8 | (23/23) Accurately ripped
9 | (23/23) Accurately ripped
10 | (23/23) Accurately ripped
11 | (23/23) Accurately ripped
12 | (23/23) Accurately ripped
13 | (23/23) Accurately ripped
14 | (23/23) Accurately ripped
15 | (23/23) Accurately ripped
16 | (23/23) Accurately ripped
17 | (23/23) Accurately ripped
18 | (23/23) Accurately ripped
19 | (23/23) Accurately ripped
20 | (23/23) Accurately ripped
21 | (23/23) Accurately ripped
22 | (23/23) Accurately ripped
23 | (23/23) Accurately ripped
24 | (23/23) Accurately ripped
25 | (23/23) Accurately ripped
26 | (23/23) Accurately ripped
27 | (23/23) Accurately ripped
28 | (23/23) Accurately ripped
29 | (23/23) Accurately ripped
30 | (23/23) Accurately ripped
31 | (23/23) Accurately ripped
32 | (23/23) Accurately ripped
33 | (23/23) Accurately ripped
34 | (23/23) Accurately ripped
35 | (23/23) Accurately ripped


==== Log checksum 1E0A71DC2CAE9BB8AF1663E36216CAD6E853F95DEB31CDD115D84D381D05C13A ====


Exact Audio Copy V1.3 from 2. September 2016

EAC extraction logfile from 11. July 2018, 20:28

Rinaldo Alessandrini / Antonio Vivaldi: Armida (Disc 3)

Used drive : TSSTcorpDVDWBD SE-406AB Adapter: 1 ID: 2

Read mode : Secure
Utilize accurate stream : Yes
Defeat audio cache : Yes
Make use of C2 pointers : No

Read offset correction : 6
Overread into Lead-In and Lead-Out : No
Fill up missing offset samples with silence : Yes
Delete leading and trailing silent blocks : No
Null samples used in CRC calculations : Yes
Used interface : Native Win32 interface for Win NT & 2000

Used output format : User Defined Encoder
Selected bitrate : 1024 kBit/s
Quality : High
Add ID3 tag : No
Command line compressor : C:\Program Files (x86)\Exact Audio Copy\FLAC\FLAC.EXE
Additional command line options : -8 -e -p -V -T "ARTIST=%artist%" -T "TITLE=%title%" -T "ALBUM=%albumtitle%" -T "DATE=%year%" -T "TRACKNUMBER=%tracknr%" -T "GENRE=%genre%" -T "PERFORMER=%albuminterpret%" -T "COMPOSER=%composer%" %haslyrics%–tag-from-file=LYRICS="%lyricsfile%"%haslyrics% -T "ALBUMARTIST=%albumartist%" -T "DISCNUMBER=%cdnumber%" -T "TOTALDISCS=%totalcds%" -T "TOTALTRACKS=%numtracks%" -T "COMMENT=%comment%" %source% -o %dest%


TOC of the extracted CD

Track | Start | Length | Start sector | End sector
––––––––––––––––––––––––––––-
1 | 0:00.00 | 1:04.10 | 0 | 4809
2 | 1:04.10 | 2:44.66 | 4810 | 17175
3 | 3:49.01 | 2:09.67 | 17176 | 26917
4 | 5:58.68 | 0:57.10 | 26918 | 31202
5 | 6:56.03 | 2:22.54 | 31203 | 41906
6 | 9:18.57 | 0:40.55 | 41907 | 44961
7 | 9:59.37 | 3:00.37 | 44962 | 58498
8 | 12:59.74 | 1:01.61 | 58499 | 63134
9 | 14:01.60 | 3:34.19 | 63135 | 79203
10 | 17:36.04 | 0:36.30 | 79204 | 81933
11 | 18:12.34 | 3:28.66 | 81934 | 97599
12 | 21:41.25 | 3:19.14 | 97600 | 112538
13 | 25:00.39 | 0:49.26 | 112539 | 116239
14 | 25:49.65 | 3:38.55 | 116240 | 132644
15 | 29:28.45 | 0:28.51 | 132645 | 134795
16 | 29:57.21 | 4:11.67 | 134796 | 153687
17 | 34:09.13 | 0:34.06 | 153688 | 156243
18 | 34:43.19 | 1:55.52 | 156244 | 164920
19 | 36:38.71 | 0:37.65 | 164921 | 167760
20 | 37:16.61 | 3:19.36 | 167761 | 182721
21 | 40:36.22 | 0:47.24 | 182722 | 186270


Range status and errors

Selected range

Filename K:\Rips\Vivaldi - Armida al campo d'Egitto - Alessandrini\CD3\Rinaldo Alessandrini - Antonio Vivaldi- Armida (Disc 3).wav

Peak level 79.4 %
Extraction speed 1.8 X
Range quality 100.0 %
Test CRC AB5FA56E
Copy CRC AB5FA56E
Copy OK

No errors occurred


AccurateRip summary

Track 1 accurately ripped (confidence 19) [B747DA11] (AR v2)
Track 2 accurately ripped (confidence 19) [37CEFA05] (AR v2)
Track 3 accurately ripped (confidence 19) [BA0ABA7A] (AR v2)
Track 4 accurately ripped (confidence 19) [BF2B4E2E] (AR v2)
Track 5 accurately ripped (confidence 19) [6DD1C5A5] (AR v2)
Track 6 accurately ripped (confidence 19) [EC4B5113] (AR v2)
Track 7 accurately ripped (confidence 19) [E1A5FACB] (AR v2)
Track 8 accurately ripped (confidence 19) [11DA45B1] (AR v2)
Track 9 accurately ripped (confidence 19) [04A34633] (AR v2)
Track 10 accurately ripped (confidence 19) [E33A8D00] (AR v2)
Track 11 accurately ripped (confidence 19) [912171B5] (AR v2)
Track 12 accurately ripped (confidence 19) [DBCEBEEE] (AR v2)
Track 13 accurately ripped (confidence 19) [21144E52] (AR v2)
Track 14 accurately ripped (confidence 19) [A97E53CD] (AR v2)
Track 15 accurately ripped (confidence 19) [22B370EE] (AR v2)
Track 16 accurately ripped (confidence 18) [9E90D59B] (AR v2)
Track 17 accurately ripped (confidence 19) [7BBCCFFA] (AR v2)
Track 18 accurately ripped (confidence 19) [ADFBA7D4] (AR v2)
Track 19 accurately ripped (confidence 19) [5711751D] (AR v2)
Track 20 accurately ripped (confidence 19) [68F66191] (AR v2)
Track 21 accurately ripped (confidence 19) [FFBEAD93] (AR v2)

All tracks accurately ripped

End of status report

–– CUETools DB Plugin V2.1.6

[CTDB TOCID: 9ikpurB4k1wK9.HUUJWLxvjQBIY-] found
Submit result: 9ikpurB4k1wK9.HUUJWLxvjQBIY- has been confirmed
Track | CTDB Status
1 | (23/23) Accurately ripped
2 | (23/23) Accurately ripped
3 | (23/23) Accurately ripped
4 | (23/23) Accurately ripped
5 | (23/23) Accurately ripped
6 | (23/23) Accurately ripped
7 | (23/23) Accurately ripped
8 | (23/23) Accurately ripped
9 | (23/23) Accurately ripped
10 | (23/23) Accurately ripped
11 | (23/23) Accurately ripped
12 | (23/23) Accurately ripped
13 | (23/23) Accurately ripped
14 | (23/23) Accurately ripped
15 | (23/23) Accurately ripped
16 | (23/23) Accurately ripped
17 | (23/23) Accurately ripped
18 | (23/23) Accurately ripped
19 | (23/23) Accurately ripped
20 | (23/23) Accurately ripped
21 | (23/23) Accurately ripped


==== Log checksum 40AEBC210B6923050D804DFB41F846BD75E068440878390128B130E2865ABA17 ====

Rinaldo Alessandrini, Concerto Italiano - Antonio Vivaldi: Armida al campo d'Egitto (2010)

Thanks to the original releaser