Tags
Language
Tags
June 2024
Su Mo Tu We Th Fr Sa
26 27 28 29 30 31 1
2 3 4 5 6 7 8
9 10 11 12 13 14 15
16 17 18 19 20 21 22
23 24 25 26 27 28 29
30 1 2 3 4 5 6

Ringo Starr And His All Starr Band - The Anthology... So Far (2001) [2012, 3CD Set]

Posted By: v3122
Ringo Starr And His All Starr Band - The Anthology... So Far (2001) [2012, 3CD Set]

Ringo Starr And His All Starr Band - The Anthology… So Far (2001)
EAC | Flac(Image) + Cue + Log & MP3 CBR 320Kbps
Eagle EDGCD484 | ~ 1425 or 500 Mb | Artwork(jpg) -> 60 Mb
Classic Rock / Pop Rock

Spanning three discs and 47 tracks, The Anthology So Far collects highlights from all of Ringo Starr & His All Starr Band tours, which means it doesn't just have hits from Ringo (basically, all of his solo and Beatles anthems), it also has signature songs from fellow classic rockers like Dr. John, Levon Helm, Rick Danko, Joe Walsh, John Entwistle, Dave Edmunds, Timothy B Schmidt, Felix Cavaliere, Randy Bachman, Burton Commings, Peter Frampton, Simon Kirke, Jack Bruce, Eric Carmen, and the great Todd Rundgren. In other words, this is the best of the oldies and, if it's taken for what it is, it's not bad. It's entertaining, well-performed, and filled with songs you know and (if you're listening to this) love. That doesn't make it necessary, of course, but it is a nostalgic good time if that's what you're looking for.

by Stephen Thomas Erlewine, allmusic
Ringo Starr And His All Starr Band - The Anthology… So Far (2001):

Ringo Starr And His All Starr Band - The Anthology... So Far (2001) [2012, 3CD Set]

Tracklist CD1:

01. It Don't Come Easy 3:15
02. The No-No Song 3:32
03. Iko-Iko (Dr. John) 6:10
04. The Weight (Levon Helm) 5:58
05. Shine Silently (Nils Lofgren) 6:46
06. Honey Don't 2:40
07. Quarter To Three (Clarence Clemons) 3:55
08. Raining In My Heart (Rick Danko) 5:21
09. Will It Go Round In Circles (Billy Preston) 4:22
10. Life In The Fast Lane (Joe Walsh) 6:48
11. Desperado (Joe Walsh) 3:00
12. Norwegian Wood (Peter Frampton) 2:54
13. Walking Nerve (Nils Lofgren) 4:28
14. Boris The Spider (John Entwistle) 2:41
15. You're Sixteen, You're Beautiful And You're Mine 3:15
16. Photograph 4:22

Exact Audio Copy V0.99 prebeta 5 from 4. May 2009

Отчёт EAC об извлечении, выполненном 4. февраля 2015, 21:41

Ringo Starr And His All Starr Band / The Anthology …. So Far (Disc 1)

Дисковод: SONY BD RW BDX-S500U Adapter: 1 ID: 0

Режим чтения : Достоверность
Использование точного потока : Да
Отключение кэша аудио : Да
Использование указателей C2 : Нет

Коррекция смещения при чтении : 48
Способность читать области Lead-in и Lead-out : Нет
Заполнение пропущенных сэмплов тишиной : Да
Удаление блоков с тишиной в начале и конце : Нет
При вычислениях CRC использовались нулевые сэмплы : Да
Интерфейс : Встроенный Win32-интерфейс для Win NT/2000

Выходной формат : Внутренние WAV-операции
Формат сэмплов : 44.100 Гц; 16 бит; стерео


TOC извлечённого CD

Трек | Старт | Длительность | Начальный сектор | Конечный сектор
––––––––––––––––––––––––––––––––––-
1 | 0:00.00 | 3:15.05 | 0 | 14629
2 | 3:15.05 | 3:31.55 | 14630 | 30509
3 | 6:46.60 | 6:09.69 | 30510 | 58253
4 | 12:56.54 | 5:58.03 | 58254 | 85106
5 | 18:54.57 | 6:46.02 | 85107 | 115558
6 | 25:40.59 | 2:40.09 | 115559 | 127567
7 | 28:20.68 | 3:54.61 | 127568 | 145178
8 | 32:15.54 | 5:20.63 | 145179 | 169241
9 | 37:36.42 | 4:22.11 | 169242 | 188902
10 | 41:58.53 | 6:47.43 | 188903 | 219470
11 | 48:46.21 | 2:59.48 | 219471 | 232943
12 | 51:45.69 | 2:54.13 | 232944 | 246006
13 | 54:40.07 | 4:28.08 | 246007 | 266114
14 | 59:08.15 | 2:41.10 | 266115 | 278199
15 | 61:49.25 | 3:15.20 | 278200 | 292844
16 | 65:04.45 | 4:22.12 | 292845 | 312506


Характеристики диапазона извлечения и сообщения об ошибках

Выбранный диапазон

Имя файла G:\Ringo_Anthology\Ringo Starr And His All Starr Band - The Anthology …. So Far (Disc 1).wav

Пиковый уровень 100.0 %
Качество диапазона 99.9 %
CRC теста D72C330F
CRC копии D72C330F
Копирование… OK

Ошибок не произошло


AccurateRip: сводка

Трек 1 точность не определена (достоверность 7) [4128B340], AccurateRip вернул [70F63687]
Трек 2 точность не определена (достоверность 7) [20E6F479], AccurateRip вернул [F1AF274B]
Трек 3 точность не определена (достоверность 7) [5BD4A636], AccurateRip вернул [DC038C47]
Трек 4 точность не определена (достоверность 7) [71095300], AccurateRip вернул [208A8DDF]
Трек 5 точность не определена (достоверность 7) [7362C387], AccurateRip вернул [B1E6F1DE]
Трек 6 точность не определена (достоверность 7) [1C65039B], AccurateRip вернул [504C25D6]
Трек 7 точность не определена (достоверность 7) [0586725B], AccurateRip вернул [E936E74D]
Трек 8 точность не определена (достоверность 7) [36BFE938], AccurateRip вернул [D8315622]
Трек 9 точность не определена (достоверность 7) [C98B7950], AccurateRip вернул [9C9C2E92]
Трек 10 точность не определена (достоверность 7) [A298F4CB], AccurateRip вернул [9131D732]
Трек 11 точность не определена (достоверность 8) [A320C781], AccurateRip вернул [0C0E8AEB]
Трек 12 точность не определена (достоверность 8) [63F96EE4], AccurateRip вернул [61712612]
Трек 13 точность не определена (достоверность 8) [B7274E71], AccurateRip вернул [753E5698]
Трек 14 точность не определена (достоверность 8) [09DF8E1C], AccurateRip вернул [0FDA685A]
Трек 15 точность не определена (достоверность 8) [A36F5D95], AccurateRip вернул [8FAE1D5B]
Трек 16 точность не определена (достоверность 8) [F36B07AF], AccurateRip вернул [B5661416]

Ни один трек не прошёл проверки на точность
В вашей базе может быть иной вариант штамповки диска

Конец отчёта


[CUETools log; Date: 02.03.2015 20:31:05; Version: 2.1.5]
[CTDB TOCID: NcYKiSdXunFqrgiFqStUNYnMoZs-] found.
Track | CTDB Status
1 | (6/6) Accurately ripped
2 | (6/6) Accurately ripped
3 | (6/6) Accurately ripped
4 | (6/6) Accurately ripped
5 | (6/6) Accurately ripped
6 | (6/6) Accurately ripped
7 | (6/6) Accurately ripped
8 | (6/6) Accurately ripped
9 | (6/6) Accurately ripped
10 | (6/6) Accurately ripped
11 | (6/6) Accurately ripped
12 | (6/6) Accurately ripped
13 | (6/6) Accurately ripped
14 | (6/6) Accurately ripped
15 | (6/6) Accurately ripped
16 | (6/6) Accurately ripped
[AccurateRip ID: 002a7741-01fb420d-de104610] found.
Track [ CRC | V2 ] Status
01 [4128b340|e6aae9ea] (00+00/20) No match
02 [20e6f479|3b8f1424] (00+00/20) No match
03 [5bd4a636|f6d0914e] (00+00/20) No match
04 [71095300|fe81358f] (00+00/20) No match
05 [7362c387|62df7ed7] (00+00/20) No match
06 [1c65039b|db9f751d] (00+00/20) No match
07 [0586725b|3071e814] (00+00/20) No match
08 [36bfe938|6402c189] (00+00/20) No match
09 [c98b7950|636bd6b0] (00+00/20) No match
10 [a298f4cb|b563f36d] (00+00/20) No match
11 [a320c781|ad825939] (00+00/21) No match
12 [63f96ee4|f82d4f38] (00+00/21) No match
13 [b7274e71|ab5813f5] (00+00/20) No match
14 [09df8e1c|e78d04b2] (00+00/21) No match
15 [a36f5d95|b9c67d56] (00+00/21) No match
16 [f36b07af|ebfe049c] (00+00/21) No match
Offsetted by -102:
01 [b19dd69c] (02/20) Accurately ripped
02 [82b7c2a1] (02/20) Accurately ripped
03 [6965c6b1] (02/20) Accurately ripped
04 [3602330f] (02/20) Accurately ripped
05 [2ba3fde9] (02/20) Accurately ripped
06 [5ee44301] (02/20) Accurately ripped
07 [88abf957] (02/20) Accurately ripped
08 [be8c8723] (02/20) Accurately ripped
09 [99e86d28] (02/20) Accurately ripped
10 [07e9d6c1] (02/20) Accurately ripped
11 [e6a7a4b7] (02/21) Accurately ripped
12 [04f2b107] (02/21) Accurately ripped
13 [4aed9acf] (02/20) Accurately ripped
14 [1d2bb6ce] (02/21) Accurately ripped
15 [173800a9] (02/21) Accurately ripped
16 [9a7ed515] (02/21) Accurately ripped
Offsetted by -98:
01 [70f63687] (07/20) Accurately ripped
02 [f1af274b] (07/20) Accurately ripped
03 [dc038c47] (07/20) Accurately ripped
04 [208a8ddf] (07/20) Accurately ripped
05 [b1e6f1de] (07/20) Accurately ripped
06 [504c25d6] (07/20) Accurately ripped
07 [e936e74d] (07/20) Accurately ripped
08 [d8315622] (07/20) Accurately ripped
09 [9c9c2e92] (07/20) Accurately ripped
10 [9131d732] (07/20) Accurately ripped
11 [0c0e8aeb] (08/21) Accurately ripped
12 [61712612] (08/21) Accurately ripped
13 [753e5698] (08/20) Accurately ripped
14 [0fda685a] (08/21) Accurately ripped
15 [8fae1d5b] (08/21) Accurately ripped
16 [b5661416] (08/21) Accurately ripped
Offsetted by 48:
01 [fefe11f7] (02/20) Accurately ripped
02 [0951091d] (02/20) Accurately ripped
03 [7156452d] (02/20) Accurately ripped
04 [323d7b73] (02/20) Accurately ripped
05 [b5811912] (02/20) Accurately ripped
06 [dd5f8308] (02/20) Accurately ripped
07 [e8696ca7] (02/20) Accurately ripped
08 [410c8059] (02/20) Accurately ripped
09 [bff78a53] (02/20) Accurately ripped
10 [ef431e25] (02/20) Accurately ripped
11 [3b2ccc39] (02/21) Accurately ripped
12 [d0dc97f4] (02/21) Accurately ripped
13 [ee2ea04f] (02/20) Accurately ripped
14 [0e5a31ec] (02/21) Accurately ripped
15 [8e7ca4f4] (02/21) Accurately ripped
16 [33ee4d3b] (02/21) Accurately ripped

Track Peak [ CRC32 ] [W/O NULL] [ LOG ]
– 100,0 [D72C330F] [443D9D90] CRC32
01 96,4 [E016FA83] [37F51175]
02 89,8 [B8819C2E] [1B8A7C3A]
03 90,2 [6552C1DD] [184718B8]
04 87,5 [6DC43A1C] [91F9DF45]
05 100,0 [FFB15C73] [03BBD682]
06 97,6 [B435AE89] [F4C77660]
07 98,4 [0D7E038D] [CC0434C1]
08 89,4 [D37844D9] [80404FE8]
09 91,8 [F7224BB5] [15F91630]
10 99,1 [B2ED5E45] [B0E87E4D]
11 100,0 [4E8C97A7] [65A32E2A]
12 99,7 [D308A480] [E1586F79]
13 100,0 [C091F835] [DF061AC1]
14 99,8 [67F3E685] [B9B3D9B6]
15 100,0 [B4F1F620] [955A3157]
16 100,0 [94CCAFB0] [8C4A139B]


Ringo Starr And His All Starr Band - The Anthology... So Far (2001) [2012, 3CD Set]

Tracklist CD2:

01. The Really Serious Introduction 2:01
02. I'm The Greatest 3:30
03. Don't Go Where The Road Don't Go 4:28
04. I Can't Tell You Why (Timothy B. Schmidt) 5:10
05. Girls Talk (Dave Edmunds) 3:32
06. People Got To Be Free (Felix Cavaliere) 4:54
07. Groovin' (Felix Cavaliere) 4:58
08. Act Naturally 2:42
09. Takin' Care Of Business (Randy Bachman) 7:38
10. You Ain't Seen Nothin' Yet (Randy Bachman) 3:45
11. In The City (Joe Walsh) 4:56
12. Bang The Drum All Day (Todd Rundgren) 3:35
13. Black Maria (Todd Rundgren) 5:32
14. American Woman (Burton Cummings) 6:00
15. Weight Of The World 3:37
16. Back Off Boogaloo 3:20

Exact Audio Copy V0.99 prebeta 5 from 4. May 2009

Отчёт EAC об извлечении, выполненном 4. февраля 2015, 22:07

Ringo Starr and his All Starr Band / The Anthology… So Far (Disc 2)

Дисковод: SONY BD RW BDX-S500U Adapter: 1 ID: 0

Режим чтения : Достоверность
Использование точного потока : Да
Отключение кэша аудио : Да
Использование указателей C2 : Нет

Коррекция смещения при чтении : 48
Способность читать области Lead-in и Lead-out : Нет
Заполнение пропущенных сэмплов тишиной : Да
Удаление блоков с тишиной в начале и конце : Нет
При вычислениях CRC использовались нулевые сэмплы : Да
Интерфейс : Встроенный Win32-интерфейс для Win NT/2000

Выходной формат : Внутренние WAV-операции
Формат сэмплов : 44.100 Гц; 16 бит; стерео


TOC извлечённого CD

Трек | Старт | Длительность | Начальный сектор | Конечный сектор
––––––––––––––––––––––––––––––––––-
1 | 0:00.00 | 2:01.37 | 0 | 9111
2 | 2:01.37 | 3:30.17 | 9112 | 24878
3 | 5:31.54 | 4:28.32 | 24879 | 45010
4 | 10:00.11 | 5:09.72 | 45011 | 68257
5 | 15:10.08 | 3:31.66 | 68258 | 84148
6 | 18:41.74 | 4:53.72 | 84149 | 106195
7 | 23:35.71 | 4:58.15 | 106196 | 128560
8 | 28:34.11 | 2:41.64 | 128561 | 140699
9 | 31:16.00 | 7:37.73 | 140700 | 175047
10 | 38:53.73 | 3:45.26 | 175048 | 191948
11 | 42:39.24 | 4:55.58 | 191949 | 214131
12 | 47:35.07 | 3:34.43 | 214132 | 230224
13 | 51:09.50 | 5:32.19 | 230225 | 255143
14 | 56:41.69 | 5:59.38 | 255144 | 282106
15 | 62:41.32 | 3:36.66 | 282107 | 298372
16 | 66:18.23 | 3:19.64 | 298373 | 313361


Характеристики диапазона извлечения и сообщения об ошибках

Выбранный диапазон

Имя файла G:\Ringo_Anthology\Disc2\Ringo Starr and his All Starr Band - The Anthology… So Far (Disc 2).wav

Пиковый уровень 100.0 %
Качество диапазона 100.0 %
CRC теста B68DEF28
CRC копии B68DEF28
Копирование… OK

Ошибок не произошло


AccurateRip: сводка

Трек 1 точность не определена (достоверность 7) [3F05700F], AccurateRip вернул [6C85BABA]
Трек 2 точность не определена (достоверность 7) [FDBA25EC], AccurateRip вернул [33AE8F9B]
Трек 3 точность не определена (достоверность 7) [939E76C8], AccurateRip вернул [23250C1B]
Трек 4 точность не определена (достоверность 7) [3B1181C8], AccurateRip вернул [2E486982]
Трек 5 точность не определена (достоверность 7) [99D4F27A], AccurateRip вернул [FF1EFDDA]
Трек 6 точность не определена (достоверность 7) [D6BD7D95], AccurateRip вернул [C930444E]
Трек 7 точность не определена (достоверность 7) [454BA984], AccurateRip вернул [454A30BB]
Трек 8 точность не определена (достоверность 7) [ED3F355C], AccurateRip вернул [CDC7E409]
Трек 9 точность не определена (достоверность 7) [641930A8], AccurateRip вернул [1D8843D9]
Трек 10 точность не определена (достоверность 7) [3ECE6A02], AccurateRip вернул [B073531D]
Трек 11 точность не определена (достоверность 7) [E99D83AE], AccurateRip вернул [65E921B7]
Трек 12 точность не определена (достоверность 7) [947E9548], AccurateRip вернул [B0A4481C]
Трек 13 точность не определена (достоверность 7) [DA4C7C6E], AccurateRip вернул [5D05DD89]
Трек 14 точность не определена (достоверность 7) [1F27DE25], AccurateRip вернул [E750C0F4]
Трек 15 точность не определена (достоверность 7) [DEC87B47], AccurateRip вернул [89CA630D]
Трек 16 точность не определена (достоверность 7) [B90C6BEC], AccurateRip вернул [87938BB5]

Ни один трек не прошёл проверки на точность
В вашей базе может быть иной вариант штамповки диска

Конец отчёта


[CUETools log; Date: 02.03.2015 20:31:47; Version: 2.1.5]
[CTDB TOCID: x0eRlvdG07mM_9uBjRFWDtXeKrg-] found.
Track | CTDB Status
1 | (7/7) Accurately ripped
2 | (7/7) Accurately ripped
3 | (7/7) Accurately ripped
4 | (7/7) Accurately ripped
5 | (7/7) Accurately ripped
6 | (7/7) Accurately ripped
7 | (7/7) Accurately ripped
8 | (7/7) Accurately ripped
9 | (7/7) Accurately ripped
10 | (7/7) Accurately ripped
11 | (7/7) Accurately ripped
12 | (7/7) Accurately ripped
13 | (7/7) Accurately ripped
14 | (7/7) Accurately ripped
15 | (6/7) Accurately ripped, or (1/7) differs in 1177 samples @00:14:19-00:14:20
16 | (6/7) Accurately ripped, or (1/7) differs in 2354 samples @01:39:20-01:39:21,01:57:04-01:57:05
[AccurateRip ID: 00272c26-01e071d5-cd105210] found.
Track [ CRC | V2 ] Status
01 [3f05700f|2022d533] (00+00/23) No match
02 [fdba25ec|151f3cbd] (00+00/26) No match
03 [939e76c8|7de8508c] (00+00/23) No match
04 [3b1181c8|c43f0b6e] (00+00/27) No match
05 [99d4f27a|00c6d78b] (00+00/25) No match
06 [d6bd7d95|98cea5f8] (00+00/27) No match
07 [454ba984|8cb3a562] (00+00/27) No match
08 [ed3f355c|650038c2] (00+00/25) No match
09 [641930a8|5e10bee1] (00+00/25) No match
10 [3ece6a02|ee926659] (00+00/27) No match
11 [e99d83ae|9f3d2f5a] (00+00/26) No match
12 [947e9548|9e2ea4d8] (00+00/25) No match
13 [da4c7c6e|e604b17e] (00+00/25) No match
14 [1f27de25|54fb24da] (00+00/27) No match
15 [dec87b47|dcf4edbd] (00+00/25) No match
16 [b90c6bec|aa3086f1] (00+00/27) No match
Offsetted by -258:
01 [6c85baba] (07/23) Accurately ripped
02 [33ae8f9b] (07/26) Accurately ripped
03 [23250c1b] (07/23) Accurately ripped
04 [2e486982] (07/27) Accurately ripped
05 [ff1efdda] (07/25) Accurately ripped
06 [c930444e] (07/27) Accurately ripped
07 [454a30bb] (07/27) Accurately ripped
08 [cdc7e409] (07/25) Accurately ripped
09 [1d8843d9] (07/25) Accurately ripped
10 [b073531d] (07/27) Accurately ripped
11 [65e921b7] (07/26) Accurately ripped
12 [b0a4481c] (07/25) Accurately ripped
13 [5d05dd89] (07/25) Accurately ripped
14 [e750c0f4] (07/27) Accurately ripped
15 [89ca630d] (07/25) Accurately ripped
16 [87938bb5] (07/27) Accurately ripped
Offsetted by -102:
01 [8559a16b] (02/23) Accurately ripped
02 [01dcada4] (02/26) Accurately ripped
03 [7995e42f] (02/23) Accurately ripped
04 [d1167163] (02/27) Accurately ripped
05 [d040f29a] (02/25) Accurately ripped
06 [3bf4328b] (02/27) Accurately ripped
07 [ef826ea8] (02/27) Accurately ripped
08 [0d90146d] (02/25) Accurately ripped
09 [1bc740b3] (02/25) Accurately ripped
10 [10458885] (02/27) Accurately ripped
11 [8c13cdd4] (02/26) Accurately ripped
12 [1317bb98] (02/25) Accurately ripped
13 [9ebbbaec] (02/25) Accurately ripped
14 [e0937e0a] (02/27) Accurately ripped
15 [fd6fa3f8] (02/25) Accurately ripped
16 [c2aa9b31] (02/27) Accurately ripped
Offsetted by -616:
01 [3d1fc321] (05/23) Accurately ripped
02 [1890a98a] (06/26) Accurately ripped
03 [baef8907] (05/23) Accurately ripped
04 [1b1f2fa9] (05/27) Accurately ripped
05 [58c1c250] (05/25) Accurately ripped
06 [01596023] (05/27) Accurately ripped
07 [d0031a44] (05/27) Accurately ripped
08 [310b730d] (05/25) Accurately ripped
09 [2ab207d8] (05/25) Accurately ripped
10 [874f291c] (05/27) Accurately ripped
11 [810ca667] (05/26) Accurately ripped
12 [819bd096] (05/25) Accurately ripped
13 [125a21f4] (05/25) Accurately ripped
14 [902c0249] (05/27) Accurately ripped
15 [d278b82b] (00/25) No match (V2 was not tested)
16 [153d8bc4] (00/27) No match (V2 was not tested)
Offsetted by 48:
01 [fc6d709d] (00/23) No match (V2 was not tested)
02 [93d83454] (02/26) Accurately ripped
03 [d1f68657] (00/23) No match (V2 was not tested)
04 [3c2a8abe] (02/27) Accurately ripped
05 [d4176b91] (02/25) Accurately ripped
06 [faf2e1e9] (02/27) Accurately ripped
07 [75fd5709] (02/27) Accurately ripped
08 [71b95b87] (00/25) No match (V2 was not tested)
09 [e4b23bee] (00/25) No match (V2 was not tested)
10 [9e655e32] (02/27) Accurately ripped
11 [4c1aa0ca] (02/26) Accurately ripped
12 [574d598d] (02/25) Accurately ripped
13 [0e39142a] (02/25) Accurately ripped
14 [8bb10836] (02/27) Accurately ripped
15 [37fd5055] (02/25) Accurately ripped
16 [096f30ec] (02/27) Accurately ripped

Track Peak [ CRC32 ] [W/O NULL] [ LOG ]
– 100,0 [B68DEF28] [92D7222A] CRC32
01 98,8 [65079AF7] [D4C5E76A]
02 98,5 [EE04C9C3] [173D73CE]
03 98,8 [49A4F6C6] [5A569711]
04 98,8 [4651AEA1] [C8516BDA]
05 98,8 [693EAAEA] [1A4A23C6]
06 89,0 [4BCA0778] [1CBCB4D5]
07 96,1 [AB910ABB] [78932797]
08 94,4 [515F35B2] [349B3C69]
09 100,0 [B534C188] [93BBBF90]
10 99,8 [3EC48982] [5BF772A4]
11 89,1 [0B001A5D] [62FC384B]
12 89,1 [127138DA] [3D4E1334]
13 80,8 [A1D6263D] [576608BF]
14 89,1 [B379D6A6] [5808C0CB]
15 85,3 [1A91FB54] [87C31CD9]
16 98,0 [6B1B1C87] [2F1E4EC7]


Ringo Starr And His All Starr Band - The Anthology... So Far (2001) [2012, 3CD Set]

Tracklist CD3:

01. Yellow Submarine 3:32
02. Show Me The Way (Peter Frampton) 5:06
03. Sunshine Of Your Love (Jack Bruce) 7:46
04. I Hear You Knocking (Dave Edmunds) 2:59
05. Shooting Star (Simon Kirke) 6:03
06. Boys 2:41
07. Baby I Love Your Way (Peter Frampton) 5:13
08. A Salty Dog (Gary Brooker) 4:45
09. I Feel Free (Jack Bruce) 3:38
10. All Right Now (Simon Kirke) 4:38
11. I Wanna Be Your Man 3:09
12. A Whiter Shade Of Pale (Gary Brooker) 6:20
13. Hungry Eyes (Eric Carmen) 3:50
14. All By Myself (Eric Carmen) 7:43
15. With A Little Help From My Friends 5:24

Exact Audio Copy V0.99 prebeta 5 from 4. May 2009

Отчёт EAC об извлечении, выполненном 4. февраля 2015, 22:33

Ringo Starr and his All-Starr Band / The Anthology… So Far. (Disc 3)

Дисковод: SONY BD RW BDX-S500U Adapter: 1 ID: 0

Режим чтения : Достоверность
Использование точного потока : Да
Отключение кэша аудио : Да
Использование указателей C2 : Нет

Коррекция смещения при чтении : 48
Способность читать области Lead-in и Lead-out : Нет
Заполнение пропущенных сэмплов тишиной : Да
Удаление блоков с тишиной в начале и конце : Нет
При вычислениях CRC использовались нулевые сэмплы : Да
Интерфейс : Встроенный Win32-интерфейс для Win NT/2000

Выходной формат : Внутренние WAV-операции
Формат сэмплов : 44.100 Гц; 16 бит; стерео


TOC извлечённого CD

Трек | Старт | Длительность | Начальный сектор | Конечный сектор
––––––––––––––––––––––––––––––––––-
1 | 0:00.00 | 3:31.70 | 0 | 15894
2 | 3:31.70 | 5:06.23 | 15895 | 38867
3 | 8:38.18 | 7:46.24 | 38868 | 73841
4 | 16:24.42 | 2:58.54 | 73842 | 87245
5 | 19:23.21 | 6:02.62 | 87246 | 114457
6 | 25:26.08 | 2:41.18 | 114458 | 126550
7 | 28:07.26 | 5:12.70 | 126551 | 150020
8 | 33:20.21 | 4:45.18 | 150021 | 171413
9 | 38:05.39 | 3:37.48 | 171414 | 187736
10 | 41:43.12 | 4:37.54 | 187737 | 208565
11 | 46:20.66 | 3:09.21 | 208566 | 222761
12 | 49:30.12 | 6:20.01 | 222762 | 251262
13 | 55:50.13 | 3:50.14 | 251263 | 268526
14 | 59:40.27 | 7:42.57 | 268527 | 303233
15 | 67:23.09 | 5:24.10 | 303234 | 327543


Характеристики диапазона извлечения и сообщения об ошибках

Выбранный диапазон

Имя файла G:\Ringo_Anthology\Disc3\Ringo Starr and his All-Starr Band - The Anthology… So Far. (Disc 3).wav

Пиковый уровень 99.6 %
Качество диапазона 100.0 %
CRC теста FA91E591
CRC копии FA91E591
Копирование… OK

Ошибок не произошло


AccurateRip: сводка

Трек 1 точность не определена (достоверность 7) [BBE1BE23], AccurateRip вернул [6FEE9BDE]
Трек 2 точность не определена (достоверность 7) [76EF2D0E], AccurateRip вернул [0475E359]
Трек 3 точность не определена (достоверность 7) [9017DC2C], AccurateRip вернул [644BB42B]
Трек 4 точность не определена (достоверность 7) [2D201231], AccurateRip вернул [BB69B726]
Трек 5 точность не определена (достоверность 7) [006B4742], AccurateRip вернул [AFC6BE46]
Трек 6 точность не определена (достоверность 7) [68366AF7], AccurateRip вернул [361E9706]
Трек 7 точность не определена (достоверность 7) [B0154EBE], AccurateRip вернул [B3200DAF]
Трек 8 точность не определена (достоверность 7) [4E4AB6FB], AccurateRip вернул [03BCBB4E]
Трек 9 точность не определена (достоверность 7) [9F079D91], AccurateRip вернул [0ACEDE88]
Трек 10 точность не определена (достоверность 7) [E188F0C1], AccurateRip вернул [4ACA78D7]
Трек 11 точность не определена (достоверность 7) [08BF2B96], AccurateRip вернул [A13D5FF6]
Трек 12 точность не определена (достоверность 7) [647506EC], AccurateRip вернул [AA61A30A]
Трек 13 точность не определена (достоверность 7) [2AF1D6B0], AccurateRip вернул [C701556B]
Трек 14 точность не определена (достоверность 7) [7B038CF5], AccurateRip вернул [1EABA1B0]
Трек 15 точность не определена (достоверность 7) [386E4589], AccurateRip вернул [FA708543]

Ни один трек не прошёл проверки на точность
В вашей базе может быть иной вариант штамповки диска

Конец отчёта


[CUETools log; Date: 02.03.2015 20:32:24; Version: 2.1.5]
[CTDB TOCID: DnQL5CXfeetU7q9rsWreMnTuDic-] found.
Track | CTDB Status
1 | (7/7) Accurately ripped
2 | (7/7) Accurately ripped
3 | (7/7) Accurately ripped
4 | (7/7) Accurately ripped
5 | (7/7) Accurately ripped
6 | (7/7) Accurately ripped
7 | (7/7) Accurately ripped
8 | (7/7) Accurately ripped
9 | (7/7) Accurately ripped
10 | (7/7) Accurately ripped
11 | (6/7) Accurately ripped
12 | (7/7) Accurately ripped
13 | (7/7) Accurately ripped
14 | (7/7) Accurately ripped
15 | (5/7) Accurately ripped, or (1/7) differs in 1355 samples @01:49:38-01:49:39,01:49:60-01:49:61,01:50:07-01:50:08,01:50:29-01:50:30,01:50:51-01:50:52,01:50:73-01:50:74,01:51:42-01:51:43,01:51:64-01:51:65,01:52:11-01:52:12,01:52:55-01:52:56,01:53:02-01:53:03,01:53:46-01:53:47,01:53:68-01:53:69,01:54:37,01:55:27-01:55:28
[AccurateRip ID: 0026e0d8-01b84bcb-d1110f0f] found.
Track [ CRC | V2 ] Status
01 [bbe1be23|e653512b] (00+00/25) No match
02 [76ef2d0e|ae0eba57] (00+00/27) No match
03 [9017dc2c|0447e157] (00+00/27) No match
04 [2d201231|07390d90] (00+00/27) No match
05 [006b4742|c40a062f] (00+00/27) No match
06 [68366af7|427cd7da] (00+00/25) No match
07 [b0154ebe|a1ca3ef2] (00+00/27) No match
08 [4e4ab6fb|32235a87] (00+00/27) No match
09 [9f079d91|ac13c31a] (00+00/27) No match
10 [e188f0c1|a120102d] (00+00/26) No match
11 [08bf2b96|c7c57a61] (00+00/24) No match
12 [647506ec|3d8df520] (00+00/27) No match
13 [2af1d6b0|eaec7cfd] (00+00/25) No match
14 [7b038cf5|bcf841ba] (00+00/25) No match
15 [386e4589|5038568c] (00+00/28) No match
Offsetted by -1260:
01 [278aafe9] (05/25) Accurately ripped
02 [1576078d] (05/27) Accurately ripped
03 [52fbc063] (05/27) Accurately ripped
04 [59d09fe9] (05/27) Accurately ripped
05 [4d400124] (05/27) Accurately ripped
06 [f2249d14] (05/25) Accurately ripped
07 [8efb5cfc] (05/27) Accurately ripped
08 [2581ff97] (05/27) Accurately ripped
09 [edd59758] (05/27) Accurately ripped
10 [67e6b85a] (04/26) Accurately ripped
11 [866e12b5] (04/24) Accurately ripped
12 [e06d05ca] (05/27) Accurately ripped
13 [ff2474d7] (05/25) Accurately ripped
14 [36ec90e6] (05/25) Accurately ripped
15 [649b7b3f] (05/28) Accurately ripped
Offsetted by -120:
01 [6fee9bde] (07/25) Accurately ripped
02 [0475e359] (07/27) Accurately ripped
03 [644bb42b] (07/27) Accurately ripped
04 [bb69b726] (07/27) Accurately ripped
05 [afc6be46] (07/27) Accurately ripped
06 [361e9706] (07/25) Accurately ripped
07 [b3200daf] (07/27) Accurately ripped
08 [03bcbb4e] (07/27) Accurately ripped
09 [0acede88] (07/27) Accurately ripped
10 [4aca78d7] (07/26) Accurately ripped
11 [a13d5ff6] (07/24) Accurately ripped
12 [aa61a30a] (07/27) Accurately ripped
13 [c701556b] (07/25) Accurately ripped
14 [1eaba1b0] (07/25) Accurately ripped
15 [fa708543] (07/28) Accurately ripped
Offsetted by -102:
01 [d57b2588] (02/25) Accurately ripped
02 [d729dc67] (02/27) Accurately ripped
03 [5fd6b045] (02/27) Accurately ripped
04 [7faf2cbc] (02/27) Accurately ripped
05 [661c9538] (02/27) Accurately ripped
06 [81714fcb] (02/25) Accurately ripped
07 [59ce6549] (02/27) Accurately ripped
08 [f0328635] (02/27) Accurately ripped
09 [96db36a2] (02/27) Accurately ripped
10 [65314531] (02/26) Accurately ripped
11 [543bc813] (02/24) Accurately ripped
12 [7a7b6838] (02/27) Accurately ripped
13 [dcbf9957] (02/25) Accurately ripped
14 [b54c088a] (02/25) Accurately ripped
15 [5c980890] (02/28) Accurately ripped
Offsetted by 48:
01 [fe8db947] (02/25) Accurately ripped
02 [b23bc900] (02/27) Accurately ripped
03 [37968519] (02/27) Accurately ripped
04 [7699c254] (02/27) Accurately ripped
05 [cab19a82] (02/27) Accurately ripped
06 [020a311d] (02/25) Accurately ripped
07 [1f69e906] (02/27) Accurately ripped
08 [e693c721] (02/27) Accurately ripped
09 [94634064] (02/27) Accurately ripped
10 [5395909e] (02/26) Accurately ripped
11 [de0d2390] (02/24) Accurately ripped
12 [1e27df6f] (02/27) Accurately ripped
13 [9589002a] (02/25) Accurately ripped
14 [e200f0bd] (02/25) Accurately ripped
15 [edd301d8] (02/28) Accurately ripped

Track Peak [ CRC32 ] [W/O NULL] [ LOG ]
– 99,6 [FA91E591] [105E9BD6] CRC32
01 94,8 [5E77BCC7] [FD487AC8]
02 99,5 [89D0F106] [1DF00FD0]
03 95,7 [2F03DA8D] [32548673]
04 81,1 [C33EAE44] [12108398]
05 99,6 [85B1CBBE] [C424B304]
06 80,6 [C06033BB] [9057BF8B]
07 97,1 [23668B43] [29896A2A]
08 85,1 [AB9BEC55] [BCE2B0C9]
09 89,5 [D6D3F1EC] [3C309C4B]
10 96,8 [72558298] [266732ED]
11 99,5 [FB49CD7D] [3AE467AC]
12 89,8 [85D74967] [940D3FAD]
13 82,2 [C97A58E9] [F0266C97]
14 79,4 [72B1D719] [CC3E3AAF]
15 79,4 [BEEBD2AA] [7F4B0C73]


Ringo Starr And His All Starr Band - The Anthology... So Far (2001) [2012, 3CD Set]

All thanks go to borsland

Ringo Starr in my Blog

Download Ringo Starr And His All Starr Band - The Anthology… So Far (2001):