Subcategories

Ringo Starr - Bad Boy (1978)

Posted By: v3122
Ringo Starr - Bad Boy (1978)

Ringo Starr - Bad Boy (1978)
EAC | Flac(Image) + Cue + Log & MP3 CBR 320Kbps
1995 | Epic, EK 35378 | ~ 229 or 103 Mb | Scans
Pop Rock

Leaving Atlantic Records after the sales disaster of Ringo the 4th, Ringo Starr signed to CBS's Portrait label and returned to the record racks after only seven months with Bad Boy. Working again with Vini Poncia and a largely pseudonymous band (lead guitar by "Push-alone" and bass by "Diesel"), Starr turned out a competent effort with a few interesting song choices, notably the old Benny Spellman tune "Lipstick Traces (On a Cigarette)" (bet it was a favorite back in Liverpool) and Gallagher & Lyle's "Heart on My Sleeve," along with some that were beyond him, such as the Supremes' "Where Did Our Love Go." But Starr needed more than competence to reverse his career decline, and Bad Boy sold only to the same hardcore Beatles collectors who had pushed Ringo the 4th into the lower reaches of the charts for half-a-dozen weeks.

by William Ruhlmann, AMG

Ringo Starr - Bad Boy (1978):

Ringo Starr - Bad Boy (1978)

Tracklist:

01. Who Needs A Heart 3:50
02. Bad Boy 3:16
03. Lipstick Traces 3:03
04. Heart On My Sleeve 3:22
05. Where Did Our Love Go 3:17
06. Hard Times 3:34
07. Tonight 2:58
08. Monkey See – Monkey Do 3:38
09. Old Time Relovin' 4:19
10. A Man Like Me 3:08

Exact Audio Copy V0.99 prebeta 5 from 4. May 2009

Отчёт EAC об извлечении, выполненном 7. февраля 2015, 12:55

Ringo Starr / Bad Boy

Дисковод: Optiarc DVD RW AD-7700H Adapter: 0 ID: 1

Режим чтения : Достоверность
Использование точного потока : Да
Отключение кэша аудио : Да
Использование указателей C2 : Нет

Коррекция смещения при чтении : 48
Способность читать области Lead-in и Lead-out : Нет
Заполнение пропущенных сэмплов тишиной : Да
Удаление блоков с тишиной в начале и конце : Нет
При вычислениях CRC использовались нулевые сэмплы : Да
Интерфейс : Встроенный Win32-интерфейс для Win NT/2000

Выходной формат : Внутренние WAV-операции
Формат сэмплов : 44.100 Гц; 16 бит; стерео


TOC извлечённого CD

Трек | Старт | Длительность | Начальный сектор | Конечный сектор
––––––––––––––––––––––––––––––––––-
1 | 0:00.00 | 3:50.30 | 0 | 17279
2 | 3:50.30 | 3:16.37 | 17280 | 32016
3 | 7:06.67 | 3:03.30 | 32017 | 45771
4 | 10:10.22 | 3:22.35 | 45772 | 60956
5 | 13:32.57 | 3:17.30 | 60957 | 75761
6 | 16:50.12 | 3:34.35 | 75762 | 91846
7 | 20:24.47 | 2:58.20 | 91847 | 105216
8 | 23:22.67 | 3:38.05 | 105217 | 121571
9 | 27:00.72 | 4:18.38 | 121572 | 140959
10 | 31:19.35 | 3:07.70 | 140960 | 155054


Характеристики диапазона извлечения и сообщения об ошибках

Выбранный диапазон

Имя файла F:\Ringo_CDs\Bad Boy\Ringo Starr - Bad Boy.wav

Пиковый уровень 98.0 %
Качество диапазона 100.0 %
CRC теста D891550D
CRC копии D891550D
Копирование… OK

Ошибок не произошло


AccurateRip: сводка

Трек 1 точность не определена (достоверность 1) [FF4C5C57], AccurateRip вернул [A8BD6747]
Трек 2 точность не определена (достоверность 1) [2BAAF0EF], AccurateRip вернул [AB2EBAAF]
Трек 3 точность не определена (достоверность 1) [90686654], AccurateRip вернул [6DF65EFC]
Трек 4 точность не определена (достоверность 1) [8A98D2F5], AccurateRip вернул [C2EC6FE5]
Трек 5 точность не определена (достоверность 1) [8948F31F], AccurateRip вернул [2D8E0DAF]
Трек 6 точность не определена (достоверность 1) [5B89AFA5], AccurateRip вернул [09CA8CA5]
Трек 7 точность не определена (достоверность 1) [C6575349], AccurateRip вернул [2C6946A9]
Трек 8 точность не определена (достоверность 1) [31B7CD68], AccurateRip вернул [D9453F88]
Трек 9 точность не определена (достоверность 1) [813AFAF2], AccurateRip вернул [C0E40B42]
Трек 10 точность не определена (достоверность 1) [FC1D0C83], AccurateRip вернул [6A21D843]

Ни один трек не прошёл проверки на точность
В вашей базе может быть иной вариант штамповки диска

Конец отчёта

foobar2000 1.2.9 / Dynamic Range Meter 1.1.1
log date: 2015-04-01 01:22:50

––––––––––––––––––––––––––––––––––––––––
Analyzed: Ringo Starr / Bad Boy
––––––––––––––––––––––––––––––––––––––––

DR Peak RMS Duration Track
––––––––––––––––––––––––––––––––––––––––
DR15 -0.40 dB -16.63 dB 3:50 01-Who Needs A Heart
DR15 -0.98 dB -18.66 dB 3:16 02-Bad Boy
DR14 -1.23 dB -17.30 dB 3:03 03-Lipstick Traces
DR14 -0.40 dB -16.34 dB 3:22 04-Heart On My Sleeve
DR14 -1.17 dB -17.52 dB 3:17 05-Where Did Our Love Go
DR14 -0.32 dB -15.70 dB 3:34 06-Hard Times
DR14 -0.31 dB -16.21 dB 2:58 07-Tonight
DR15 -0.17 dB -16.93 dB 3:38 08-Monkey See – Monkey Do
DR14 -0.64 dB -17.37 dB 4:19 09-Old Time Relovin'
DR14 -2.58 dB -19.92 dB 3:08 10-A Man Like Me
––––––––––––––––––––––––––––––––––––––––

Number of tracks: 10
Official DR value: DR14

Samplerate: 44100 Hz
Channels: 2
Bits per sample: 16
Bitrate: 839 kbps
Codec: FLAC

[CUETools log; Date: 02.03.2015 20:25:05; Version: 2.1.5]
[CTDB TOCID: P7w3ldECvmZoDfOF8ysPy4UT.J4-] found.
Track | CTDB Status
1 | (1/1) Accurately ripped
2 | (1/1) Accurately ripped
3 | (1/1) Accurately ripped
4 | (1/1) Accurately ripped
5 | (1/1) Accurately ripped
6 | (1/1) Accurately ripped
7 | (1/1) Accurately ripped
8 | (1/1) Accurately ripped
9 | (1/1) Accurately ripped
10 | (1/1) Accurately ripped
[AccurateRip ID: 000cea67-006741e3-6208130a] found.
Track [ CRC | V2 ] Status
01 [ff4c5c57|791dfd6d] (0+0/1) No match
02 [2baaf0ef|1dab7ee3] (0+0/1) No match
03 [90686654|614f1577] (0+0/1) No match
04 [8a98d2f5|e01da4ff] (0+0/1) No match
05 [8948f31f|4ac15680] (0+0/1) No match
06 [5b89afa5|938bc065] (0+0/1) No match
07 [c6575349|85133873] (0+0/1) No match
08 [31b7cd68|04fc0b82] (0+0/1) No match
09 [813afaf2|1af9293c] (0+0/1) No match
10 [fc1d0c83|a1368762] (0+0/1) No match
Offsetted by 664:
01 [a8bd6747] (1/1) Accurately ripped
02 [ab2ebaaf] (1/1) Accurately ripped
03 [6df65efc] (1/1) Accurately ripped
04 [c2ec6fe5] (1/1) Accurately ripped
05 [2d8e0daf] (1/1) Accurately ripped
06 [09ca8ca5] (1/1) Accurately ripped
07 [2c6946a9] (1/1) Accurately ripped
08 [d9453f88] (1/1) Accurately ripped
09 [c0e40b42] (1/1) Accurately ripped
10 [6a21d843] (1/1) Accurately ripped

Track Peak [ CRC32 ] [W/O NULL] [ LOG ]
– 98,0 [D891550D] [A1046ACE] CRC32
01 95,5 [E4936525] [270F92B9]
02 89,3 [F76F960F] [960D7A97]
03 86,8 [76C83FB7] [A499EBF5]
04 95,5 [9B1AEF32] [D5D20360]
05 87,3 [78634E9B] [8F566A45]
06 96,3 [063610B2] [55054DD7]
07 96,4 [2F6FDFA8] [31C64CA9]
08 98,0 [90A0CA24] [72539C25]
09 92,9 [E0AEF7CC] [9156510E]
10 74,3 [DF0962C2] [AF63C5D7]

Ringo Starr - Bad Boy (1978)

All thanks go to borsland

More Ringo Starr in my Blog

Download Ringo Starr - Bad Boy (1978):