Subcategories
Tags
Language
Tags

Ringo Starr - Blast From Your Past (1975)

Posted By: v3122
Ringo Starr - Blast From Your Past (1975)

Ringo Starr - Blast From Your Past (1975)
EAC | Flac(Image) + Cue + Log & MP3 CBR 320Kbps
1994 | Capitol, CDP 7 46663 2 | ~ 221 or 102 Mb | Scans
Rock & Roll / Pop Rock

Within the span of five years, Ringo Starr was able to muster up seven Top Ten singles, with three of them coming from the self-titled Ringo album. Taking all of these tracks and adding three more, Blast From Your Past ends up being a worthy ten-song collection of Starr's best solo tunes. In 1973, Ringo had back-to-back number one hits with both "Photograph," aided by George Harrison's harmony vocals, and the quirky, adolescent-sounding "You're Sixteen," with Harry Nilsson backing him and Paul McCartney playing the kazoo. His first hit, "It Don't Come Easy," had Badfinger filling in on harmony, while the humorous "No No Song" which went to number three in 1975, was penned by Hoyt Axton. Starr's easygoing character and blatant lightheartedness presents his music with a welcomed distinction, contrasted but hardly bettered by John Lennon's social, philosophical, and politically guided material that was coming out at around the same time. The jovial spirit of Ringo Starr shines through in songs like "Back off Boogaloo" and in the innocent satire of "I'm the Greatest" with a little help from his friend Mr. Lennon – not one of Starr's best efforts, but entertaining nonetheless. For an enjoyable skip through Starr's best solo work, Blast From Your Past surely foots the bill.

by Mike DeGagne, AMG
Ringo Starr - Blast From Your Past (1975):

Ringo Starr - Blast From Your Past (1975)

Tracklist:

01. You're Sixteen (You're Beautiful And You're Mine) 2:49
02. No No Song/Skokiaan 2:31
03. It Don't Come Easy 3:05
04. Photograph 3:58
05. Back Off Boogaloo 3:20
06. Only You (And You Alone) 3:28
07. Beaucoups Of Blues 2:36
08. Oh My My 4:18
09. Early 1970 2:23
10. I'm The Greatest 3:22

Exact Audio Copy V0.99 prebeta 5 from 4. May 2009

Отчёт EAC об извлечении, выполненном 24. января 2015, 20:58

Ringo Starr / Blast From Your Past

Дисковод: SONY BD RW BDX-S500U Adapter: 1 ID: 0

Режим чтения : Достоверность
Использование точного потока : Да
Отключение кэша аудио : Да
Использование указателей C2 : Нет

Коррекция смещения при чтении : 48
Способность читать области Lead-in и Lead-out : Нет
Заполнение пропущенных сэмплов тишиной : Да
Удаление блоков с тишиной в начале и конце : Нет
При вычислениях CRC использовались нулевые сэмплы : Да
Интерфейс : Встроенный Win32-интерфейс для Win NT/2000

Выходной формат : Внутренние WAV-операции
Формат сэмплов : 44.100 Гц; 16 бит; стерео


TOC извлечённого CD

Трек | Старт | Длительность | Начальный сектор | Конечный сектор
––––––––––––––––––––––––––––––––––-
1 | 0:00.32 | 2:49.05 | 32 | 12711
2 | 2:49.37 | 2:31.28 | 12712 | 24064
3 | 5:20.65 | 3:04.67 | 24065 | 37931
4 | 8:25.57 | 3:58.13 | 37932 | 55794
5 | 12:23.70 | 3:20.12 | 55795 | 70806
6 | 15:44.07 | 3:27.53 | 70807 | 86384
7 | 19:11.60 | 2:36.10 | 86385 | 98094
8 | 21:47.70 | 4:18.00 | 98095 | 117444
9 | 26:05.70 | 2:22.72 | 117445 | 128166
10 | 28:28.67 | 3:22.33 | 128167 | 143349


Характеристики диапазона извлечения и сообщения об ошибках

Выбранный диапазон

Имя файла F:\Ringo_CDs\Blast From Your Past\Ringo Starr - Blast From Your Past.wav

Пиковый уровень 96.1 %
Качество диапазона 99.9 %
CRC теста 1D5C8760
CRC копии 1D5C8760
Копирование… OK

Ошибок не произошло


AccurateRip: сводка

Трек 1 точное извлечение (доверие 13) [9515FF0A]
Трек 2 точное извлечение (доверие 14) [BC5DA172]
Трек 3 точное извлечение (доверие 12) [541589D1]
Трек 4 точное извлечение (доверие 13) [EE2B6192]
Трек 5 точное извлечение (доверие 12) [3D09EE51]
Трек 6 точное извлечение (доверие 13) [D5F97260]
Трек 7 точное извлечение (доверие 14) [D2A080A9]
Трек 8 точное извлечение (доверие 12) [983B0901]
Трек 9 точное извлечение (доверие 14) [C1774D0F]
Трек 10 точное извлечение (доверие 14) [3088A059]

Все треки извлечены точно

Конец отчёта

foobar2000 1.2.9 / Dynamic Range Meter 1.1.1
log date: 2015-03-15 20:07:20

––––––––––––––––––––––––––––––––––––––––
Analyzed: Ringo Starr / Blast From Your Past
––––––––––––––––––––––––––––––––––––––––

DR Peak RMS Duration Track
––––––––––––––––––––––––––––––––––––––––
DR11 -1.66 dB -14.47 dB 2:49 01-You're Sixteen (You're Beautiful And You're Mine)
DR12 -1.88 dB -16.21 dB 2:31 02-No No Song/Skokiaan
DR10 -0.77 dB -13.19 dB 3:05 03-It Don't Come Easy
DR10 -1.75 dB -13.25 dB 3:58 04-Photograph
DR9 -1.71 dB -11.97 dB 3:20 05-Back Off Boogaloo
DR13 -2.02 dB -17.49 dB 3:28 06-Only You (And You Alone)
DR11 -2.92 dB -17.45 dB 2:36 07-Beaucoups Of Blues
DR12 -0.34 dB -14.60 dB 4:18 08-Oh My My
DR11 -1.89 dB -15.06 dB 2:23 09-Early 1970
DR11 -2.05 dB -15.06 dB 3:22 10-I'm The Greatest
––––––––––––––––––––––––––––––––––––––––

Number of tracks: 10
Official DR value: DR11

Samplerate: 44100 Hz
Channels: 2
Bits per sample: 16
Bitrate: 852 kbps
Codec: FLAC

[CUETools log; Date: 02.03.2015 20:26:31; Version: 2.1.5]
Pregap length 00:00:32.
[CTDB TOCID: 7DneItnO0KpB6kgp9pxBHSpnEms-] found.
Track | CTDB Status
1 | (7/7) Accurately ripped
2 | (7/7) Accurately ripped
3 | (7/7) Accurately ripped
4 | (7/7) Accurately ripped
5 | (7/7) Accurately ripped
6 | (7/7) Accurately ripped
7 | (7/7) Accurately ripped
8 | (7/7) Accurately ripped
9 | (7/7) Accurately ripped
10 | (7/7) Accurately ripped
[AccurateRip ID: 000bd281-005f7e00-7407770a] found.
Track [ CRC | V2 ] Status
01 [9515ff0a|4743b698] (13+10/73) Accurately ripped
02 [bc5da172|44225774] (14+10/74) Accurately ripped
03 [541589d1|09e5c9c8] (12+10/73) Accurately ripped
04 [ee2b6192|057d2ba9] (13+10/75) Accurately ripped
05 [3d09ee51|19968c21] (12+10/72) Accurately ripped
06 [d5f97260|c91381d1] (13+10/73) Accurately ripped
07 [d2a080a9|bb765955] (14+09/72) Accurately ripped
08 [983b0901|0946b789] (12+10/73) Accurately ripped
09 [c1774d0f|d2911044] (14+09/72) Accurately ripped
10 [3088a059|b1786159] (14+09/72) Accurately ripped
Offsetted by -681:
01 [66f10eac] (19/73) Accurately ripped
02 [8d96fe0b] (19/74) Accurately ripped
03 [00e13cb5] (19/73) Accurately ripped
04 [c196e217] (19/75) Accurately ripped
05 [2ec4d89b] (19/72) Accurately ripped
06 [2393e27a] (19/73) Accurately ripped
07 [4988fa38] (19/72) Accurately ripped
08 [e581a284] (20/73) Accurately ripped
09 [fbaf7037] (19/72) Accurately ripped
10 [1a2922f8] (19/72) Accurately ripped
Offsetted by 2622:
01 [ccf44a2e] (11/73) Accurately ripped
02 [09d67c14] (11/74) Accurately ripped
03 [cbb2ed59] (11/73) Accurately ripped
04 [9f73894c] (11/75) Accurately ripped
05 [edc73c45] (11/72) Accurately ripped
06 [edb8def4] (11/73) Accurately ripped
07 [6e4d67d7] (11/72) Accurately ripped
08 [b01c8cd7] (11/73) Accurately ripped
09 [a8ebd8df] (11/72) Accurately ripped
10 [291238a7] (11/72) Accurately ripped
Offsetted by 2039:
01 [2482b76c] (00/73) No match (V2 was not tested)
02 [a3c44d6b] (00/74) No match (V2 was not tested)
03 [e0f1aa35] (00/73) No match (V2 was not tested)
04 [329d31f7] (02/75) Accurately ripped
05 [6280705b] (00/72) No match (V2 was not tested)
06 [a9f4883a] (00/73) No match (V2 was not tested)
07 [86a8e9d8] (00/72) No match (V2 was not tested)
08 [e09945a4] (00/73) No match (V2 was not tested)
09 [48278f37] (00/72) No match (V2 was not tested)
10 [88f2d898] (00/72) No match (V2 was not tested)

Track Peak [ CRC32 ] [W/O NULL] [ LOG ]
– 96,1 [1D5C8760] [7F56FCE5] CRC32
01 82,6 [3E6CD059] [512DFE41]
02 80,5 [7BCAEBB7] [9B80B03D]
03 91,4 [000DE344] [5C40316A]
04 81,7 [00D9DA3A] [CD81415B]
05 82,1 [9577F4BA] [366FB924]
06 79,2 [8B7542BF] [F2E08022]
07 71,4 [B416FDFA] [D39CD342]
08 96,1 [369F14F4] [A552A968]
09 80,4 [C59B97A5] [76E8A897]
10 78,9 [4A44015C] [63D95EE6]

Ringo Starr - Blast From Your Past (1975)

All thanks go to borsland

Download Ringo Starr - Blast From Your Past (1975):