Subcategories
Tags
Language
Tags

Ringo Starr - Blast From Your Past (1975)

Posted By: v3122
Ringo Starr - Blast From Your Past (1975)

Ringo Starr - Blast From Your Past (1975)
XLD | Flac(Image) + Cue + Log & MP3 CBR 320Kbps
2008 | Dr. Ebbetts, SW 3422 | ~ 205 or 76 Mb | Artwork(jpg) -> 3.62 Mb
Classic Rock / Rock & Roll / Pop Rock

Within the span of five years, Ringo Starr was able to muster up seven Top Ten singles, with three of them coming from the self-titled Ringo album. Taking all of these tracks and adding three more, Blast From Your Past ends up being a worthy ten-song collection of Starr's best solo tunes. In 1973, Ringo had back-to-back number one hits with both "Photograph," aided by George Harrison's harmony vocals, and the quirky, adolescent-sounding "You're Sixteen," with Harry Nilsson backing him and Paul McCartney playing the kazoo. His first hit, "It Don't Come Easy," had Badfinger filling in on harmony, while the humorous "No No Song" which went to number three in 1975, was penned by Hoyt Axton. Starr's easygoing character and blatant lightheartedness presents his music with a welcomed distinction, contrasted but hardly bettered by John Lennon's social, philosophical, and politically guided material that was coming out at around the same time. The jovial spirit of Ringo Starr shines through in songs like "Back off Boogaloo" and in the innocent satire of "I'm the Greatest" with a little help from his friend Mr. Lennon – not one of Starr's best efforts, but entertaining nonetheless. For an enjoyable skip through Starr's best solo work, Blast From Your Past surely foots the bill.

by Mike DeGagne, allmusic


Dr. Ebbets was a needledropper (a person who rips near mint/mint condition or unplayed vinyl records) who was famous in the bootleg/audiophile communities for his Beatles releases, which are regarded by some as being the best sounding versions of those albums.

He retired in 2009 due to the upcoming release of The Beatles, but returned in 2010 to release four new titles to his most dedicated customers.

~ discogs
Ringo Starr - Blast From Your Past (1975):

Ringo Starr - Blast From Your Past (1975)

Tracklist:

1. You're Sixteen (2:52)
2. No No Song (2:33)
3. It Don't Come Easy (3:05)
4. Photograph (4:00)
5. Back Off Boogaloo (3:23)
6. Only You (And You Alone) (3:26)
7. Beaucoups Of Blues (2:35)
8. Oh My My (4:19)
9. Early 1970 (2:22)
10. I'm The Greatest (3:23)

X Lossless Decoder version 20080926 (93.3)

XLD extraction logfile from 2009-01-06 19:06:41 -0500

Ringo Starr / Blast From Your Past [US Stereo - DESS]

Used drive : TSSTcorp CDDVDW SH-S203N (revision LA00)

Use cdparanoia mode : YES (CDParanoia III 10.2 engine)
Disable audio cache : OK for the drive with cache less than 2750KB
Make use of C2 pointers : NO
Read offset correction : 6
Max retry count : 100

TOC of the extracted CD
Track | Start | Length | Start sector | End sector
––––––––––––––––––––––––––––-
1 | 00:00:00 | 02:51:47 | 0 | 12871
2 | 02:51:47 | 02:33:22 | 12872 | 24368
3 | 05:24:69 | 03:04:69 | 24369 | 38237
4 | 08:29:63 | 03:59:44 | 38238 | 56206
5 | 12:29:32 | 03:22:67 | 56207 | 71423
6 | 15:52:24 | 03:26:29 | 71424 | 86902
7 | 19:18:53 | 02:35:24 | 86903 | 98551
8 | 21:54:02 | 04:18:73 | 98552 | 117974
9 | 26:13:00 | 02:21:66 | 117975 | 128615
10 | 28:34:66 | 03:23:37 | 128616 | 143877

Track 01
Filename : /Users/Macintel/Desktop/Ringo Starr - Blast From Your Past [US Stereo - DESS]/01 You're Sixteen.flac

CRC32 hash (test run) : 00DABB6C
CRC32 hash : 00DABB6C
CRC32 hash (skip zero) : 28325D15
AccurateRip signature : E6970E9A
->Track not present in AccurateRip database.
Statistics
Read error : 0
Skipped (treated as error) : 0
Edge jitter error (maybe fixed) : 0
Atom jitter error (maybe fixed) : 0
Drift error (maybe fixed) : 0
Dropped bytes error (maybe fixed) : 0
Duplicated bytes error (maybe fixed) : 0
Inconsistency in error sectors : 0

Track 02
Filename : /Users/Macintel/Desktop/Ringo Starr - Blast From Your Past [US Stereo - DESS]/02 No No Song.flac

CRC32 hash (test run) : AD206065
CRC32 hash : AD206065
CRC32 hash (skip zero) : DD44F23B
AccurateRip signature : 1F8988FA
->Track not present in AccurateRip database.
Statistics
Read error : 0
Skipped (treated as error) : 0
Edge jitter error (maybe fixed) : 0
Atom jitter error (maybe fixed) : 0
Drift error (maybe fixed) : 0
Dropped bytes error (maybe fixed) : 0
Duplicated bytes error (maybe fixed) : 0
Inconsistency in error sectors : 0

Track 03
Filename : /Users/Macintel/Desktop/Ringo Starr - Blast From Your Past [US Stereo - DESS]/03 It Don't Come Easy.flac

CRC32 hash (test run) : D5C035EE
CRC32 hash : D5C035EE
CRC32 hash (skip zero) : 3E5C5BF5
AccurateRip signature : FABBC2A1
->Track not present in AccurateRip database.
Statistics
Read error : 0
Skipped (treated as error) : 0
Edge jitter error (maybe fixed) : 0
Atom jitter error (maybe fixed) : 0
Drift error (maybe fixed) : 0
Dropped bytes error (maybe fixed) : 0
Duplicated bytes error (maybe fixed) : 0
Inconsistency in error sectors : 0

Track 04
Filename : /Users/Macintel/Desktop/Ringo Starr - Blast From Your Past [US Stereo - DESS]/04 Photograph.flac

CRC32 hash (test run) : 71904079
CRC32 hash : 71904079
CRC32 hash (skip zero) : 26A06399
AccurateRip signature : F2BF7FA7
->Track not present in AccurateRip database.
Statistics
Read error : 0
Skipped (treated as error) : 0
Edge jitter error (maybe fixed) : 0
Atom jitter error (maybe fixed) : 0
Drift error (maybe fixed) : 0
Dropped bytes error (maybe fixed) : 0
Duplicated bytes error (maybe fixed) : 0
Inconsistency in error sectors : 0

Track 05
Filename : /Users/Macintel/Desktop/Ringo Starr - Blast From Your Past [US Stereo - DESS]/05 Back Off Boogaloo.flac

CRC32 hash (test run) : 95EDF42C
CRC32 hash : 95EDF42C
CRC32 hash (skip zero) : 7AF1E38A
AccurateRip signature : 22C4A30D
->Track not present in AccurateRip database.
Statistics
Read error : 0
Skipped (treated as error) : 0
Edge jitter error (maybe fixed) : 0
Atom jitter error (maybe fixed) : 0
Drift error (maybe fixed) : 0
Dropped bytes error (maybe fixed) : 0
Duplicated bytes error (maybe fixed) : 0
Inconsistency in error sectors : 0

Track 06
Filename : /Users/Macintel/Desktop/Ringo Starr - Blast From Your Past [US Stereo - DESS]/06 Only You (And You Alone).flac

CRC32 hash (test run) : 26E44113
CRC32 hash : 26E44113
CRC32 hash (skip zero) : 31713761
AccurateRip signature : 3229B666
->Track not present in AccurateRip database.
Statistics
Read error : 0
Skipped (treated as error) : 0
Edge jitter error (maybe fixed) : 0
Atom jitter error (maybe fixed) : 0
Drift error (maybe fixed) : 0
Dropped bytes error (maybe fixed) : 0
Duplicated bytes error (maybe fixed) : 0
Inconsistency in error sectors : 0

Track 07
Filename : /Users/Macintel/Desktop/Ringo Starr - Blast From Your Past [US Stereo - DESS]/07 Beaucoups Of Blues.flac

CRC32 hash (test run) : 099AAAC0
CRC32 hash : 099AAAC0
CRC32 hash (skip zero) : 4731938D
AccurateRip signature : 5D81E628
->Track not present in AccurateRip database.
Statistics
Read error : 0
Skipped (treated as error) : 0
Edge jitter error (maybe fixed) : 0
Atom jitter error (maybe fixed) : 0
Drift error (maybe fixed) : 0
Dropped bytes error (maybe fixed) : 0
Duplicated bytes error (maybe fixed) : 0
Inconsistency in error sectors : 0

Track 08
Filename : /Users/Macintel/Desktop/Ringo Starr - Blast From Your Past [US Stereo - DESS]/08 Oh My My.flac

CRC32 hash (test run) : 3C723324
CRC32 hash : 3C723324
CRC32 hash (skip zero) : F1207638
AccurateRip signature : C8327153
->Track not present in AccurateRip database.
Statistics
Read error : 0
Skipped (treated as error) : 0
Edge jitter error (maybe fixed) : 0
Atom jitter error (maybe fixed) : 0
Drift error (maybe fixed) : 0
Dropped bytes error (maybe fixed) : 0
Duplicated bytes error (maybe fixed) : 0
Inconsistency in error sectors : 0

Track 09
Filename : /Users/Macintel/Desktop/Ringo Starr - Blast From Your Past [US Stereo - DESS]/09 Early 1970.flac

CRC32 hash (test run) : B41B2B90
CRC32 hash : B41B2B90
CRC32 hash (skip zero) : 199E720E
AccurateRip signature : 5D1BD55E
->Track not present in AccurateRip database.
Statistics
Read error : 0
Skipped (treated as error) : 0
Edge jitter error (maybe fixed) : 0
Atom jitter error (maybe fixed) : 0
Drift error (maybe fixed) : 0
Dropped bytes error (maybe fixed) : 0
Duplicated bytes error (maybe fixed) : 0
Inconsistency in error sectors : 0

Track 10
Filename : /Users/Macintel/Desktop/Ringo Starr - Blast From Your Past [US Stereo - DESS]/10 I'm The Greatest.flac

CRC32 hash (test run) : F83FC4E7
CRC32 hash : F83FC4E7
CRC32 hash (skip zero) : 59ED78B9
AccurateRip signature : 0AC920FE
->Track not present in AccurateRip database.
Statistics
Read error : 0
Skipped (treated as error) : 0
Edge jitter error (maybe fixed) : 0
Atom jitter error (maybe fixed) : 0
Drift error (maybe fixed) : 0
Dropped bytes error (maybe fixed) : 0
Duplicated bytes error (maybe fixed) : 0
Inconsistency in error sectors : 0

No errors occurred

End of status report


[CUETools log; Date: 17.02.2020 4:22:12; Version: 2.1.4]
[AccurateRip ID: 000be31a-005ff549-72077e0a] found.
Track [ CRC | V2 ] Status
01 [e6970e9a|7d4b87da] (0+2/2) Accurately ripped
02 [1f8988fa|52072177] (0+2/2) Accurately ripped
03 [fabbc2a1|23eceee9] (0+2/2) Accurately ripped
04 [f2bf7fa7|74fbbc2c] (0+2/2) Accurately ripped
05 [22c4a30d|ab26807d] (0+2/2) Accurately ripped
06 [3229b666|a89bfc33] (0+2/2) Accurately ripped
07 [5d81e628|4ce8d8e4] (0+2/2) Accurately ripped
08 [c8327153|4f055f34] (0+2/2) Accurately ripped
09 [5d1bd55e|09801e07] (0+2/2) Accurately ripped
10 [0ac920fe|35525470] (0+2/2) Accurately ripped

Track Peak [ CRC32 ] [W/O NULL]
– 99,9 [0BA1F117] [E57F05B8]
01 95,7 [00DABB6C] [28325D15]
02 95,6 [AD206065] [DD44F23B]
03 99,9 [D5C035EE] [3E5C5BF5]
04 98,5 [71904079] [26A06399]
05 98,5 [95EDF42C] [7AF1E38A]
06 99,9 [26E44113] [31713761]
07 84,0 [099AAAC0] [4731938D]
08 99,2 [3C723324] [F1207638]
09 99,2 [B41B2B90] [199E720E]
10 96,5 [F83FC4E7] [59ED78B9]


Ringo Starr - Blast From Your Past (1975)

All thanks go to the original releaser

Beatles in my Blog

Download Ringo Starr - Blast From Your Past (1975):