Tags
Language
Tags

Robert King, The King's Consort - Mr Henry Purcell's Most Admirable Composures (2009)

Posted By: ArlegZ
Robert King, The King's Consort - Mr Henry Purcell's Most Admirable Composures (2009)

Robert King, The King's Consort - Mr Henry Purcell's Most Admirable Composures (2009)
EAC | FLAC | Image (Cue & Log) ~ 256 Mb | Total time: 57:55 | Scans included
Classical | Label: Helios | CDH55303 | Recorded: 1988

James Bowman must surely be the finest vocal interpreter of Purcell today. His grasp of sentiment, his sense of timing, and his enunciation, are unsurpassed …
— Gramophone

Performer:
James Bowman, countertenor
The King's Consort
Robert King, conductor

Track List:
01. We sing to him whose wisdom form'd the ear, Z199
02. What shall I do to show how much I love her? ,Z627
03. How long, great God? Z189
04. Not all my torments can your pity move, Z400
05. Music for a while, Z583
06. Fairest isle, all isles excelling, Z628
07. Hears not my Phillis how the birds, 'The Knotting Song', Z371
08. The Plaint- O, let me forever weep, Z629
09. With him he brings the partner of his throne, Z344
10. Ah, how sweet it is to love, Z613
11. Celia has a thousand charms, Z609
12. The fatal hour comes on apace, Z421
13. If music be the food of love, Z379a
14. One charming night, Z629
15. Since from my dear Astrea's sight, Z627
16. Here the Deities approve, Z339
17. Now that the sun hath veiled his light, 'An Evening Hymn', Z193


Exact Audio Copy V1.3 from 2. September 2016

EAC extraction logfile from 20. February 2020, 13:42

James Bowman, The King's Consort & Robert King / Purcell . Mr Henry Purcell's Most Admirable Composures

Used drive : HL-DT-STDVD+-RW GT10N Adapter: 1 ID: 1

Read mode : Secure
Utilize accurate stream : Yes
Defeat audio cache : Yes
Make use of C2 pointers : No

Read offset correction : 102
Overread into Lead-In and Lead-Out : No
Fill up missing offset samples with silence : Yes
Delete leading and trailing silent blocks : No
Null samples used in CRC calculations : Yes
Used interface : Native Win32 interface for Win NT & 2000

Used output format : User Defined Encoder
Selected bitrate : 1024 kBit/s
Quality : High
Add ID3 tag : No
Command line compressor : C:\Program Files (x86)\Exact Audio Copy\FLAC\FLAC.EXE
Additional command line options : -6 -V -T "ARTIST=%artist%" -T "TITLE=%title%" -T "ALBUM=%albumtitle%" -T "DATE=%year%" -T "TRACKNUMBER=%tracknr%" -T "GENRE=%genre%" -T "COMMENT=%comment%" -T "BAND=%albuminterpret%" -T "ALBUMARTIST=%albuminterpret%" -T "COMPOSER=%composer%" %haslyrics%–tag-from-file=LYRICS="%lyricsfile%"%haslyrics% -T "DISCNUMBER=%cdnumber%" -T "TOTALDISCS=%totalcds%" -T "TOTALTRACKS=%numtracks%" %hascover%–picture="%coverfile%"%hascover% %source% -o %dest%


TOC of the extracted CD

Track | Start | Length | Start sector | End sector
––––––––––––––––––––––––––––-
1 | 0:00.00 | 2:19.25 | 0 | 10449
2 | 2:19.25 | 1:57.17 | 10450 | 19241
3 | 4:16.42 | 4:09.50 | 19242 | 37966
4 | 8:26.17 | 2:02.48 | 37967 | 47164
5 | 10:28.65 | 3:32.10 | 47165 | 63074
6 | 14:01.00 | 4:03.65 | 63075 | 81364
7 | 18:04.65 | 2:31.27 | 81365 | 92716
8 | 20:36.17 | 7:39.28 | 92717 | 127169
9 | 28:15.45 | 4:51.10 | 127170 | 149004
10 | 33:06.55 | 2:02.30 | 149005 | 158184
11 | 35:09.10 | 2:30.20 | 158185 | 169454
12 | 37:39.30 | 3:45.45 | 169455 | 186374
13 | 41:25.00 | 2:31.00 | 186375 | 197699
14 | 43:56.00 | 2:18.70 | 197700 | 208119
15 | 46:14.70 | 3:30.10 | 208120 | 223879
16 | 49:45.05 | 4:03.55 | 223880 | 242159
17 | 53:48.60 | 4:04.15 | 242160 | 260474


Range status and errors

Selected range

Filename C:\_RIPs\Purcell . Mr Henry Purcell's Most Admirable Composures . Bowman, King\Purcell'sMostAdmirableComposures-Bowman-King.wav

Peak level 98.0 %
Extraction speed 1.9 X
Range quality 99.9 %
Test CRC D27CF156
Copy CRC D27CF156
Copy OK

No errors occurred


AccurateRip summary

Track 1 accurately ripped (confidence 2) [AEC97EC2] (AR v2)
Track 2 accurately ripped (confidence 2) [EA26E047] (AR v2)
Track 3 accurately ripped (confidence 2) [292A833C] (AR v2)
Track 4 accurately ripped (confidence 2) [32A0FEF4] (AR v2)
Track 5 accurately ripped (confidence 2) [F6C03905] (AR v2)
Track 6 accurately ripped (confidence 2) [3AB4AEF8] (AR v2)
Track 7 accurately ripped (confidence 2) [49531C77] (AR v2)
Track 8 accurately ripped (confidence 2) [BF94F80C] (AR v2)
Track 9 accurately ripped (confidence 2) [5D44C304] (AR v2)
Track 10 accurately ripped (confidence 2) [D652A946] (AR v2)
Track 11 accurately ripped (confidence 2) [95737815] (AR v2)
Track 12 accurately ripped (confidence 2) [8AEFF696] (AR v2)
Track 13 accurately ripped (confidence 2) [05350AEE] (AR v2)
Track 14 accurately ripped (confidence 2) [85A3E333] (AR v2)
Track 15 accurately ripped (confidence 2) [9F874C3C] (AR v2)
Track 16 accurately ripped (confidence 2) [F9A3EF2A] (AR v2)
Track 17 accurately ripped (confidence 2) [DD0BA9C0] (AR v2)

All tracks accurately ripped

End of status report

–– CUETools DB Plugin V2.1.6

[CTDB TOCID: KIw4if5A0Wee_drVkU9e6GJ1Gow-] found
Submit result: KIw4if5A0Wee_drVkU9e6GJ1Gow- has been confirmed
Track | CTDB Status
1 | ( 4/20) Accurately ripped
2 | ( 4/20) Accurately ripped
3 | ( 4/20) Accurately ripped
4 | ( 4/20) Accurately ripped
5 | ( 4/20) Accurately ripped
6 | ( 4/20) Accurately ripped
7 | ( 4/20) Accurately ripped
8 | ( 4/20) Accurately ripped
9 | ( 4/20) Accurately ripped
10 | ( 4/20) Accurately ripped
11 | ( 4/20) Accurately ripped
12 | ( 4/20) Accurately ripped
13 | ( 4/20) Accurately ripped
14 | ( 4/20) Accurately ripped
15 | ( 4/20) Accurately ripped
16 | ( 4/20) Accurately ripped
17 | ( 4/20) Accurately ripped


==== Log checksum 48D030DBE2B1E7418B83A2507C48FAC474F3CCDA7CC668D59D35BC4ABB668D02 ====

Robert King, The King's Consort - Mr Henry Purcell's Most Admirable Composures (2009)

Thanks to the original releaser