Tags
Language
Tags

Roberta Invernizzi, Alberto Rasi, Accademia Strumentale Italiana - Dolcissimo sospiro (2005)

Posted By: ArlegZ
Roberta Invernizzi, Alberto Rasi, Accademia Strumentale Italiana - Dolcissimo sospiro (2005)

Roberta Invernizzi, Alberto Rasi, Accademia Strumentale Italiana - Dolcissimo sospiro: Arie & Madrigale by Giulio Caccini with instrumental music of his time (2005)
EAC | FLAC | Image (Cue & Log) ~ 270 Mb | Total time: 62:45 | Scans included
Classical | Label: Divox | # CDX-70202-6 | Recorded: 2003

Italian late Renaissance composer Giulio Caccini (1551-1618) was not only one of the most famous composers of his time but also an exceptionally gifted singer. "Dolcissimo sospiro" presents a fine selection of strophic arias and madrigals from Caccini's "Nuove Musiche". Singer of those "sweetest sigh", Roberta Invernizzi, is one of the most sought-after sopranos in the field of Early Music. The Accademia Strumentale Italiana, an ensemble specializing in Early Music, has performed extensively in Italy, Spain, Belgium, Switzerland, Austria and Germany and has been invited to several international festivals. This recording received the Midem Award for the Best Recording of Early Music in 2007.

Performer:
Roberta Invernizzi soprano
Accademia Strumentale Italiana
Alberto Rasi, director

Track List:
Giulio Caccini
01. Ch'io non t'ami cor mio
Orazio Bassani
02. Toccata per la viola
Giulio Caccini
03. Tutto 'l dì piango
Luzzasco Luzzaschi
04. Toccata del IV tuono
Giulio Caccini
05. Dalla porta d'Oriente
Vincenzo Bonizzi
06. Jouissance vous donneray
Giulio Caccini
07. Torna deh torna
Giovanni Antonio Terzi
08. Toccata per la viola
Giulio Caccini
09. Amarilli
Claudio Merulo
10. Susanne un jour
Giulio Caccini
11. Con le luci
Orazio Bassani
12. Toccata per la viola
Giulio Caccini
13. Dolcissimo sospiro
Giovanni Antonio Terzi
14. Vestiva i colli
Giulio Caccini
15. La bella man vi stringo
16. Amor, io parto
Francesco M. Bassani
17. Io son ferito ahi lasso
Giulio Caccini
18. Vaga su spin'ascosa
19. Amor ch'attendi


Exact Audio Copy V1.5 from 20. February 2020

EAC extraction logfile from 16. April 2021, 23:11

Roberta Invernizzi, Accademia Strumentale Italiana / Dolcissimo sospiro

Used drive : ASUS SDRW-08U7M-U Adapter: 1 ID: 0

Read mode : Secure
Utilize accurate stream : Yes
Defeat audio cache : Yes
Make use of C2 pointers : No

Read offset correction : 6
Overread into Lead-In and Lead-Out : No
Fill up missing offset samples with silence : Yes
Delete leading and trailing silent blocks : No
Null samples used in CRC calculations : Yes
Used interface : Native Win32 interface for Win NT & 2000

Used output format : User Defined Encoder
Selected bitrate : 128 kBit/s
Quality : High
Add ID3 tag : No
Command line compressor : C:\Program Files (x86)\Exact Audio Copy\Flac\flac.exe
Additional command line options : -V -8 -T "Date=%year%" -T "Genre=%genre%" %source%


TOC of the extracted CD

Track | Start | Length | Start sector | End sector
––––––––––––––––––––––––––––-
1 | 0:00.00 | 2:26.60 | 0 | 11009
2 | 2:26.60 | 1:22.42 | 11010 | 17201
3 | 3:49.27 | 6:03.33 | 17202 | 44459
4 | 9:52.60 | 1:48.24 | 44460 | 52583
5 | 11:41.09 | 1:47.62 | 52584 | 60670
6 | 13:28.71 | 6:02.05 | 60671 | 87825
7 | 19:31.01 | 4:34.05 | 87826 | 108380
8 | 24:05.06 | 2:52.23 | 108381 | 121303
9 | 26:57.29 | 2:49.02 | 121304 | 133980
10 | 29:46.31 | 5:00.23 | 133981 | 156503
11 | 34:46.54 | 1:48.19 | 156504 | 164622
12 | 36:34.73 | 1:20.00 | 164623 | 170622
13 | 37:54.73 | 2:42.55 | 170623 | 182827
14 | 40:37.53 | 5:27.21 | 182828 | 207373
15 | 46:04.74 | 2:05.61 | 207374 | 216809
16 | 48:10.60 | 3:34.33 | 216810 | 232892
17 | 51:45.18 | 6:03.07 | 232893 | 260124
18 | 57:48.25 | 3:15.64 | 260125 | 274813
19 | 61:04.14 | 1:40.61 | 274814 | 282374


Range status and errors

Selected range

Filename C:\temp\Dolcissimo Sospiro - Invernizzi, Accademia Strumentale Italiana - 2005\Dolcissimo sospiro.wav

Peak level 96.2 %
Extraction speed 2.2 X
Range quality 100.0 %
Test CRC C0351C26
Copy CRC C0351C26
Copy OK

No errors occurred


AccurateRip summary

Track 1 accurately ripped (confidence 2) [FE3660D6] (AR v2)
Track 2 accurately ripped (confidence 2) [A6FD99D8] (AR v2)
Track 3 accurately ripped (confidence 2) [342AF09F] (AR v2)
Track 4 accurately ripped (confidence 2) [AA3140C8] (AR v2)
Track 5 accurately ripped (confidence 2) [62F9EECA] (AR v2)
Track 6 accurately ripped (confidence 2) [9ABB88F6] (AR v2)
Track 7 accurately ripped (confidence 2) [65C9D586] (AR v2)
Track 8 accurately ripped (confidence 2) [146DACA5] (AR v2)
Track 9 accurately ripped (confidence 2) [40713580] (AR v2)
Track 10 accurately ripped (confidence 2) [FEB3FAA1] (AR v2)
Track 11 accurately ripped (confidence 2) [B43D3F55] (AR v2)
Track 12 accurately ripped (confidence 2) [A266C384] (AR v2)
Track 13 accurately ripped (confidence 2) [41A51128] (AR v2)
Track 14 accurately ripped (confidence 2) [F3E12DDF] (AR v2)
Track 15 accurately ripped (confidence 2) [F7C027BA] (AR v2)
Track 16 accurately ripped (confidence 2) [41DBFFAC] (AR v2)
Track 17 accurately ripped (confidence 2) [14CB274C] (AR v2)
Track 18 accurately ripped (confidence 2) [DD29C3B7] (AR v2)
Track 19 accurately ripped (confidence 2) [FC95C62F] (AR v2)

All tracks accurately ripped

End of status report

==== Log checksum 12579413ED216A6EA37AACF97613DDA3BB52FBB98220246C8A349EF01AAB726B ====

Roberta Invernizzi, Alberto Rasi, Accademia Strumentale Italiana - Dolcissimo sospiro (2005)

Thanks to the original releaser