Subcategories

Roberto Tigani, Orchestra dell' Accademia Romana 'Arcangelo Corelli' - A. Scarlatti: Messa in sol maggiore (2000)

Posted By: ArlegZ
Roberto Tigani, Orchestra dell' Accademia Romana 'Arcangelo Corelli' - A. Scarlatti: Messa in sol maggiore (2000)

Roberto Tigani, Orchestra dell' Accademia Romana 'Arcangelo Corelli - A. Scarlatti: Messa in sol maggiore; Amadori: Beatus Vir; Ziretti: Arie (2000)
EAC | FLAC | Image (Cue & Log) ~ 285 Mb | Total time: 58:58 | Scans included
Classical | Label: Bongiovanni | BGV 5072 | Recorded: 1995-1996

Roberto Tigani directs Orchestra dell'Accademia Romana "Arcangelo Corelli" and soprano Claudia Toti in a performance of three rarely recorded Italian sacred works.
The manuscript for the mass by Scarlatti was discovered in the 1950s in the archives of the Roman basilica of Santa Maria in Trastevere. It brings to eleven his surviving masses. It is the only know copy and lacks both the Benedictus and the Angus Dei.

Performer:
Claudia Toti, soprano
Loredana Birocci, mezzo-soprano
Luigi Petroni, tenor
Riccardo Marcucci, bass
Giandomenico Piermarini, organ
Duquense University Chamber Singer
Coro della Basilica di Santa Maria in Trastevere
Orchestra dell' Accademia Romana 'Arcangelo Corelli'
Roberto Tigani, conductor

Track List:
Giuseppe Amadori (1670-1730) - Beatus vir
01. Beatus vir
02. Potens in terra
03. Gloria et divitiae
04. Exortum
05. in memoriam
06. Paratur cor ejus
07. Dispersit
08. Peccator videbit
09. Gloria Patri
10. Sicut erat in principio
Giuseppe Ziretti (fl.1734-37) - Mass in D major (incomplete): Arias, for solo voice and orchestra
11. Laudamus
12. Gratias
13. Domine fili
14. Qui sedes
15. Quoniam
Alessandro Scarlatti (1660-1725) - Mass in G major (incomplete), for 4 soloists, chorus and orchestra
16. Kyrie
17. Gloria
18. Credo
19. Sanctus


Exact Audio Copy V1.3 from 2. September 2016

EAC extraction logfile from 17. February 2020, 15:10

Roberto Tigani / Alessandro Scarlatti - Mass in G

Used drive : HL-DT-STBD-RE WH16NS40 Adapter: 1 ID: 0

Read mode : Secure
Utilize accurate stream : Yes
Defeat audio cache : Yes
Make use of C2 pointers : No

Read offset correction : 6
Overread into Lead-In and Lead-Out : No
Fill up missing offset samples with silence : Yes
Delete leading and trailing silent blocks : No
Null samples used in CRC calculations : Yes
Used interface : Native Win32 interface for Win NT & 2000

Used output format : User Defined Encoder
Selected bitrate : 1024 kBit/s
Quality : High
Add ID3 tag : No
Command line compressor : C:\Program Files (x86)\Exact Audio Copy\FLAC\FLAC.EXE
Additional command line options : -6 -V -T "ARTIST=%artist%" -T "TITLE=%title%" -T "ALBUM=%albumtitle%" -T "DATE=%year%" -T "TRACKNUMBER=%tracknr%" -T "GENRE=%genre%" -T "COMMENT=%comment%" -T "BAND=%albuminterpret%" -T "ALBUMARTIST=%albuminterpret%" -T "COMPOSER=%composer%" %haslyrics%–tag-from-file=LYRICS="%lyricsfile%"%haslyrics% -T "DISCNUMBER=%cdnumber%" -T "TOTALDISCS=%totalcds%" -T "TOTALTRACKS=%numtracks%" %hascover%–picture="%coverfile%"%hascover% %source% -o %dest%


TOC of the extracted CD

Track | Start | Length | Start sector | End sector
––––––––––––––––––––––––––––-
1 | 0:00.33 | 1:53.27 | 33 | 8534
2 | 1:53.60 | 1:26.55 | 8535 | 15039
3 | 3:20.40 | 1:37.30 | 15040 | 22344
4 | 4:57.70 | 4:09.68 | 22345 | 41087
5 | 9:07.63 | 1:46.62 | 41088 | 49099
6 | 10:54.50 | 1:31.68 | 49100 | 55992
7 | 12:26.43 | 1:23.10 | 55993 | 62227
8 | 13:49.53 | 2:51.42 | 62228 | 75094
9 | 16:41.20 | 1:06.18 | 75095 | 80062
10 | 17:47.38 | 1:57.42 | 80063 | 88879
11 | 19:45.05 | 2:19.23 | 88880 | 99327
12 | 22:04.28 | 2:13.15 | 99328 | 109317
13 | 24:17.43 | 1:54.15 | 109318 | 117882
14 | 26:11.58 | 2:56.62 | 117883 | 131144
15 | 29:08.45 | 2:02.50 | 131145 | 140344
16 | 31:11.20 | 5:18.48 | 140345 | 164242
17 | 36:29.68 | 9:26.25 | 164243 | 206717
18 | 45:56.18 | 12:15.45 | 206718 | 261887
19 | 58:11.63 | 0:48.45 | 261888 | 265532


Range status and errors

Selected range

Filename C:\Users\Grant\Desktop\Roberto Tigani - Alessandro Scarlatti - Mass in G.wav

Peak level 100.0 %
Extraction speed 7.5 X
Range quality 99.9 %
Test CRC 4C1A88F2
Copy CRC 4C1A88F2
Copy OK

No errors occurred


AccurateRip summary

Track 1 not present in database
Track 2 not present in database
Track 3 not present in database
Track 4 not present in database
Track 5 not present in database
Track 6 not present in database
Track 7 not present in database
Track 8 not present in database
Track 9 not present in database
Track 10 not present in database
Track 11 not present in database
Track 12 not present in database
Track 13 not present in database
Track 14 not present in database
Track 15 not present in database
Track 16 not present in database
Track 17 not present in database
Track 18 not present in database
Track 19 not present in database

None of the tracks are present in the AccurateRip database

End of status report

–– CUETools DB Plugin V2.1.6

[CTDB TOCID: m_YP9ADzwszY4racvVKvQw.VUvM-] found
Submit result: m_YP9ADzwszY4racvVKvQw.VUvM- has been confirmed
Track | CTDB Status
1 | (1/1) Accurately ripped
2 | (1/1) Accurately ripped
3 | (1/1) Accurately ripped
4 | (1/1) Accurately ripped
5 | (1/1) Accurately ripped
6 | (1/1) Accurately ripped
7 | (1/1) Accurately ripped
8 | (1/1) Accurately ripped
9 | (1/1) Accurately ripped
10 | (1/1) Accurately ripped
11 | (1/1) Accurately ripped
12 | (1/1) Accurately ripped
13 | (1/1) Accurately ripped
14 | (1/1) Accurately ripped
15 | (1/1) Accurately ripped
16 | (1/1) Accurately ripped
17 | (1/1) Accurately ripped
18 | (1/1) Accurately ripped
19 | (1/1) Accurately ripped


==== Log checksum 799F76B766C55C38AA9169BDC8E92A3628A509564E6CF198E5CC31820A31279B ====

Roberto Tigani, Orchestra dell' Accademia Romana 'Arcangelo Corelli' - A. Scarlatti: Messa in sol maggiore (2000)

Thanks to the original releaser