Subcategories
Tags
Language
Tags

Roger Norrington, London Philharmonic Orchestra - Vaughan Williams: Symphony No. 2 'London', Tallis Fantastia (2000)

Posted By: ArlegZ
Roger Norrington, London Philharmonic Orchestra - Vaughan Williams: Symphony No. 2 'London', Tallis Fantastia (2000)

Roger Norrington, London Philharmonic Orchestra - Vaughan Williams: Symphony No. 2 'London', Tallis Fantastia (2000)
EAC | FLAC | Image (Cue & Log) ~ 277 Mb | Total time: 76:07 | Scans included
Classical | Label: Decca | # 467 067-2 | Recorded: 1996, 1997

Roger Norrington's starrily cast Serenade to Music remains just as potently beautiful as it did on its initial appearance in 1997 while his clear-headed, defiantly dry-eyed conducting of the timeless Tallis Fantasia certainly offers plenty of food for thought. Nor can there be any grumbles about the startling range and fidelity of Decca's engineering throughout. It's the main item on the menu, however, which may well sharply divide opinion. Although the LPO responds in impressively clean-heeled fashion, Norrington rather fights shy of the London Symphony's breathtakingly varied range of emotions, and anyone familiar with, say, Boult's classic mono recording will surely crave far more in the way of passionate fervour and symphonic thrust.
–Andrew Achenbach

Performer:
London Philharmonic Orchestra
Roger Norrington, conductor

Track List:
Symphony No. 2 "A London Symphony"
01. Lento - Allegro risoluto
02. Lento
03. Scherzo (Nocturne, Allegro vivace)
04. Andante con moto - Epilogue
05. Fantasia on a Theme by Thomas Tallis
06. Serenade to Music


Exact Audio Copy V1.6 from 23. October 2020

EAC extraction logfile from 1. June 2021, 11:22

Vaughan Williams / LPO / Norrington / Symphony No.2, Tallis Fantasia

Used drive : ASUS DRW-24B1ST j Adapter: 1 ID: 0

Read mode : Secure
Utilize accurate stream : Yes
Defeat audio cache : Yes
Make use of C2 pointers : No

Read offset correction : 6
Overread into Lead-In and Lead-Out : No
Fill up missing offset samples with silence : Yes
Delete leading and trailing silent blocks : No
Null samples used in CRC calculations : Yes
Used interface : Native Win32 interface for Win NT & 2000

Used output format : User Defined Encoder
Selected bitrate : 896 kBit/s
Quality : High
Add ID3 tag : No
Command line compressor : C:\Program Files (x86)\Exact Audio Copy\FLAC\FLAC.EXE
Additional command line options : -6 -V -T "ARTIST=%artist%" -T "TITLE=%title%" -T "ALBUM=%albumtitle%" -T "DATE=%year%" -T "TRACKNUMBER=%tracknr%" -T "GENRE=%genre%" -T "COMMENT=%comment%" -T "BAND=%albuminterpret%" -T "ALBUMARTIST=%albuminterpret%" -T "COMPOSER=%composer%" %haslyrics%–tag-from-file=LYRICS="%lyricsfile%"%haslyrics% -T "DISCNUMBER=%cdnumber%" -T "TOTALDISCS=%totalcds%" -T "TOTALTRACKS=%numtracks%" %hascover%–picture="%coverfile%"%hascover% %source% -o %dest%


TOC of the extracted CD

Track | Start | Length | Start sector | End sector
––––––––––––––––––––––––––––-
1 | 0:00.00 | 15:36.27 | 0 | 70226
2 | 15:36.27 | 10:45.74 | 70227 | 118675
3 | 26:22.26 | 7:46.59 | 118676 | 153684
4 | 34:09.10 | 12:57.29 | 153685 | 211988
5 | 47:06.39 | 14:44.60 | 211989 | 278348
6 | 61:51.24 | 14:13.61 | 278349 | 342384


Range status and errors

Selected range

Filename G:\Tubarec rips\Vaughan Williams - LPO , Norrington , Symphony No.2, Tallis Fantasia\Vaughan Williams - LPO , Norrington , Symphony No.2, Tallis Fantasia.wav

Peak level 100.0 %
Extraction speed 8.3 X
Range quality 100.0 %
Test CRC FE964C22
Copy CRC FE964C22
Copy OK

No errors occurred


AccurateRip summary

Track 1 accurately ripped (confidence 12) [3F6C8073] (AR v2)
Track 2 accurately ripped (confidence 12) [99009ADD] (AR v2)
Track 3 accurately ripped (confidence 12) [774C0485] (AR v2)
Track 4 accurately ripped (confidence 12) [918C39D5] (AR v2)
Track 5 accurately ripped (confidence 12) [285F288C] (AR v2)
Track 6 accurately ripped (confidence 11) [ED2D54D9] (AR v2)

All tracks accurately ripped

End of status report

–– CUETools DB Plugin V2.1.6

[CTDB TOCID: if4uWevxDdXsuwth_Rogrk9AdVc-] found
Submit result: if4uWevxDdXsuwth_Rogrk9AdVc- has been confirmed
Track | CTDB Status
1 | (32/32) Accurately ripped
2 | (32/32) Accurately ripped
3 | (32/32) Accurately ripped
4 | (31/32) Accurately ripped
5 | (32/32) Accurately ripped
6 | (30/32) Accurately ripped


==== Log checksum C22DA1A074D6160CEEC4F28895F0251C41B3DCDFF0E9216BDEFBF4230D298221 ====

Roger Norrington, London Philharmonic Orchestra - Vaughan Williams: Symphony No. 2 'London', Tallis Fantastia (2000)

Thanks to the original releaser