Tags
Language
Tags
June 2024
Su Mo Tu We Th Fr Sa
26 27 28 29 30 31 1
2 3 4 5 6 7 8
9 10 11 12 13 14 15
16 17 18 19 20 21 22
23 24 25 26 27 28 29
30 1 2 3 4 5 6

The Rolling Stones - Sticky Fingers Sessions [2CD Set] (2013)

Posted By: JET 1
The Rolling Stones - Sticky Fingers Sessions [2CD Set] (2013)

The Rolling Stones - Sticky Fingers Sessions [2CD Set] (2013)
EAC Rip | FLAC (Tracks) +CUE, LOG | 925 MB
Genre: Classic Rock | Label: Mayflower Records [Unofficial Release] | Catalog Number: MF-22/23

This recent release from Mayflower presents the sessions from 1969 through October 1970 generally known as Sticky Fingers Sessions (hence this collection s name) but that have songs that will end up further on in the Stones history from Exile through Goat s Head Soup. Disc One has a number of tracks from Muscle Shoals Studios, beginning with two versions of You Gotta Move, the second of which is actually the one mixed later in London. Then 5 versions of Brown Sugar ranging from the first one with lead vocals but without lead guitar allegedly recorded on December 3rd to the alternate version recorded on December 4th without sax to the alternate version found on the first pressings of Hot Rocks 2LP compilation to a version that features Bobby Keys sax from 1.42 mixed in April 1970 in London and finally a version with less acoustic guitar again mixed in London on April 24th 1970. 6 versions of Wild Horses follow and here we have the demo given to Gram parson with Jim Dickinson on tack piano and an instrumental (known to be a fake) from December 4th 1969, the alternate version to be found on Hot Rocks, an alternate mix with piano, a version that features Sneaky Pete Kleinow on pedal steel and Leon Russell on organ overdubs. After the well know Brown Sugar version cut at Olympic Studios on 18th December 1969 with Eric Clapton we get then some tracks recorded at London s Olympic Studios and Stargroves in Newbury from March through June 1970: two instrumentals Dancing in the Light and Leather Jacket, a less slide guitar and piano version of Dead Flowers and the usual @#$%& Blues which has nothing to do with Sticky Fingers. Side Two opens with some tracks recorded from 14th through 27th July 1970 at the Olympic Studios in London: All Down The Line electric version, Who Am I? and I m Going Down followed by two versions of Shine A Light. Then there are the Stargroves sessions from October 1970 that features Trident Jam, So Divine, Potted Shrimp and Travellin Man instrumentals, Stop Breaking Down, Tumbling Dice, Shake Your Hips and All Down The Line (slow electric version) together with the alternate mix of Bitch, Sway (b side of the Wild Horses single released on June 12th 1971 that has a different version of the song, Sweet Virginia without backing vocals and Silver Train; the second disc ends with an instrumental version of Brown Sugar in great stereo which is not listed on the back cover and Let It Rock from Leeds 1971 concert. Apart from some known fallacies like the Wild Horses instrumental fake and inconsistencies like @#$%& Blues and Let It Rock it must be said that this release presents an optimum sound output which is very consistent throughout making this compilation of outtakes/alternates an enjoyable experience for Stones fans and collectors.
Exact Audio Copy V1.6 from 23. October 2020

EAC extraction logfile from 14. April 2021, 15:13

The Rolling Stones / Sticky Fingers Sessions

Used drive : HL-DT-STDVDRAM GP65NB60 Adapter: 1 ID: 0

Read mode : Secure
Utilize accurate stream : Yes
Defeat audio cache : Yes
Make use of C2 pointers : No

Read offset correction : 6
Overread into Lead-In and Lead-Out : No
Fill up missing offset samples with silence : Yes
Delete leading and trailing silent blocks : No
Null samples used in CRC calculations : Yes
Used interface : Native Win32 interface for Win NT & 2000
Gap handling : Appended to previous track

Used output format : User Defined Encoder
Selected bitrate : 1024 kBit/s
Quality : High
Add ID3 tag : No
Command line compressor : C:\Program Files (x86)\Exact Audio Copy\Flac\flac.exe
Additional command line options : -8 -e -p -V -T "ARTIST=%artist%" -T "TITLE=%title%" -T "ALBUM=%albumtitle%" -T "DATE=%year%" -T "TRACKNUMBER=%tracknr%" -T "GENRE=%genre%" -T "PERFORMER=%albuminterpret%" -T "COMPOSER=%composer%" %haslyrics%–tag-from-file=LYRICS="%lyricsfile%"%haslyrics% -T "ALBUMARTIST=%albumartist%" -T "DISCNUMBER=%cdnumber%" -T "TOTALDISCS=%totalcds%" -T "TOTALTRACKS=%numtracks%" -T "COMMENT=%comment%" %source% -o %dest%


TOC of the extracted CD

Track | Start | Length | Start sector | End sector
––––––––––––––––––––––––––––-
1 | 0:00.00 | 2:43.07 | 0 | 12231
2 | 2:43.07 | 2:32.33 | 12232 | 23664
3 | 5:15.40 | 3:49.33 | 23665 | 40872
4 | 9:04.73 | 3:46.08 | 40873 | 57830
5 | 12:51.06 | 3:47.27 | 57831 | 74882
6 | 16:38.33 | 3:54.10 | 74883 | 92442
7 | 20:32.43 | 4:00.16 | 92443 | 110458
8 | 24:32.59 | 5:36.40 | 110459 | 135698
9 | 30:09.24 | 3:39.67 | 135699 | 152190
10 | 33:49.16 | 5:40.38 | 152191 | 177728
11 | 39:29.54 | 5:28.53 | 177729 | 202381
12 | 44:58.32 | 5:25.49 | 202382 | 226805
13 | 50:24.06 | 2:54.21 | 226806 | 239876
14 | 53:18.27 | 4:09.30 | 239877 | 258581
15 | 57:27.57 | 2:48.29 | 258582 | 271210
16 | 60:16.11 | 4:03.70 | 271211 | 289505
17 | 64:20.06 | 3:25.42 | 289506 | 304922
18 | 67:45.48 | 3:26.50 | 304923 | 320422


Track 1

Filename C:\Staging\The Rolling Stones - Sticky Fingers Sessions [2013 Mayflower CD MF-22_23]\Disc One\01 - You Gotta Move.wav

Pre-gap length 0:00:02.00

Peak level 93.3 %
Extraction speed 1.0 X
Track quality 100.0 %
Test CRC 19AA683F
Copy CRC 19AA683F
Accurately ripped (confidence 1) [AC388AAF] (AR v2)
Copy OK

Track 2

Filename C:\Staging\The Rolling Stones - Sticky Fingers Sessions [2013 Mayflower CD MF-22_23]\Disc One\02 - You Gotta Move (Alternate Mix).wav

Peak level 96.6 %
Extraction speed 1.1 X
Track quality 100.0 %
Test CRC C21B98C7
Copy CRC C21B98C7
Accurately ripped (confidence 1) [191A6765] (AR v2)
Copy OK

Track 3

Filename C:\Staging\The Rolling Stones - Sticky Fingers Sessions [2013 Mayflower CD MF-22_23]\Disc One\03 - Brown Sugar (Early Vocals, No Lead Guitar).wav

Peak level 96.6 %
Extraction speed 1.3 X
Track quality 100.0 %
Test CRC 188D3305
Copy CRC 188D3305
Accurately ripped (confidence 1) [C47F946B] (AR v2)
Copy OK

Track 4

Filename C:\Staging\The Rolling Stones - Sticky Fingers Sessions [2013 Mayflower CD MF-22_23]\Disc One\04 - Brown Sugar (W,o Sax, Alternate Guitar).wav

Peak level 96.6 %
Extraction speed 1.2 X
Track quality 99.9 %
Test CRC 9CBEF8A4
Copy CRC 9CBEF8A4
Accurately ripped (confidence 1) [A5CC898E] (AR v2)
Copy OK

Track 5

Filename C:\Staging\The Rolling Stones - Sticky Fingers Sessions [2013 Mayflower CD MF-22_23]\Disc One\05 - Brown Sugar (W,o Sax, Released On Hot Rocks 1st Pressing).wav

Peak level 96.6 %
Extraction speed 1.5 X
Track quality 100.0 %
Test CRC 9B00C8DC
Copy CRC 9B00C8DC
Accurately ripped (confidence 1) [7ADEF87B] (AR v2)
Copy OK

Track 6

Filename C:\Staging\The Rolling Stones - Sticky Fingers Sessions [2013 Mayflower CD MF-22_23]\Disc One\06 - Brown Sugar (Later Sax At 1-42).wav

Peak level 96.6 %
Extraction speed 1.6 X
Track quality 100.0 %
Test CRC 471DFCF9
Copy CRC 471DFCF9
Accurately ripped (confidence 1) [0CFA036A] (AR v2)
Copy OK

Track 7

Filename C:\Staging\The Rolling Stones - Sticky Fingers Sessions [2013 Mayflower CD MF-22_23]\Disc One\07 - Brown Sugar (Less Acoustic Guitar).wav

Peak level 96.6 %
Extraction speed 1.7 X
Track quality 100.0 %
Test CRC D1F355DE
Copy CRC D1F355DE
Accurately ripped (confidence 1) [9F498F01] (AR v2)
Copy OK

Track 8

Filename C:\Staging\The Rolling Stones - Sticky Fingers Sessions [2013 Mayflower CD MF-22_23]\Disc One\08 - Wild Horses (Demo Given To Gram Parsons).wav

Peak level 96.6 %
Extraction speed 1.8 X
Track quality 100.0 %
Test CRC 37FEF4BD
Copy CRC 37FEF4BD
Accurately ripped (confidence 1) [05A49005] (AR v2)
Copy OK

Track 9

Filename C:\Staging\The Rolling Stones - Sticky Fingers Sessions [2013 Mayflower CD MF-22_23]\Disc One\09 - Wild Horses (Instrumental).wav

Peak level 95.5 %
Extraction speed 1.8 X
Track quality 100.0 %
Test CRC 419C7CAB
Copy CRC 419C7CAB
Accurately ripped (confidence 1) [5215062F] (AR v2)
Copy OK

Track 10

Filename C:\Staging\The Rolling Stones - Sticky Fingers Sessions [2013 Mayflower CD MF-22_23]\Disc One\10 - Wild Horses (Released On Hot Rocks 1st Pressing).wav

Peak level 95.5 %
Extraction speed 2.0 X
Track quality 100.0 %
Test CRC 610FB469
Copy CRC 610FB469
Accurately ripped (confidence 1) [3A5E04F8] (AR v2)
Copy OK

Track 11

Filename C:\Staging\The Rolling Stones - Sticky Fingers Sessions [2013 Mayflower CD MF-22_23]\Disc One\11 - Wild Horses (W,o Piano, Alternate Mix).wav

Peak level 96.6 %
Extraction speed 2.1 X
Track quality 100.0 %
Test CRC 56134D3E
Copy CRC 56134D3E
Accurately ripped (confidence 1) [CAD8DF61] (AR v2)
Copy OK

Track 12

Filename C:\Staging\The Rolling Stones - Sticky Fingers Sessions [2013 Mayflower CD MF-22_23]\Disc One\12 - Wild Horses (Overdubs).wav

Peak level 95.5 %
Extraction speed 2.2 X
Track quality 100.0 %
Test CRC 5903519D
Copy CRC 5903519D
Accurately ripped (confidence 1) [510249BA] (AR v2)
Copy OK

Track 13

Filename C:\Staging\The Rolling Stones - Sticky Fingers Sessions [2013 Mayflower CD MF-22_23]\Disc One\13 - Wild Horses (Short Take).wav

Pre-gap length 0:00:00.01

Peak level 95.5 %
Extraction speed 1.8 X
Track quality 99.9 %
Test CRC A68F25C6
Copy CRC A68F25C6
Accurately ripped (confidence 1) [51DA3068] (AR v2)
Copy OK

Track 14

Filename C:\Staging\The Rolling Stones - Sticky Fingers Sessions [2013 Mayflower CD MF-22_23]\Disc One\14 - Brown Sugar (with Eric Clapton).wav

Peak level 96.6 %
Extraction speed 2.3 X
Track quality 100.0 %
Test CRC 10C235E3
Copy CRC 10C235E3
Accurately ripped (confidence 1) [697DA820] (AR v2)
Copy OK

Track 15

Filename C:\Staging\The Rolling Stones - Sticky Fingers Sessions [2013 Mayflower CD MF-22_23]\Disc One\15 - Dancing In The Light (Instrumental).wav

Peak level 96.6 %
Extraction speed 2.2 X
Track quality 100.0 %
Test CRC 6BBFAB03
Copy CRC 6BBFAB03
Accurately ripped (confidence 1) [7B16C43A] (AR v2)
Copy OK

Track 16

Filename C:\Staging\The Rolling Stones - Sticky Fingers Sessions [2013 Mayflower CD MF-22_23]\Disc One\16 - Dead Flowers (Alternate Mix, Less Slide Guitar & Piano).wav

Peak level 96.6 %
Extraction speed 2.4 X
Track quality 100.0 %
Test CRC 719F43AB
Copy CRC 719F43AB
Accurately ripped (confidence 1) [EF04D690] (AR v2)
Copy OK

Track 17

Filename C:\Staging\The Rolling Stones - Sticky Fingers Sessions [2013 Mayflower CD MF-22_23]\Disc One\17 - Cocksucker Blues (aka Schoolboy Blues).wav

Peak level 96.6 %
Extraction speed 2.4 X
Track quality 100.0 %
Test CRC F04A1A14
Copy CRC F04A1A14
Accurately ripped (confidence 1) [3A81E03B] (AR v2)
Copy OK

Track 18

Filename C:\Staging\The Rolling Stones - Sticky Fingers Sessions [2013 Mayflower CD MF-22_23]\Disc One\18 - Leather Jacket (Instrumental).wav

Peak level 96.6 %
Extraction speed 2.4 X
Track quality 100.0 %
Test CRC B47C23D3
Copy CRC B47C23D3
Accurately ripped (confidence 1) [E6229939] (AR v2)
Copy OK


All tracks accurately ripped

No errors occurred

End of status report

–– CUETools DB Plugin V2.1.6

[CTDB TOCID: B3EmHxpJ5E3sXeOlzC30Oc2ge6Y-] found
Submit result: B3EmHxpJ5E3sXeOlzC30Oc2ge6Y- has been confirmed
Track | CTDB Status
1 | (1/1) Accurately ripped
2 | (1/1) Accurately ripped
3 | (1/1) Accurately ripped
4 | (1/1) Accurately ripped
5 | (1/1) Accurately ripped
6 | (1/1) Accurately ripped
7 | (1/1) Accurately ripped
8 | (1/1) Accurately ripped
9 | (1/1) Accurately ripped
10 | (1/1) Accurately ripped
11 | (1/1) Accurately ripped
12 | (1/1) Accurately ripped
13 | (1/1) Accurately ripped
14 | (1/1) Accurately ripped
15 | (1/1) Accurately ripped
16 | (1/1) Accurately ripped
17 | (1/1) Accurately ripped
18 | (1/1) Accurately ripped


==== Log checksum 475FD18B4D105C3F3A39B65D49F12ADE0A275D0F7985EC698CA9FE11D51E2EB2 ====

Exact Audio Copy V1.6 from 23. October 2020

EAC extraction logfile from 15. April 2021, 10:15

The Rolling Stones / Sticky Fingers Sessions

Used drive : HL-DT-STDVDRAM GP65NB60 Adapter: 1 ID: 0

Read mode : Secure
Utilize accurate stream : Yes
Defeat audio cache : Yes
Make use of C2 pointers : No

Read offset correction : 6
Overread into Lead-In and Lead-Out : No
Fill up missing offset samples with silence : Yes
Delete leading and trailing silent blocks : No
Null samples used in CRC calculations : Yes
Used interface : Native Win32 interface for Win NT & 2000
Gap handling : Appended to previous track

Used output format : User Defined Encoder
Selected bitrate : 1024 kBit/s
Quality : High
Add ID3 tag : No
Command line compressor : C:\Program Files (x86)\Exact Audio Copy\Flac\flac.exe
Additional command line options : -8 -e -p -V -T "ARTIST=%artist%" -T "TITLE=%title%" -T "ALBUM=%albumtitle%" -T "DATE=%year%" -T "TRACKNUMBER=%tracknr%" -T "GENRE=%genre%" -T "PERFORMER=%albuminterpret%" -T "COMPOSER=%composer%" %haslyrics%–tag-from-file=LYRICS="%lyricsfile%"%haslyrics% -T "ALBUMARTIST=%albumartist%" -T "DISCNUMBER=%cdnumber%" -T "TOTALDISCS=%totalcds%" -T "TOTALTRACKS=%numtracks%" -T "COMMENT=%comment%" %source% -o %dest%


TOC of the extracted CD

Track | Start | Length | Start sector | End sector
––––––––––––––––––––––––––––-
1 | 0:00.00 | 4:06.71 | 0 | 18520
2 | 4:06.71 | 3:44.56 | 18521 | 35376
3 | 7:51.52 | 2:50.14 | 35377 | 48140
4 | 10:41.66 | 4:08.54 | 48141 | 66794
5 | 14:50.45 | 4:22.38 | 66795 | 86482
6 | 19:13.08 | 3:44.51 | 86483 | 103333
7 | 22:57.59 | 4:34.06 | 103334 | 123889
8 | 27:31.65 | 3:18.59 | 123890 | 138798
9 | 30:50.49 | 4:17.32 | 138799 | 158105
10 | 35:08.06 | 4:07.47 | 158106 | 176677
11 | 39:15.53 | 3:58.53 | 176678 | 194580
12 | 43:14.31 | 5:24.33 | 194581 | 218913
13 | 48:38.64 | 3:41.70 | 218914 | 235558
14 | 52:20.59 | 5:55.69 | 235559 | 262252
15 | 58:16.53 | 3:22.64 | 262253 | 277466
16 | 61:39.42 | 4:18.36 | 277467 | 296852
17 | 65:58.03 | 3:30.48 | 296853 | 312650
18 | 69:28.51 | 3:48.08 | 312651 | 329758
19 | 73:16.59 | 2:45.59 | 329759 | 342192


Track 1

Filename C:\Staging\The Rolling Stones - Sticky Fingers Sessions [2013 Mayflower CD MF-22_23]\Disc Two\01 - All Down The Line (Electric Version).wav

Pre-gap length 0:00:02.00

Peak level 96.6 %
Extraction speed 1.2 X
Track quality 100.0 %
Test CRC 97A242AD
Copy CRC 97A242AD
Accurately ripped (confidence 1) [0BBC851F] (AR v2)
Copy OK

Track 2

Filename C:\Staging\The Rolling Stones - Sticky Fingers Sessions [2013 Mayflower CD MF-22_23]\Disc Two\02 - Who Am I.wav

Peak level 96.6 %
Extraction speed 1.2 X
Track quality 99.9 %
Test CRC F3D6195D
Copy CRC F3D6195D
Accurately ripped (confidence 1) [8517C618] (AR v2)
Copy OK

Track 3

Filename C:\Staging\The Rolling Stones - Sticky Fingers Sessions [2013 Mayflower CD MF-22_23]\Disc Two\03 - I'm Going Down.wav

Peak level 96.6 %
Extraction speed 1.4 X
Track quality 100.0 %
Test CRC A6035B3B
Copy CRC A6035B3B
Accurately ripped (confidence 1) [1CB46FA8] (AR v2)
Copy OK

Track 4

Filename C:\Staging\The Rolling Stones - Sticky Fingers Sessions [2013 Mayflower CD MF-22_23]\Disc Two\04 - Shine A Light (aka (Can't Seem To) Get A Line On You).wav

Peak level 96.6 %
Extraction speed 1.5 X
Track quality 100.0 %
Test CRC 1630AC18
Copy CRC 1630AC18
Accurately ripped (confidence 1) [DC61E0B5] (AR v2)
Copy OK

Track 5

Filename C:\Staging\The Rolling Stones - Sticky Fingers Sessions [2013 Mayflower CD MF-22_23]\Disc Two\05 - Shine A Light.wav

Peak level 96.6 %
Extraction speed 1.6 X
Track quality 100.0 %
Test CRC B497BCE4
Copy CRC B497BCE4
Accurately ripped (confidence 1) [D8AEEACF] (AR v2)
Copy OK

Track 6

Filename C:\Staging\The Rolling Stones - Sticky Fingers Sessions [2013 Mayflower CD MF-22_23]\Disc Two\06 - Trident Jam (aka Prefab).wav

Peak level 96.6 %
Extraction speed 1.7 X
Track quality 100.0 %
Test CRC 4791FDE7
Copy CRC 4791FDE7
Accurately ripped (confidence 1) [2EDF243F] (AR v2)
Copy OK

Track 7

Filename C:\Staging\The Rolling Stones - Sticky Fingers Sessions [2013 Mayflower CD MF-22_23]\Disc Two\07 - Stop Breaking Down.wav

Peak level 100.0 %
Extraction speed 1.8 X
Track quality 100.0 %
Test CRC CCC26390
Copy CRC CCC26390
Accurately ripped (confidence 1) [7FD1EB4A] (AR v2)
Copy OK

Track 8

Filename C:\Staging\The Rolling Stones - Sticky Fingers Sessions [2013 Mayflower CD MF-22_23]\Disc Two\08 - Tumbling Dice (utt Good Time Woman).wav

Peak level 99.9 %
Extraction speed 1.8 X
Track quality 100.0 %
Test CRC EBB7DFEA
Copy CRC EBB7DFEA
Accurately ripped (confidence 1) [CAEAD4E6] (AR v2)
Copy OK

Track 9

Filename C:\Staging\The Rolling Stones - Sticky Fingers Sessions [2013 Mayflower CD MF-22_23]\Disc Two\09 - Shake Your Hips (aka Hip Shake).wav

Peak level 96.6 %
Extraction speed 2.0 X
Track quality 100.0 %
Test CRC 39D5CBAA
Copy CRC 39D5CBAA
Accurately ripped (confidence 1) [9E3A9417] (AR v2)
Copy OK

Track 10

Filename C:\Staging\The Rolling Stones - Sticky Fingers Sessions [2013 Mayflower CD MF-22_23]\Disc Two\10 - Potted Shrimps (Instrumental).wav

Peak level 96.6 %
Extraction speed 1.8 X
Track quality 99.9 %
Test CRC 231A6801
Copy CRC 231A6801
Accurately ripped (confidence 1) [2803A68B] (AR v2)
Copy OK

Track 11

Filename C:\Staging\The Rolling Stones - Sticky Fingers Sessions [2013 Mayflower CD MF-22_23]\Disc Two\11 - All Down The Line (Electric Slow Version).wav

Peak level 96.6 %
Extraction speed 1.9 X
Track quality 99.9 %
Test CRC 9A5885CF
Copy CRC 9A5885CF
Accurately ripped (confidence 1) [3F50DF71] (AR v2)
Copy OK

Track 12

Filename C:\Staging\The Rolling Stones - Sticky Fingers Sessions [2013 Mayflower CD MF-22_23]\Disc Two\12 - So Divine (aka Aladin Story) (Instrumental).wav

Peak level 96.6 %
Extraction speed 2.3 X
Track quality 100.0 %
Test CRC B5DAE258
Copy CRC B5DAE258
Accurately ripped (confidence 1) [27391E18] (AR v2)
Copy OK

Track 13

Filename C:\Staging\The Rolling Stones - Sticky Fingers Sessions [2013 Mayflower CD MF-22_23]\Disc Two\13 - Bitch (Alternate Mix).wav

Peak level 96.6 %
Extraction speed 2.2 X
Track quality 100.0 %
Test CRC CE21AF36
Copy CRC CE21AF36
Accurately ripped (confidence 1) [330ED904] (AR v2)
Copy OK

Track 14

Filename C:\Staging\The Rolling Stones - Sticky Fingers Sessions [2013 Mayflower CD MF-22_23]\Disc Two\14 - Travelling Man (Instrumental).wav

Peak level 96.6 %
Extraction speed 2.3 X
Track quality 99.9 %
Test CRC 9DB011BB
Copy CRC 9DB011BB
Accurately ripped (confidence 1) [B4C82F60] (AR v2)
Copy OK

Track 15

Filename C:\Staging\The Rolling Stones - Sticky Fingers Sessions [2013 Mayflower CD MF-22_23]\Disc Two\15 - Sway (Released On Wild Horses 7'' June 12, 1971).wav

Peak level 96.6 %
Extraction speed 2.1 X
Track quality 99.9 %
Test CRC 91840BEA
Copy CRC 91840BEA
Accurately ripped (confidence 1) [500FC6C7] (AR v2)
Copy OK

Track 16

Filename C:\Staging\The Rolling Stones - Sticky Fingers Sessions [2013 Mayflower CD MF-22_23]\Disc Two\16 - Sweet Virginia (W,o Backing Vocals).wav

Peak level 96.6 %
Extraction speed 2.5 X
Track quality 100.0 %
Test CRC 485A54CE
Copy CRC 485A54CE
Accurately ripped (confidence 1) [CE62569F] (AR v2)
Copy OK

Track 17

Filename C:\Staging\The Rolling Stones - Sticky Fingers Sessions [2013 Mayflower CD MF-22_23]\Disc Two\17 - Silver Train.wav

Peak level 96.6 %
Extraction speed 2.5 X
Track quality 100.0 %
Test CRC B1084546
Copy CRC B1084546
Accurately ripped (confidence 1) [2D1F044F] (AR v2)
Copy OK

Track 18

Filename C:\Staging\The Rolling Stones - Sticky Fingers Sessions [2013 Mayflower CD MF-22_23]\Disc Two\18 - Brown Sugar.wav

Peak level 96.6 %
Extraction speed 2.5 X
Track quality 100.0 %
Test CRC ED78034F
Copy CRC ED78034F
Accurately ripped (confidence 1) [3C1F9821] (AR v2)
Copy OK

Track 19

Filename C:\Staging\The Rolling Stones - Sticky Fingers Sessions [2013 Mayflower CD MF-22_23]\Disc Two\19 - Let It Rock.wav

Peak level 98.2 %
Extraction speed 2.5 X
Track quality 100.0 %
Test CRC 28E785B9
Copy CRC 28E785B9
Accurately ripped (confidence 1) [8AB983B4] (AR v2)
Copy OK


All tracks accurately ripped

No errors occurred

End of status report

–– CUETools DB Plugin V2.1.6

[CTDB TOCID: DVxawYYyHhqnq6R4IONE3nDGI48-] found
Submit result: DVxawYYyHhqnq6R4IONE3nDGI48- has been confirmed
Track | CTDB Status
1 | (1/1) Accurately ripped
2 | (1/1) Accurately ripped
3 | (1/1) Accurately ripped
4 | (1/1) Accurately ripped
5 | (1/1) Accurately ripped
6 | (1/1) Accurately ripped
7 | (1/1) Accurately ripped
8 | (1/1) Accurately ripped
9 | (1/1) Accurately ripped
10 | (1/1) Accurately ripped
11 | (1/1) Accurately ripped
12 | (1/1) Accurately ripped
13 | (1/1) Accurately ripped
14 | (1/1) Accurately ripped
15 | (1/1) Accurately ripped
16 | (1/1) Accurately ripped
17 | (1/1) Accurately ripped
18 | (1/1) Accurately ripped
19 | (1/1) Accurately ripped


==== Log checksum 8E810D4C7D966057F3E965B408C5A18845EA3FA28AD361D098AF3FC5099BEB4A ====


Tracklist ::::
Disc 1

Florence, Alabama, Muscle Shouls Studios - December 2 - 4, 1969
1. You Gotta Move
2. You Gotta Move (Alternate Mix)
3. Brown Sugar (Early Vocals, No Lead Guitar)
4. Brown Sugar (W/o Sax, Alternate Guitar)
5. Brown Sugar (W/o Sax, Released On Hot Rocks 1st Pressing)
6. Brown Sugar (Later Sax At 1:42)
7. Brown Sugar (Less Acoustic Guitar)
8. Wild Horses (Demo Given To Gram Parsons)
9. Wild Horses (Instrumental)
10. Wild Horses (Released On Hot Rocks 1st Pressing)
11. Wild Horses (W/o Piano, Alternate Mix)
12. Wild Horses (Overdubs)
13. Wild Horses (Short Take)

London, Olympic Sound Studios - December 18, 1969
14. Brown Sugar (with Eric Clapton)

Stargroves, Newbury, Berks & London, Olympic Sound Studios - March To June, 1970
15. Dancing In The Light (Instrumental)
16. Dead Flowers (Alternate Mix, Less Slide Guitar & Piano)
17. Cocksucker Blues (aka Schoolboy Blues)
18. Leather Jacket (Instrumental)

Disc 2

London, Olympic Sound Studios - July 14 - 27, 1970
1. All Down The Line (Electric Version)
2. Who Am I?
3. I'm Going Down
4. Shine A Light (aka (Can't Seem To) Get A Line On You)
5. Shine A Light

Stargroves, Newbury, Berks & London, Olympic Sound Studios - October 17 - 31, 1970
6. Trident Jam (aka Prefab)
7. Stop Breaking Down
8. Tumbling Dice (utt Good Time Woman)
9. Shake Your Hips (aka Hip Shake)
10. Potted Shrimps (Instrumental)
11. All Down The Line (Electric Slow Version)
12. So Divine (aka Aladin Story) (Instrumental)
13. Bitch (Alternate Mix)
14. Travelling Man (Instrumental)
15. Sway (Released On Wild Horses 7'' June 12, 1971)
16. Sweet Virginia (W/o Backing Vocals)
17. Silver Train

Leeds University, Leeds, England - March 13, 1971
18. Brown Sugar
19. Let It Rock (live version)

Digitally remastered 2013.

Thanks to Original Re-leaser.