Subcategories
Tags
Language
Tags

The Rolling Stones - Ultra Rare Trax Complete (1989-93) [10 CD]

Posted By: Andi_Deris
The Rolling Stones - Ultra Rare Trax Complete (1989-93) [10 CD]

The Rolling Stones - Ultra Rare Trax Complete (1989-93) [10 CD]
EAC Rip | APE: Image+Cue+Log | 1.95 Gb | MP3 CBR 320 kbps | 1.03 Gb | Scans | 126 tracks | TTime: 07:27:10
The Genuine Pig/Aziя Records
Rock, Classic Rock, Blues Rock, Rock & Roll, Hard Rock

The Ultra Rare Trax collection brings to the collector or the connoisseur the rare & unreleased studio recordings made by The Rolling Stones. We people at The Genuine Pig work hard to present this material on it's most complete form!

The Rolling Stones - Ultra Rare Trax Complete (1989-93) [10 CD]




The Rolling Stones - Ultra Rare Trax Complete (1989-93) [10 CD]


Ultra Rare Trax Vol. 1 [The Genuine Pig TGP-CD-101]
APE | 197 Mb | MP3 | 103 Mb


01. Aladdin Story [05:10] (Ureleased insturmental, live session at Trident Studios, late 1969)
02. Diddley Daddy [02:36] (Previously unreleased track, live at Chicago Chess Studio 1964)
03. Ain’t That Loving You Baby [01:57] (Previously unreleased track, live at Chicago Chess Studio 1964)
04. Out Of Time [04:55] (Instrumental version, with a different keyboard opening, RCA Studios 1965)
05. Come On [02:00] (BBC broadcoast in 1964)
06. Hillside Blues a.k.a I Don't Know The Reason Why [07:29] ( Previously unreleased song during a live session at Olympic Studios in 1969)
07. You Got The Silver [02:52] (Live rehearsal for "Beggars Banquet", Olympic Studios 1968)
08. Memphis, Tennessee [02:19] (BBC broadcast in 1963)
09. Tell Me Baby [01:58] (Unreleased track recorded live at Chicago Chess Studio in 1964)
10. Prefab [03:33] (Previously unreleased instrumental track, live session at Trident Studios 1969)
11. Memo From Turner [02:38] (Alternate demo version of the one released for "Performance", Olympic Studios 1968)
12. Meet Me In The Bottom [02:43] (Previously unreleased song live at Chicago Chess Studio 1964)
13. Roadrunner [03:01] (Another unreleased song recorded live at Chicago Chess Studio 1964)

The Rolling Stones - Ultra Rare Trax Complete (1989-93) [10 CD]


Ultra Rare Trax Vol. 2 [The Genuine Pig TGP-CD-102]
APE | 157 Mb | MP3 | 102 Mb


01. Roll Over Beethoven [02:16] (1963-09-23: Saturday Club, London, UK, Radio performance)
02. Bright Lights, Big City [02:23] (1963-03-11: IBC Studios, London, UK, Studio Session)
03. Dear Doctor [03:33] (1968-05-13: Olympic Sound Studios, London, England, Studio Session)
04. It's All Over Now [02:55] (1964-07-17: 'The Joe Loss Pop Show', London, UK, Radio performance)
05. Jumping Jack Flash [03:27] (1968-04-20: Olympic Sound Studios, London, UK, Studio Session)
06. And I Was A Country Boy [04:13] (1969-02-10: Olympic Sound Studios, London, England, Studio Session)
07. Not Fade Away [02:04] (1964-04-10: 'The Joe Loss Pop Show' BBC radio, London, UK, Live Concert)
08. Time Is on My Side [02:50] (1964-06-24: Regent Sound Studios, London, UK, Studio Session)
09. (Walkin' Thru) The Sleepy City [02:52] (1964-08-31: Regent Sound Studios and Decca Studios, London, UK, Studio Session)
10. Wild Horses [03:42] (4.12.1969 Alabama, Muscle Shoals Studios)
11. Andrew's Blues [03:00] (1964-02-04: Regent Sound Studios, London, UK, Studio Session)
12. Jiving Sister Fanny [03:15] (1969-04-17: Olympic Sound Studios, London, England, Studio Session)
13. High-Heel Sneakers [03:02] (1964-06-11: Chess Studios, Chicago, IL, Studio Session)
14. How Many More Years [03:01] (Another unrealised instrumental track recorded live at Chicago Chess Studio in 1964)

The Rolling Stones - Ultra Rare Trax Complete (1989-93) [10 CD]


Ultra Rare Trax Vol. 3 [The Genuine Pig TGP-CD-103]
APE | 153 Mb | MP3 | 98 Mb


01. Wild Horses [02:53] (1969-12-02: Muscle Shoals Sound Studios, Florence, AL, Studio Session)
02. Down The Road A Piece [02:03] (1964-05-25: Saturday Club, London, UK, Radio performance)
03. Everybody Needs Somebody To Love [03:32] (1965-03-01: 'Top Gear' UK BBC Radio, Playhouse Theatre Studios, London, UK, Radio performance)
04. Who Am I? [03:44] (1970-06-16: Olympic Sound Studios, London, England, Studio Session)
05. Brown Sugar [04:06] (1969-12-02: Muscle Shoals Sound Studios, Florence, AL, Studio Session)
06. Shades Of Orange [ ] (1967:Olympic Studios, London, England, Studio Session)
07. The Last Time [03:07] (1965-03-01: 'Top Gear' UK BBC Radio, Playhouse Theatre Studios, London, UK, Radio performance)
08. Mercy, Mercy [02:53] (1965-08-20: 'Sarturday Club' BBC, London, UK, Radio performance)
09. I'm Going Down [02:52] (1969-10-17: Elektra Studios, Los Angeles, CA, Studio Session)
10. I Don't Know Why [02:03] (1969-04-17: Olympic Sound Studios, London, England, Studio Session)
11. Ruby Tuesday [03:12] (1966-11-08: Olympic Sound Studios, London, UK, Studio Session)
12. Crackin' Up [02:12] (1964-07-17: 'Top Gear', London, UK, Radio performance)
13. I Want To Be Loved [02:00] (1963-03-11: IBC Studios, London, UK, Studio Session)
14. Potted Shrimps [03:58] (1970-10-17: Olympic Sound Studios, London, England, Studio Session)

The Rolling Stones - Ultra Rare Trax Complete (1989-93) [10 CD]


Ultra Rare Trax Vol. 4 [The Genuine Pig TGP-CD-104]
APE | 194 Mb | MP3 | 102 Mb


01. Travelling Man [05:46] (1970-10-17: Olympic Sound Studios, London, England, Studio Session)
02. Baby What's Wrong [03:23] (1963-03-11: IBC Studios, London, UK, Studio Session)
03. Straight On [02:27] (1969 Muscle Shoals)
04. Cry To Me [03:06] (1965-08-20: 'Sarturday Club' BBC, London, UK, Radio performance)
05. Andrew's Blues [02:57] (1964-02-04: Regent Sound Studios, London, UK, Studio Session)
06. Family [03:30] (1968-06-28: Olympic Sound Studios, London, England, Studio Session)
07. Dancing In The Light [02:44] (1970-03-14: Stargroves, Newbury, UK, Studio Session)
08. Fanny Mae [02:14] (1965-08-20: 'Sarturday Club' BBC, London, UK, Radio performance)
09. As Time Goes By [02:15] (1964-03-11: De Lane Lea Studios, Holborn, UK, Studio Session)
10. Blood Red Wine [05:02] (1968-05-13: Olympic Sound Studios, London, England, Studio Session)
11. No Expectations [03:16] (1968-12-10: Intertel Studios, London, UK, Rehearsal)
12. Poison Ivy [02:31] (1963-07-16: Decca Studios, London, UK, Studio Session)
13. (I Can't Get No) Satisfaction [03:44] (1965-08-20: 'Sarturday Club' BBC, London, UK, Radio performance)

The Rolling Stones - Ultra Rare Trax Complete (1989-93) [10 CD]


Ultra Rare Trax Vol. 5 [The Genuine Pig TGP-CD-105]
APE | 170 Mb | MP3 | 103 Mb


01. Still A Fool [09:32] (1968-05-13: Olympic Sound Studios, London, England, Studio Session)
02. 2120 South Michigan Avenue [03:45] (1964-06-11: Chess Studios, Chicago, IL, Studio Session)
03. Loving Sacred Loving [02:58] (1967: Olympic Studios, London, England, Studio Session)
04. Fortune Teller [02:07] (1963-07-09: Decca Studios, London, UK, Studio Session)
05. High Blues [03:50] (1969: Muscle Shoats, Live Session)
06. The Spider And The Fly [03:26] (1965-08-20: 'Sarturday Club' BBC, London, UK, Radio performance)
07. Mother's Little Helper [02:45] (1965-12-03: RCA Studios, Hollywood, CA, Studio Session)
08. Give Me A Hamburger To Go (aka Stuck Out Alone) [03:12] (1968-05-13: Olympic Sound Studios, London, England, Studio Session)
09. Downtown Suzie [03:39] (1968-05-13: Olympic Sound Studios, London, England, Studio Session)
10. Around And Around [02:44] (1964-07-17: 'Top Gear', London, UK, Radio performance)
11. If You Need Me [01:58] (1964-07-17: 'Top Gear', London, UK, Radio performance)
12. Cocksucker Blues [03:27] (1970-05-09: RS Mobile Recording Studio, Stargroves, Newbury, Studio Session)

The Rolling Stones - Ultra Rare Trax Complete (1989-93) [10 CD]


Ultra Rare Trax Vol. 6 [The Genuine Pig TGP-CD-106]
APE | 168 Mb | MP3 | 95 Mb


01. Oh Baby (We Got A Good Thing Goin') [01:54] (1965-08-20: 'Sarturday Club' BBC, London, UK, Radio performance)
02. Family [03:36] (1968-05-13: Olympic Sound Studios, London, England, Studio Session)
03. Let's Spend the Night Together [03:43] (1966-08-03: RCA Studios, Hollywood, CA, Studio Session)
04. I Can't Be Satisfied [02:29] (1964-07-17: 'Top Gear', London, UK, Radio performance)
05. Wild Horses [05:47] (1969-12-09: Olympic Sound Studios, London, UK, Studio Session)
06. Get Yourself Together (aka Can't Believe it) [03:15] (1966-08-03: RCA Studios, Hollywood, CA, Studio Session)
07. Leather Jacket [03:18] (1970-06-16: Olympic Sound Studios, London, England, Studio Session)
08. Country Honk [02:57] (1969-04-17: Olympic Sound Studios, London, England, Studio Session)
09. Heart Of Stone [03:43] (1964-07-21: Regent Sound Studios, London, UK, Studio Session)
10. Highway Child [05:04] (1968-02-06: Redlands, West Wittering, Sussex, England, Studio Session)
11. Stewed And Keefed [03:25] (1964-06-10: Chess Studios, Chicago, IL, Studio Session)
12. You Gotta Move [00:49] (1969-12-02: Muscle Shoals Sound Studios, Florence, AL, Studio Session)

The Rolling Stones - Ultra Rare Trax Complete (1989-93) [10 CD]


Ultra Rare Trax Vol. 7 [The Genuine Pig TGP-CD-130]
APE | 208 Mb | MP3 | 100 Mb


01. Sympathy For The Devil [08:18] (1969-12-06: Altamont Speedway, Livermore, CA, Live Concert)
02. Sing This All Together [03:44] (1967-07-02: Olympic Sound Studios, London, UK, Studio Session)
03. 19th Nervous Breakdown [03:51] (1965-12-03: RCA Studios, Hollywood, CA, Studio Session)
04. Dirty Mac [03:37] (1968-12-10&11: London)
05. Beautiful Delilah [02:07] (1964-03-08: Saturday Club, London, UK, Radio performance)
06. Live With Me [03:04] (1969-11-10: Sports Arena, San Diego, CA, Live Concert)
07. Tumbling Dice [02:57] (1970-10-17: Olympic Sound Studios, London, England, Studio Session)
08. Mona [02:19] (1964-02-03: Saturday Club, London, UK, Radio performance)
09. Love In Vain [03:55] (1969-11-28: Madison Square Garden (2nd show), New York City, NY, Live Concert)
10. Brown Sugar [03:57] (1970-12-18: Olympic Sound Studios, London, U.K., Studio Session)
11. You Can't Always Get What You Want [04:34] (1968-12-11: Intertel Studios, London, UK, TV appearance)

The Rolling Stones - Ultra Rare Trax Complete (1989-93) [10 CD]


Ultra Rare Trax Vol. 8 [The Genuine Pig TGP-CD-131]
APE | 188 Mb | MP3 | 97 Mb


01. Gimme Shelter [04:19] (1969-10-17: Elektra Studios, Los Angeles, CA, Studio Session)
02. Honky Tonk Women [03:02] (1969-06-16: 'The David Frost Show' Wembley, London, UK, Live Concert)
03. You Can't Always Get What You Want [04:39] (1969-06-16: 'The David Frost Show' Wembley, London, UK, Live Concert)
04. Under My Thumb [03:45] (1969-12-06: Altamont Speedway, Livermore, CA, Live Concert)
05. Good Times [02:07] (1965-05-12: RCA Studios, Hollywood, CA, Studio Session)
06. Year Blues [03:59] (1968-12-10&11 London)
07. (I Can't Get No) Satisfaction [05:29] (1969-11-28: Madison Square Garden (2nd show), New York City, NY, Live Concert)
08. She's A Rainbow [03:22] (1967-07-02: Olympic Sound Studios, London, UK, Studio Session)
09. Paint It Black [02:19] (1966-03-06: RCA Studios, Los Angeles, CA, Studio Session)
10. I Got The Blues [03:40] (1970-03-14: Stargroves, Newbury, UK, Studio Session)
11. Salt Of The Earth [04:21] (1968-12-11: Intertel Studios, London, UK, TV appearance)

The Rolling Stones - Ultra Rare Trax Complete (1989-93) [10 CD]


Ultra Rare Trax Vol. 9 [The Genuine Pig TGP-CD-132]
APE | 175 Mb | MP3 | 96 Mb


01. Don't Lie To Me [01:43] (1964-06-11: Chess Studios, Chicago, IL, Studio Session)
02. Looking Tired [02:22] (1965-09-06: RCA Studios-Hollywood, Los Angeles, CA, Studio Session)
03. Honky Tonk Women [04:27] (1969-11-10: Sports Arena, San Diego, CA, Live Concert)
04. Street Fighting Man [03:56] (1969-11-10: Sports Arena, San Diego, CA, Live Concert)
05. Citadel [02:49] (1967-07-02: Olympic Sound Studios, London, UK, Studio Session)
06. Love In Vain [03:40] (969-11-18: 'Ed Sullivan Show' CBS TV Studio, New York City, NY, TV appearance)
07. Sympathy For The Devil [08:46] (1968-12-11: Intertel Studios, London, UK, TV appearance)
08. (I Can't Get No) Satisfaction [03:52] (1965-05-12: RCA Studios, Hollywood, CA, Studio Session)
09. Around And Around [02:44] (1964-07-17: 'Top Gear', London, UK, Radio performance)
10. Leather Jacket [03:21] (1970-06-16: Olympic Sound Studios, London, England, Studio Session)
11. The Spider And The Fly [02:43] (1965-05-12: RCA Studios, Hollywood, CA, Studio Session)

The Rolling Stones - Ultra Rare Trax Complete (1989-93) [10 CD]


Ultra Rare Trax Vol. 10 [The Genuine Pig TGP-CD-146]
APE | 353 Mb | MP3 | 165 Mb


01. Gimme Shelter [04:33] (1969-10-17: Elektra Studios, Los Angeles, CA, Studio Session)
02. You Got The Silver [02:52] (1969-02-10: Olympic Sound Studios, London, England, Studio Session)
03. Sister Morphine [05:35] (1969-02-10: Olympic Sound Studios, London, England, Studio Session)
04. Loving Cup [06:40] (1969-04-17: Olympic Sound Studios, London, England, Studio Session)
05. You Gotta Move [02:36] (1969-12-09: Olympic Sound Studios, London, UK, Studio Session)
06. Brown Sugar [03:48] (1969-12-02: Muscle Shoals Sound Studios, Florence, AL, Studio Session)
07. Shake Your Hips [03:38] (1972-05-18: Rialto Theater, Montreux, Switzerland, Rehearsal)
08. Tumbling Dice [08:46] (1972-05-18: Rialto Theater, Montreux, Switzerland, Rehearsal)
09. Bluesberry Jam [03:33] (1972-05-18: Rialto Theater, Montreux, Switzerland, Rehearsal)
10. Ventilator Blues [05:53] (972-06-23: Sumet-Burnet Recording Studio, Dallas, TX, Rehearsal)
11. Bitch [03:39] (1970-10-17: Olympic Sound Studios, London, England, Studio Session)
12. Brown Sugar [03:51] (1969-12-09: Olympic Sound Studios, London, UK, Studio Session)
14. Angie [04:34] (1972-11-25: Dynamic Sound Studios, Kingston, Jamaica, Studio Session)
15. Shine A Light [04:10] (1970-06-16: Olympic Sound Studios, London, England, Studio Session)

Notes

Members of The Rolling Stones: Mick Jagger, Keith Richards, Ron Wood, Bill Wyman, Brian Jones, Charlie Watts and Mick Taylor.

Bootleg / Unauthorized

The Rolling Stones - Ultra Rare Trax Complete (1989-93) [10 CD]


Exact Audio Copy V0.99 prebeta 4 from 23. January 2008

Отчёт EAC об извлечении, выполненном 7. февраля 2009, 14:15

Rolling Stones / Ultra Rare Tracks 1

Дисковод: Optiarc DVD RW AD-7191S Adapter: 0 ID: 1

Режим чтения : Достоверность
Использование точного потока : Да
Отключение кэша аудио : Да
Использование указателей C2 : Нет

Коррекция смещения при чтении : 6
Способность читать области Lead-in и Lead-out : Нет
Заполнение пропущенных сэмплов тишиной : Да
Удаление блоков с тишиной в начале и конце : Нет
При вычислениях CRC использовались нулевые сэмплы : Да
Интерфейс : Установленный внешний ASPI-интерфейс

Выходной формат : Внутренние WAV-операции
Формат сэмплов : 44.100 Гц; 16 бит; стерео


TOC извлечённого CD

Трек | Старт | Длительность | Начальный сектор | Конечный сектор
––––––––––––––––––––––––––––––––––-
1 | 0:00.33 | 5:10.37 | 33 | 23319
2 | 5:10.70 | 2:36.33 | 23320 | 35052
3 | 7:47.28 | 1:57.07 | 35053 | 43834
4 | 9:44.35 | 4:55.30 | 43835 | 65989
5 | 14:39.65 | 2:00.38 | 65990 | 75027
6 | 16:40.28 | 7:29.27 | 75028 | 108729
7 | 24:09.55 | 2:52.68 | 108730 | 121697
8 | 27:02.48 | 2:19.52 | 121698 | 132174
9 | 29:22.25 | 1:55.55 | 132175 | 140854
10 | 31:18.05 | 3:33.20 | 140855 | 156849
11 | 34:51.25 | 2:38.40 | 156850 | 168739
12 | 37:29.65 | 2:43.65 | 168740 | 181029
13 | 40:13.55 | 3:01.30 | 181030 | 194634


Характеристики диапазона извлечения и сообщения об ошибках

Выбранный диапазон

Имя файла E:\Rolling Stones\Ultra Rare Tracks 1\Rolling Stones - Ultra Rare Tracks 1.wav

Пиковый уровень 84.3 %
Качество диапазона 100.0 %
CRC копии A98F0216
Копирование… OK

Ошибок не произошло

Конец отчёта

Exact Audio Copy V0.99 prebeta 4 from 23. January 2008

Отчёт EAC об извлечении, выполненном 14. января 2009, 13:09

Rolling Stones / Ultra Rare Tracks 2

Дисковод: Optiarc DVD RW AD-7191S Adapter: 0 ID: 1

Режим чтения : Достоверность
Использование точного потока : Да
Отключение кэша аудио : Да
Использование указателей C2 : Нет

Коррекция смещения при чтении : 6
Способность читать области Lead-in и Lead-out : Нет
Заполнение пропущенных сэмплов тишиной : Да
Удаление блоков с тишиной в начале и конце : Нет
При вычислениях CRC использовались нулевые сэмплы : Да
Интерфейс : Установленный внешний ASPI-интерфейс

Выходной формат : Внутренние WAV-операции
Формат сэмплов : 44.100 Гц; 16 бит; стерео


TOC извлечённого CD

Трек | Старт | Длительность | Начальный сектор | Конечный сектор
––––––––––––––––––––––––––––––––––-
1 | 0:00.32 | 2:16.55 | 32 | 10286
2 | 2:17.12 | 2:23.58 | 10287 | 21069
3 | 4:40.70 | 3:33.72 | 21070 | 37116
4 | 8:14.67 | 2:55.15 | 37117 | 50256
5 | 11:10.07 | 3:27.10 | 50257 | 65791
6 | 14:37.17 | 4:13.70 | 65792 | 84836
7 | 18:51.12 | 2:04.73 | 84837 | 94209
8 | 20:56.10 | 2:53.70 | 94210 | 107254
9 | 23:50.05 | 2:57.12 | 107255 | 120541
10 | 26:47.17 | 3:42.60 | 120542 | 137251
11 | 30:30.02 | 3:00.05 | 137252 | 150756
12 | 33:30.07 | 3:15.38 | 150757 | 165419
13 | 36:45.45 | 3:02.52 | 165420 | 179121
14 | 39:48.22 | 3:01.13 | 179122 | 192709


Характеристики диапазона извлечения и сообщения об ошибках

Выбранный диапазон

Имя файла E:\Rolling Stones\Ultra Rare Tracks 2\Rolling Stones - Ultra Rare Tracks 2.wav

Пиковый уровень 75.5 %
Качество диапазона 100.0 %
CRC копии 2D09A87C
Копирование… OK

Ошибок не произошло

Конец отчёта

Exact Audio Copy V0.99 prebeta 4 from 23. January 2008

Отчёт EAC об извлечении, выполненном 14. января 2009, 13:32

Rolling Stones / Ultra Rare Tracks 3

Дисковод: Optiarc DVD RW AD-7191S Adapter: 0 ID: 1

Режим чтения : Достоверность
Использование точного потока : Да
Отключение кэша аудио : Да
Использование указателей C2 : Нет

Коррекция смещения при чтении : 6
Способность читать области Lead-in и Lead-out : Нет
Заполнение пропущенных сэмплов тишиной : Да
Удаление блоков с тишиной в начале и конце : Нет
При вычислениях CRC использовались нулевые сэмплы : Да
Интерфейс : Установленный внешний ASPI-интерфейс

Выходной формат : Внутренние WAV-операции
Формат сэмплов : 44.100 Гц; 16 бит; стерео


TOC извлечённого CD

Трек | Старт | Длительность | Начальный сектор | Конечный сектор
––––––––––––––––––––––––––––––––––-
1 | 0:00.33 | 2:53.25 | 33 | 13032
2 | 2:53.58 | 2:03.37 | 13033 | 22294
3 | 4:57.20 | 3:32.40 | 22295 | 38234
4 | 8:29.60 | 3:44.65 | 38235 | 55099
5 | 12:14.50 | 4:06.15 | 55100 | 73564
6 | 16:20.65 | 2:37.40 | 73565 | 85379
7 | 18:58.30 | 3:07.05 | 85380 | 99409
8 | 22:05.35 | 2:53.25 | 99410 | 112409
9 | 24:58.60 | 2:52.35 | 112410 | 125344
10 | 27:51.20 | 2:03.55 | 125345 | 134624
11 | 29:55.00 | 3:12.50 | 134625 | 149074
12 | 33:07.50 | 2:12.33 | 149075 | 159007
13 | 35:20.08 | 2:00.62 | 159008 | 168069
14 | 37:20.70 | 3:58.30 | 168070 | 185949


Характеристики диапазона извлечения и сообщения об ошибках

Выбранный диапазон

Имя файла E:\Rolling Stones\Ultra Rare Tracks 3\Rolling Stones - Ultra Rare Tracks 3.wav

Пиковый уровень 88.9 %
Качество диапазона 100.0 %
CRC копии E8F95923
Копирование… OK

Ошибок не произошло

Конец отчёта

Exact Audio Copy V0.99 prebeta 4 from 23. January 2008

Отчёт EAC об извлечении, выполненном 14. января 2009, 13:51

Rolling Stones / Ultra Rare Tracks 4

Дисковод: Optiarc DVD RW AD-7191S Adapter: 0 ID: 1

Режим чтения : Достоверность
Использование точного потока : Да
Отключение кэша аудио : Да
Использование указателей C2 : Нет

Коррекция смещения при чтении : 6
Способность читать области Lead-in и Lead-out : Нет
Заполнение пропущенных сэмплов тишиной : Да
Удаление блоков с тишиной в начале и конце : Нет
При вычислениях CRC использовались нулевые сэмплы : Да
Интерфейс : Установленный внешний ASPI-интерфейс

Выходной формат : Внутренние WAV-операции
Формат сэмплов : 44.100 Гц; 16 бит; стерео


TOC извлечённого CD

Трек | Старт | Длительность | Начальный сектор | Конечный сектор
––––––––––––––––––––––––––––––––––-
1 | 0:00.32 | 5:46.25 | 32 | 26006
2 | 5:46.57 | 3:23.25 | 26007 | 41256
3 | 9:10.07 | 2:30.00 | 41257 | 52506
4 | 11:40.07 | 3:06.38 | 52507 | 66494
5 | 14:46.45 | 2:57.62 | 66495 | 79831
6 | 17:44.32 | 3:30.50 | 79832 | 95631
7 | 21:15.07 | 2:44.10 | 95632 | 107941
8 | 23:59.17 | 2:14.08 | 107942 | 117999
9 | 26:13.25 | 2:15.65 | 118000 | 128189
10 | 28:29.15 | 5:02.35 | 128190 | 150874
11 | 33:31.50 | 3:16.15 | 150875 | 165589
12 | 36:47.65 | 2:31.05 | 165590 | 176919
13 | 39:18.70 | 3:44.22 | 176920 | 193741


Характеристики диапазона извлечения и сообщения об ошибках

Выбранный диапазон

Имя файла E:\Rolling Stones\Ultra Rare Tracks 4\Rolling Stones - Ultra Rare Tracks 4.wav

Пиковый уровень 83.9 %
Качество диапазона 100.0 %
CRC копии BED99EC7
Копирование… OK

Ошибок не произошло

Конец отчёта

Exact Audio Copy V0.99 prebeta 4 from 23. January 2008

Отчёт EAC об извлечении, выполненном 14. января 2009, 12:57

Rolling Stones / Ultra Rare Tracks 5

Дисковод: Optiarc DVD RW AD-7191S Adapter: 0 ID: 1

Режим чтения : Достоверность
Использование точного потока : Да
Отключение кэша аудио : Да
Использование указателей C2 : Нет

Коррекция смещения при чтении : 6
Способность читать области Lead-in и Lead-out : Нет
Заполнение пропущенных сэмплов тишиной : Да
Удаление блоков с тишиной в начале и конце : Нет
При вычислениях CRC использовались нулевые сэмплы : Да
Интерфейс : Установленный внешний ASPI-интерфейс

Выходной формат : Внутренние WAV-операции
Формат сэмплов : 44.100 Гц; 16 бит; стерео


TOC извлечённого CD

Трек | Старт | Длительность | Начальный сектор | Конечный сектор
––––––––––––––––––––––––––––––––––-
1 | 0:00.32 | 9:32.30 | 32 | 42961
2 | 9:32.62 | 3:45.50 | 42962 | 59886
3 | 13:18.37 | 3:00.70 | 59887 | 73456
4 | 16:19.32 | 2:10.43 | 73457 | 83249
5 | 18:30.00 | 3:54.52 | 83250 | 100851
6 | 22:24.52 | 3:26.33 | 100852 | 116334
7 | 25:51.10 | 2:45.32 | 116335 | 128741
8 | 28:36.42 | 3:12.73 | 128742 | 143214
9 | 31:49.40 | 3:36.35 | 143215 | 159449
10 | 35:26.00 | 2:44.42 | 159450 | 171791
11 | 38:10.42 | 1:58.40 | 171792 | 180681
12 | 40:09.07 | 3:29.68 | 180682 | 196424


Характеристики диапазона извлечения и сообщения об ошибках

Выбранный диапазон

Имя файла E:\Rolling Stones\Rolling Stones - Ultra Rare Tracks 5.wav

Пиковый уровень 89.5 %
Качество диапазона 99.9 %
CRC копии C9319AD2
Копирование… OK

Ошибок не произошло

Конец отчёта

Exact Audio Copy V0.99 prebeta 4 from 23. January 2008

Отчёт EAC об извлечении, выполненном 14. января 2009, 14:01

Rolling Stones / Ultra Rare Tracks 6

Дисковод: Optiarc DVD RW AD-7191S Adapter: 0 ID: 1

Режим чтения : Достоверность
Использование точного потока : Да
Отключение кэша аудио : Да
Использование указателей C2 : Нет

Коррекция смещения при чтении : 6
Способность читать области Lead-in и Lead-out : Нет
Заполнение пропущенных сэмплов тишиной : Да
Удаление блоков с тишиной в начале и конце : Нет
При вычислениях CRC использовались нулевые сэмплы : Да
Интерфейс : Установленный внешний ASPI-интерфейс

Выходной формат : Внутренние WAV-операции
Формат сэмплов : 44.100 Гц; 16 бит; стерео


TOC извлечённого CD

Трек | Старт | Длительность | Начальный сектор | Конечный сектор
––––––––––––––––––––––––––––––––––-
1 | 0:00.32 | 1:54.40 | 32 | 8621
2 | 1:54.72 | 3:36.05 | 8622 | 24826
3 | 5:31.02 | 3:43.05 | 24827 | 41556
4 | 9:14.07 | 2:29.30 | 41557 | 52761
5 | 11:43.37 | 5:47.50 | 52762 | 78836
6 | 17:31.12 | 3:15.20 | 78837 | 93481
7 | 20:46.32 | 3:18.38 | 93482 | 108369
8 | 24:04.70 | 2:57.10 | 108370 | 121654
9 | 27:02.05 | 3:43.45 | 121655 | 138424
10 | 30:45.50 | 5:04.12 | 138425 | 161236
11 | 35:49.62 | 3:25.58 | 161237 | 176669
12 | 39:15.45 | 0:49.07 | 176670 | 180351


Характеристики диапазона извлечения и сообщения об ошибках

Выбранный диапазон

Имя файла E:\Rolling Stones\Ultra Rare Tracks 6\Rolling Stones - Ultra Rare Tracks 6.wav

Пиковый уровень 75.7 %
Качество диапазона 100.0 %
CRC копии 35B8B6BD
Копирование… OK

Ошибок не произошло

Конец отчёта

Exact Audio Copy V0.99 prebeta 4 from 23. January 2008

Отчёт EAC об извлечении, выполненном 14. января 2009, 14:59

Rolling Stones / Ultra Rare Tracks 7

Дисковод: Optiarc DVD RW AD-7191S Adapter: 0 ID: 1

Режим чтения : Достоверность
Использование точного потока : Да
Отключение кэша аудио : Да
Использование указателей C2 : Нет

Коррекция смещения при чтении : 6
Способность читать области Lead-in и Lead-out : Нет
Заполнение пропущенных сэмплов тишиной : Да
Удаление блоков с тишиной в начале и конце : Нет
При вычислениях CRC использовались нулевые сэмплы : Да
Интерфейс : Установленный внешний ASPI-интерфейс

Выходной формат : Внутренние WAV-операции
Формат сэмплов : 44.100 Гц; 16 бит; стерео


TOC извлечённого CD

Трек | Старт | Длительность | Начальный сектор | Конечный сектор
––––––––––––––––––––––––––––––––––-
1 | 0:00.32 | 8:18.23 | 32 | 37404
2 | 8:18.55 | 3:44.32 | 37405 | 54236
3 | 12:03.12 | 3:51.35 | 54237 | 71596
4 | 15:54.47 | 3:41.28 | 71597 | 88199
5 | 19:36.00 | 2:07.02 | 88200 | 97726
6 | 21:43.02 | 3:04.65 | 97727 | 111591
7 | 24:47.67 | 2:57.70 | 111592 | 124936
8 | 27:45.62 | 2:19.10 | 124937 | 135371
9 | 30:04.72 | 3:55.38 | 135372 | 153034
10 | 34:00.35 | 3:57.35 | 153035 | 170844
11 | 37:57.70 | 4:34.37 | 170845 | 191431


Характеристики диапазона извлечения и сообщения об ошибках

Выбранный диапазон

Имя файла E:\Rolling Stones\Ultra Rare Tracks 7\Rolling Stones - Ultra Rare Tracks 7.wav

Пиковый уровень 79.9 %
Качество диапазона 100.0 %
CRC копии 1B9154B4
Копирование… OK

Ошибок не произошло

Конец отчёта

Exact Audio Copy V0.99 prebeta 4 from 23. January 2008

Отчёт EAC об извлечении, выполненном 14. января 2009, 15:30

Rolling Stones / Ultra Rare Tracks 8

Дисковод: Optiarc DVD RW AD-7191S Adapter: 0 ID: 1

Режим чтения : Достоверность
Использование точного потока : Да
Отключение кэша аудио : Да
Использование указателей C2 : Нет

Коррекция смещения при чтении : 6
Способность читать области Lead-in и Lead-out : Нет
Заполнение пропущенных сэмплов тишиной : Да
Удаление блоков с тишиной в начале и конце : Нет
При вычислениях CRC использовались нулевые сэмплы : Да
Интерфейс : Установленный внешний ASPI-интерфейс

Выходной формат : Внутренние WAV-операции
Формат сэмплов : 44.100 Гц; 16 бит; стерео


TOC извлечённого CD

Трек | Старт | Длительность | Начальный сектор | Конечный сектор
––––––––––––––––––––––––––––––––––-
1 | 0:00.33 | 4:19.00 | 33 | 19457
2 | 4:19.33 | 3:02.35 | 19458 | 33142
3 | 7:21.68 | 4:39.65 | 33143 | 54132
4 | 12:01.58 | 3:45.42 | 54133 | 71049
5 | 15:47.25 | 2:07.03 | 71050 | 80577
6 | 17:54.28 | 4:02.05 | 80578 | 98732
7 | 21:56.33 | 5:29.17 | 98733 | 123424
8 | 27:25.50 | 3:22.00 | 123425 | 138574
9 | 30:47.50 | 2:19.40 | 138575 | 149039
10 | 33:07.15 | 3:40.63 | 149040 | 165602
11 | 36:48.03 | 4:21.67 | 165603 | 185244


Характеристики диапазона извлечения и сообщения об ошибках

Выбранный диапазон

Имя файла E:\Rolling Stones\Ultra Rare Tracks 8\Rolling Stones - Ultra Rare Tracks 8.wav

Пиковый уровень 90.6 %
Качество диапазона 100.0 %
CRC копии 76952A0A
Копирование… OK

Ошибок не произошло

Конец отчёта

Exact Audio Copy V0.99 prebeta 4 from 23. January 2008

Отчёт EAC об извлечении, выполненном 14. января 2009, 15:19

Rolling Stones / Ultra Rare Tracks 9

Дисковод: Optiarc DVD RW AD-7191S Adapter: 0 ID: 1

Режим чтения : Достоверность
Использование точного потока : Да
Отключение кэша аудио : Да
Использование указателей C2 : Нет

Коррекция смещения при чтении : 6
Способность читать области Lead-in и Lead-out : Нет
Заполнение пропущенных сэмплов тишиной : Да
Удаление блоков с тишиной в начале и конце : Нет
При вычислениях CRC использовались нулевые сэмплы : Да
Интерфейс : Установленный внешний ASPI-интерфейс

Выходной формат : Внутренние WAV-операции
Формат сэмплов : 44.100 Гц; 16 бит; стерео


TOC извлечённого CD

Трек | Старт | Длительность | Начальный сектор | Конечный сектор
––––––––––––––––––––––––––––––––––-
1 | 0:00.33 | 1:43.32 | 33 | 7789
2 | 1:43.65 | 2:22.55 | 7790 | 18494
3 | 4:06.45 | 4:27.10 | 18495 | 38529
4 | 8:33.55 | 3:56.20 | 38530 | 56249
5 | 12:30.00 | 2:49.03 | 56250 | 68927
6 | 15:19.03 | 3:40.15 | 68928 | 85442
7 | 18:59.18 | 8:46.60 | 85443 | 124952
8 | 27:46.03 | 3:52.00 | 124953 | 142352
9 | 31:38.03 | 2:44.42 | 142353 | 154694
10 | 34:22.45 | 3:21.15 | 154695 | 169784
11 | 37:43.60 | 2:43.43 | 169785 | 182052


Характеристики диапазона извлечения и сообщения об ошибках

Выбранный диапазон

Имя файла E:\Rolling Stones\Ultra Rare Tracks 9\Rolling Stones - Ultra Rare Tracks 9.wav

Пиковый уровень 88.4 %
Качество диапазона 99.9 %
CRC копии 79797B73
Копирование… OK

Ошибок не произошло

Конец отчёта

Exact Audio Copy V0.99 prebeta 4 from 23. January 2008

Отчёт EAC об извлечении, выполненном 14. января 2009, 16:06

Rolling Stones / Ultra Rare Tracks

Дисковод: Optiarc DVD RW AD-7191S Adapter: 0 ID: 1

Режим чтения : Достоверность
Использование точного потока : Да
Отключение кэша аудио : Да
Использование указателей C2 : Нет

Коррекция смещения при чтении : 6
Способность читать области Lead-in и Lead-out : Нет
Заполнение пропущенных сэмплов тишиной : Да
Удаление блоков с тишиной в начале и конце : Нет
При вычислениях CRC использовались нулевые сэмплы : Да
Интерфейс : Установленный внешний ASPI-интерфейс

Выходной формат : Внутренние WAV-операции
Формат сэмплов : 44.100 Гц; 16 бит; стерео


TOC извлечённого CD

Трек | Старт | Длительность | Начальный сектор | Конечный сектор
––––––––––––––––––––––––––––––––––-
1 | 0:00.33 | 4:33.25 | 33 | 20532
2 | 4:33.58 | 2:52.00 | 20533 | 33432
3 | 7:25.58 | 5:35.50 | 33433 | 58607
4 | 13:01.33 | 6:40.00 | 58608 | 88607
5 | 19:41.33 | 2:36.12 | 88608 | 100319
6 | 22:17.45 | 3:48.25 | 100320 | 117444
7 | 26:05.70 | 3:38.48 | 117445 | 133842
8 | 29:44.43 | 8:46.72 | 133843 | 173364
9 | 38:31.40 | 3:33.10 | 173365 | 189349
10 | 42:04.50 | 5:53.18 | 189350 | 215842
11 | 47:57.68 | 3:39.65 | 215843 | 232332
12 | 51:37.58 | 3:51.00 | 232333 | 249657
13 | 55:28.58 | 5:31.50 | 249658 | 274532
14 | 61:00.33 | 4:34.50 | 274533 | 295132
15 | 65:35.08 | 4:10.25 | 295133 | 313907


Характеристики диапазона извлечения и сообщения об ошибках

Выбранный диапазон

Имя файла E:\Rolling Stones\Ultra Rare Tracks 10\Rolling Stones - Ultra Rare Tracks.wav

Пиковый уровень 100.0 %
Качество диапазона 100.0 %
CRC копии 1F8C6CD7
Копирование… OK

Ошибок не произошло

Конец отчёта


REM GENRE Rock
REM DATE 1989
REM DISCID A10A230D
REM COMMENT ExactAudioCopy v0.99pb4
PERFORMER "The Rolling Stones"
TITLE "Ultra Rare Trax, Vol. 1"
FILE "Rolling Stones - Ultra Rare Tracks 1.ape" WAVE
TRACK 01 AUDIO
TITLE "Alladin Story"
INDEX 00 00:00:00
INDEX 01 00:00:33
TRACK 02 AUDIO
TITLE "Diddley Daddy"
INDEX 00 05:10:60
INDEX 01 05:10:70
TRACK 03 AUDIO
TITLE "Ain't That Loving You Baby"
INDEX 01 07:47:28
TRACK 04 AUDIO
TITLE "Out Of Time"
INDEX 00 09:43:55
INDEX 01 09:44:35
TRACK 05 AUDIO
TITLE "Come On"
INDEX 00 14:39:05
INDEX 01 14:39:65
TRACK 06 AUDIO
TITLE "I Don't Know The Reason Why"
INDEX 00 16:40:12
INDEX 01 16:40:28
TRACK 07 AUDIO
TITLE "You've Got The Silver"
INDEX 00 24:07:62
INDEX 01 24:09:55
TRACK 08 AUDIO
TITLE "Memphis Tennessee"
INDEX 00 27:02:34
INDEX 01 27:02:48
TRACK 09 AUDIO
TITLE "Tell Me Baby"
INDEX 01 29:22:25
TRACK 10 AUDIO
TITLE "Prefab"
INDEX 00 31:17:55
INDEX 01 31:18:05
TRACK 11 AUDIO
TITLE "Memo From Turner"
INDEX 00 34:50:55
INDEX 01 34:51:25
TRACK 12 AUDIO
TITLE "Meet Me In The Bottom"
INDEX 00 37:29:41
INDEX 01 37:29:65
TRACK 13 AUDIO
TITLE "Road Runner"
INDEX 00 40:13:36
INDEX 01 40:13:55

REM GENRE Rock
REM DATE 1989
REM DISCID B30A090E
REM COMMENT ExactAudioCopy v0.99pb4
PERFORMER "The Rolling Stones"
TITLE "Ultra Rare Trax, Vol. 2"
FILE "Rolling Stones - Ultra Rare Tracks 2.ape" WAVE
TRACK 01 AUDIO
TITLE "Roll Over Beethoven"
INDEX 00 00:00:00
INDEX 01 00:00:32
TRACK 02 AUDIO
TITLE "Bright Lights Big City"
INDEX 00 02:16:27
INDEX 01 02:17:12
TRACK 03 AUDIO
TITLE "Dear Doctor"
INDEX 00 04:40:56
INDEX 01 04:40:70
TRACK 04 AUDIO
TITLE "It's All Over Now"
INDEX 00 08:13:59
INDEX 01 08:14:67
TRACK 05 AUDIO
TITLE "Jumpin' Jack Flash"
INDEX 00 11:09:31
INDEX 01 11:10:07
TRACK 06 AUDIO
TITLE "And I Was A Country Boy"
INDEX 00 14:36:07
INDEX 01 14:37:17
TRACK 07 AUDIO
TITLE "Not Fade Away"
INDEX 00 18:51:00
INDEX 01 18:51:12
TRACK 08 AUDIO
TITLE "Roll Over Beethoven"
INDEX 00 20:55:35
INDEX 01 20:56:10
TRACK 09 AUDIO
TITLE "Bright Lights Big City"
INDEX 00 23:48:44
INDEX 01 23:50:05
TRACK 10 AUDIO
TITLE "Dear Doctor"
INDEX 00 26:44:19
INDEX 01 26:47:17
TRACK 11 AUDIO
TITLE "It's All Over Now"
INDEX 00 30:29:49
INDEX 01 30:30:02
TRACK 12 AUDIO
TITLE "Jumpin' Jack Flash"
INDEX 00 33:28:70
INDEX 01 33:30:07
TRACK 13 AUDIO
TITLE "And I Was A Country Boy"
INDEX 00 36:44:56
INDEX 01 36:45:45
TRACK 14 AUDIO
TITLE "Not Fade Away"
INDEX 00 39:44:51
INDEX 01 39:48:22

REM GENRE Rock
REM DATE 1989
REM DISCID BB09AF0E
REM COMMENT ExactAudioCopy v0.99pb4
PERFORMER "The Rolling Stones"
TITLE "Ultra Rare Trax, Vol. 3"
FILE "Rolling Stones - Ultra Rare Tracks 3.ape" WAVE
TRACK 01 AUDIO
TITLE "Wild Horses"
INDEX 00 00:00:00
INDEX 01 00:00:33
TRACK 02 AUDIO
TITLE "Down The Road Apiece"
INDEX 00 02:53:44
INDEX 01 02:53:58
TRACK 03 AUDIO
TITLE "Everybody Needs Somebody To Love"
INDEX 00 04:57:13
INDEX 01 04:57:20
TRACK 04 AUDIO
TITLE "Who Am I"
INDEX 00 08:28:29
INDEX 01 08:29:60
TRACK 05 AUDIO
TITLE "Brown Sugar"
INDEX 00 12:10:69
INDEX 01 12:14:50
TRACK 06 AUDIO
TITLE "Shades Of Orange"
INDEX 00 16:17:38
INDEX 01 16:20:65
TRACK 07 AUDIO
TITLE "The Last Time"
INDEX 00 18:58:14
INDEX 01 18:58:30
TRACK 08 AUDIO
TITLE "Mercy Mercy"
INDEX 00 22:04:43
INDEX 01 22:05:35
TRACK 09 AUDIO
TITLE "I'm Going Down"
INDEX 00 24:56:52
INDEX 01 24:58:60
TRACK 10 AUDIO
TITLE "I Don't Know Why"
INDEX 00 27:48:59
INDEX 01 27:51:20
TRACK 11 AUDIO
TITLE "Ruby Tuesday"
INDEX 00 29:51:38
INDEX 01 29:55:00
TRACK 12 AUDIO
TITLE "Crackin' Up"
INDEX 00 33:07:08
INDEX 01 33:07:50
TRACK 13 AUDIO
TITLE "I Want To Be Loved"
INDEX 00 35:19:42
INDEX 01 35:20:08
TRACK 14 AUDIO
TITLE "Potted Shrimp"
INDEX 00 37:20:67
INDEX 01 37:20:70

REM GENRE Rock
REM DATE 1989
REM DISCID A00A170D
REM COMMENT ExactAudioCopy v0.99pb4
PERFORMER "The Rolling Stones"
TITLE "Ultra Rare Trax, Vol. 4"
FILE "Rolling Stones - Ultra Rare Tracks 4.ape" WAVE
TRACK 01 AUDIO
TITLE "Travelin' Man"
INDEX 00 00:00:00
INDEX 01 00:00:32
TRACK 02 AUDIO
TITLE "Baby, What's Wrong"
INDEX 00 05:46:46
INDEX 01 05:46:57
TRACK 03 AUDIO
TITLE "Straight On"
INDEX 00 09:09:69
INDEX 01 09:10:07
TRACK 04 AUDIO
TITLE "Cry To Me"
INDEX 00 11:39:26
INDEX 01 11:40:07
TRACK 05 AUDIO
TITLE "Andrew's Blues"
INDEX 00 14:45:01
INDEX 01 14:46:45
TRACK 06 AUDIO
TITLE "Family"
INDEX 00 17:42:26
INDEX 01 17:44:32
TRACK 07 AUDIO
TITLE "Dancing In The Light"
INDEX 00 21:13:69
INDEX 01 21:15:07
TRACK 08 AUDIO
TITLE "Fanny Mae"
INDEX 00 23:58:56
INDEX 01 23:59:17
TRACK 09 AUDIO
TITLE "As Time Goes By"
INDEX 00 26:11:29
INDEX 01 26:13:25
TRACK 10 AUDIO
TITLE "Blood Red Wine"
INDEX 00 28:27:56
INDEX 01 28:29:15
TRACK 11 AUDIO
TITLE "No Expectations"
INDEX 00 33:31:27
INDEX 01 33:31:50
TRACK 12 AUDIO
TITLE "Poison Ivy"
INDEX 00 36:46:41
INDEX 01 36:47:65
TRACK 13 AUDIO
TITLE "Satisfaction"
INDEX 00 39:18:56
INDEX 01 39:18:70

REM GENRE Rock
REM DATE 1989
REM DISCID 8E0A3B0C
REM COMMENT ExactAudioCopy v0.99pb4
PERFORMER "The Rolling Stones"
TITLE "Ultra Rare Trax, Vol. 5"
FILE "Rolling Stones - Ultra Rare Tracks 5.ape" WAVE
TRACK 01 AUDIO
TITLE "Catfish"
INDEX 00 00:00:00
INDEX 01 00:00:32
TRACK 02 AUDIO
TITLE "2120 South Michigan Avenue"
INDEX 00 09:32:61
INDEX 01 09:32:62
TRACK 03 AUDIO
TITLE "Loving Sacred Loving"
INDEX 00 13:18:36
INDEX 01 13:18:37
TRACK 04 AUDIO
TITLE "Fortune Teller"
INDEX 01 16:19:32
TRACK 05 AUDIO
TITLE "High Blues"
INDEX 00 18:29:74
INDEX 01 18:30:00
TRACK 06 AUDIO
TITLE "The Spider And The Fly"
INDEX 00 22:24:51
INDEX 01 22:24:52
TRACK 07 AUDIO
TITLE "Mother's Little Helper"
INDEX 00 25:51:09
INDEX 01 25:51:10
TRACK 08 AUDIO
TITLE "Stuck Out All Alone"
INDEX 00 28:36:41
INDEX 01 28:36:42
TRACK 09 AUDIO
TITLE "Downtown Suzie"
INDEX 01 31:49:40
TRACK 10 AUDIO
TITLE "Around and Around"
INDEX 00 35:25:74
INDEX 01 35:26:00
TRACK 11 AUDIO
TITLE "If You Need Me"
INDEX 00 38:10:41
INDEX 01 38:10:42
TRACK 12 AUDIO
TITLE "Cocksucker Blues"
INDEX 01 40:09:07

REM GENRE Rock
REM DATE 1989
REM DISCID 9109640C
REM COMMENT ExactAudioCopy v0.99pb4
PERFORMER "The Rolling Stones"
TITLE "Ultra Rare Trax, Vol. 6"
FILE "Rolling Stones - Ultra Rare Tracks 6.ape" WAVE
TRACK 01 AUDIO
TITLE "Oh Baby"
INDEX 00 00:00:00
INDEX 01 00:00:32
TRACK 02 AUDIO
TITLE "Family"
INDEX 00 01:53:61
INDEX 01 01:54:72
TRACK 03 AUDIO
TITLE "Let's Spend The Night Together"
INDEX 00 05:29:68
INDEX 01 05:31:02
TRACK 04 AUDIO
TITLE "I Can't Be Satisfied"
INDEX 00 09:11:67
INDEX 01 09:14:07
TRACK 05 AUDIO
TITLE "Wild Horses"
INDEX 00 11:42:01
INDEX 01 11:43:37
TRACK 06 AUDIO
TITLE "I Can See It"
INDEX 00 17:27:61
INDEX 01 17:31:12
TRACK 07 AUDIO
TITLE "Leather Jacket"
INDEX 00 20:45:64
INDEX 01 20:46:32
TRACK 08 AUDIO
TITLE "Country Honk"
INDEX 00 24:02:36
INDEX 01 24:04:70
TRACK 09 AUDIO
TITLE "Heart Of Stone"
INDEX 00 27:01:56
INDEX 01 27:02:05
TRACK 10 AUDIO
TITLE "Highway Child"
INDEX 00 30:45:06
INDEX 01 30:45:50
TRACK 11 AUDIO
TITLE "Stewed & Keefed"
INDEX 00 35:47:59
INDEX 01 35:49:62
TRACK 12 AUDIO
TITLE "You Gotta Move"
INDEX 00 39:14:71
INDEX 01 39:15:45

REM GENRE Rock
REM DATE 1990
REM DISCID 9809F80B
REM COMMENT ExactAudioCopy v0.99pb4
PERFORMER "The Rolling Stones"
TITLE "Ultra Rare Trax, Vol. 7"
FILE "Rolling Stones - Ultra Rare Tracks 7.ape" WAVE
TRACK 01 AUDIO
TITLE "Sympathy For The Devil"
INDEX 00 00:00:00
INDEX 01 00:00:32
TRACK 02 AUDIO
TITLE "Sing This All Together"
INDEX 00 08:17:54
INDEX 01 08:18:55
TRACK 03 AUDIO
TITLE "19th Nervous Breakdown"
INDEX 00 12:02:11
INDEX 01 12:03:12
TRACK 04 AUDIO
TITLE "Dirty Mac"
INDEX 00 15:53:49
INDEX 01 15:54:47
TRACK 05 AUDIO
TITLE "Beautiful"
INDEX 00 19:35:03
INDEX 01 19:36:00
TRACK 06 AUDIO
TITLE "Live With Me"
INDEX 00 21:42:04
INDEX 01 21:43:02
TRACK 07 AUDIO
TITLE "Good Time Woman"
INDEX 00 24:46:71
INDEX 01 24:47:67
TRACK 08 AUDIO
TITLE "Mona"
INDEX 00 27:44:61
INDEX 01 27:45:62
TRACK 09 AUDIO
TITLE "Love In Vain"
INDEX 00 30:04:05
INDEX 01 30:04:72
TRACK 10 AUDIO
TITLE "Brown Sugar"
INDEX 00 34:00:34
INDEX 01 34:00:35
TRACK 11 AUDIO
TITLE "You Can't Always Get What You Want"
INDEX 00 37:56:69
INDEX 01 37:57:70

REM GENRE Rock
REM DATE 1990
REM DISCID 9B09A50B
REM COMMENT ExactAudioCopy v0.99pb4
PERFORMER "The Rolling Stones"
TITLE "Ultra Rare Trax, Vol. 8"
FILE "Rolling Stones - Ultra Rare Tracks 8.ape" WAVE
TRACK 01 AUDIO
TITLE "Gimme Shelter"
INDEX 00 00:00:00
INDEX 01 00:00:33
TRACK 02 AUDIO
TITLE "Honky Tonk Women"
INDEX 00 04:18:03
INDEX 01 04:19:33
TRACK 03 AUDIO
TITLE "You Can't Always Get What You Want"
INDEX 00 07:21:67
INDEX 01 07:21:68
TRACK 04 AUDIO
TITLE "Under My Thumb"
INDEX 00 12:00:71
INDEX 01 12:01:58
TRACK 05 AUDIO
TITLE "Good Times"
INDEX 00 15:46:54
INDEX 01 15:47:25
TRACK 06 AUDIO
TITLE "Yer Blues"
INDEX 00 17:53:07
INDEX 01 17:54:28
TRACK 07 AUDIO
TITLE "Satisfaction"
INDEX 01 21:56:33
TRACK 08 AUDIO
TITLE "She's a Rainbow"
INDEX 00 27:24:05
INDEX 01 27:25:50
TRACK 09 AUDIO
TITLE "Paint It Black"
INDEX 00 30:47:12
INDEX 01 30:47:50
TRACK 10 AUDIO
TITLE "I Got the Blues"
INDEX 00 33:05:35
INDEX 01 33:07:15
TRACK 11 AUDIO
TITLE "Salt of the Earth"
INDEX 00 36:46:62
INDEX 01 36:48:03

REM GENRE Rock
REM DATE 1990
REM DISCID 7C097B0B
REM COMMENT ExactAudioCopy v0.99pb4
PERFORMER "The Rolling Stones"
TITLE "Ultra Rare Trax, Vol. 9"
FILE "Rolling Stones - Ultra Rare Tracks 9.ape" WAVE
TRACK 01 AUDIO
TITLE "Don't Lie To Me"
INDEX 00 00:00:00
INDEX 01 00:00:33
TRACK 02 AUDIO
TITLE "Looking Tired"
INDEX 00 01:42:05
INDEX 01 01:43:65
TRACK 03 AUDIO
TITLE "Honky Tonk Woman"
INDEX 00 04:05:33
INDEX 01 04:06:45
TRACK 04 AUDIO
TITLE "Street Fighting Man"
INDEX 00 08:33:54
INDEX 01 08:33:55
TRACK 05 AUDIO
TITLE "Citadel"
INDEX 01 12:30:00
TRACK 06 AUDIO
TITLE "Love In Vain"
INDEX 00 15:16:69
INDEX 01 15:19:03
TRACK 07 AUDIO
TITLE "Sympathy For The Devil"
INDEX 00 18:56:57
INDEX 01 18:59:18
TRACK 08 AUDIO
TITLE "Love In Vain"
INDEX 00 27:44:58
INDEX 01 27:46:03
TRACK 09 AUDIO
TITLE "Around & Around"
INDEX 00 31:36:28
INDEX 01 31:38:03
TRACK 10 AUDIO
TITLE "Leather Jacket"
INDEX 00 34:22:04
INDEX 01 34:22:45
TRACK 11 AUDIO
TITLE "The Spider & The Fly"
INDEX 00 37:41:56
INDEX 01 37:43:60

REM GENRE Rock
REM DATE 1992
REM DISCID EE10590F
REM COMMENT ExactAudioCopy v0.99pb4
PERFORMER "The Rolling Stones"
TITLE "Ultra Rare Trax, Vol. 10"
FILE "Rolling Stones - Ultra Rare Tracks.ape" WAVE
TRACK 01 AUDIO
TITLE "Gimme Shelter"
INDEX 00 00:00:00
INDEX 01 00:00:33
TRACK 02 AUDIO
TITLE "You've Got The Silver"
INDEX 01 04:33:58
TRACK 03 AUDIO
TITLE "Sister Morphine"
INDEX 00 07:25:57
INDEX 01 07:25:58
TRACK 04 AUDIO
TITLE "Loving Cup"
INDEX 00 13:01:32
INDEX 01 13:01:33
TRACK 05 AUDIO
TITLE "You Gotta Move"
INDEX 00 19:41:32
INDEX 01 19:41:33
TRACK 06 AUDIO
TITLE "Brown Sugar"
INDEX 00 22:17:44
INDEX 01 22:17:45
TRACK 07 AUDIO
TITLE "Hip Shake"
INDEX 01 26:05:70
TRACK 08 AUDIO
TITLE "Tumblin Dice #1 &#2"
INDEX 01 29:44:43
TRACK 09 AUDIO
TITLE "Blues Jam"
INDEX 00 38:31:39
INDEX 01 38:31:40
TRACK 10 AUDIO
TITLE "Ventilator Blues"
INDEX 01 42:04:50
TRACK 11 AUDIO
TITLE "Bitch"
INDEX 00 47:57:67
INDEX 01 47:57:68
TRACK 12 AUDIO
TITLE "Brown Sugar #1 &#2"
INDEX 00 51:37:57
INDEX 01 51:37:58
TRACK 13 AUDIO
TITLE "Wild Horses"
INDEX 00 55:28:57
INDEX 01 55:28:58
TRACK 14 AUDIO
TITLE "Angie"
INDEX 00 61:00:32
INDEX 01 61:00:33
TRACK 15 AUDIO
TITLE "Shine A Light"
INDEX 00 65:35:07
INDEX 01 65:35:08


Many thanks to the original uploader: efv

SEE also:
Keith Richards 1992 Main Offender [Japan, VJCP-28130]

Pink Floyd - Ultra Rare Trax, Vol. 1, 2, 3 (1990) [3 CD]